(Pop, Disco) Kylie Minogue - Remastered Deluxe Editions (4 x 2CD) (1988 - 1991) - 2015 [FLAC, tracks+.cue, lossless]

 
Автор Сообщение

sergej644 ®

Пол:

Стаж: 4 года 11 месяцев

Сообщений: 6046

Откуда: Soviet Union



Награды: Нет

Торрент-статистика

Создавать темы 07-Янв-2016 18:27

[Цитировать]

-Kylie Minogue / Remastered Deluxe Editions (4 x 2CD) (1988 - 1991)-- Год издания: 2015
Страна: Australia
Жанр: Pop, Disco
Продолжительность: 10:20:51-Лейбл издания: PWL Records
Страна-выпуска диска: UK
Формат: FLAC
Битрейт аудио: lossless
Тип рипа: tracks+.cue
Наличие сканов в содержимом раздачи: front
-

Трэклист

1988 Kylie (Deluxe Edition) (2CD) (PWL Records, KYLIE 1 T)

CD 1 | 01:18:59

01.I Should Be So Lucky (03:25)
02.The Loco-Motion (03:15)
03.Je Ne Sais Pas Pourquoi (04:03)
04.It's No Secret (03:58)
05.Got To Be Certain (03:21)
06.Turn It Into Love (03:38)
07.I Miss You (03:16)
08.I'll Still Be Loving You (03:50)
09.Look My Way (03:38)
10.Love At First Sight (03:13)
11.Made In Heaven (03:33)
12.Locomotion (03:17)
13.I Should Be So Lucky [Extended Version] (06:07)
14.Got To Be Certain [Extended Version] (06:36)
15.The Loco-Motion [The Kohaku Mix] (06:00)
16.Je Ne Sais Pas Pourquoi [Moi Non Plus Mix] (05:54)
17.It's No Secret [Extended Version] (05:48)
18.Made In Heaven [Maid In England Mix] (06:18)

CD 2 | 01:18:48

01.Locomotion [Chugga-Motion Mix] (07:38)
02.Getting Closer [Extended Oz Mix] (04:12)
03.I Should Be So Lucky [The Bicentennial Remix] (06:12)
04.Got To Be Certain [Extra Beat Boys Remix] (06:52)
05.The Loco-Motion [The Sankie Mix] (06:38)
06.Je Ne Sais Pas Pourquoi [The Revolutionary Mix] (07:15)
07.Made In Heaven [Original 12" Mix] (07:11)
08.I Should Be So Lucky [12" Remix] (05:32)
09.The Loco-Motion [12" Master] (09:13)
10.Glad To Be Alive (03:42)
11.Getting Closer [UK Mix] (04:03)
12.Made In Heaven [Heaven Scent Mix] (04:46)
13.The Loco-Motion [Oz Tour Mix] (05:41)

1989 Enjoy Yourself (Deluxe Edition) (2CD) (PWL Records, KYLIE 2 T)

CD 1 | 01:16:06

01.Hand On Your Heart (03:52)
02.Wouldn't Change A Thing (03:15)
03.Never Too Late (03:24)
04.Nothing To Lose (03:22)
05.Tell Tale Signs (02:27)
06.My Secret Heart (02:42)
07.I'm Over Dreaming (Over You) (03:25)
08.Tears On My Pillow (02:31)
09.Heaven and Earth (03:45)
10.Enjoy Yourself (03:46)
11.Especially For You (Duet with Jason Donovan) (04:01)
12.All I Wanna Do Is Make You Mine (Duet with Jason Donovan) (03:39)
13.Just Wanna Love You (03:33)
14.We Know The Meaning Of Love (03:32)
15.Hand On Your Heart [The Great Aorta Mix] (06:27)
16.Wouldn't Change A Thing [Your Thang Mix] (07:16)
17.Never Too Late [Extended Version] (06:11)
18.Tears On My Pillow [Extended Version] (04:06)
19.Especially For You (Duet with Jason Donovan) [Extended Version] (05:02)

CD 2 | 01:15:10

01.Hand On Your Heart [The Heartache Mix] (05:23)
02.Wouldn't Change A Thing [The Espagna Mix] (05:48)
03.I'm Over Dreaming (Over You) [Extended Remix] (04:57)
04.We Know The Meaning Of Love [Extended Version] (05:52)
05.Tears On My Pillow [12" Remix] (04:21)
06.Especially For You (Duet with Jason Donovan) [Original 12" Mix] (05:01)
07.All I Wanna Do Is Make You Mine (Duet with Jason Donovan) [Extended Version] (06:02)
08.Hand On Your Heart [Smokin' Remix] (05:34)
09.Wouldn't Change A Thing [Yoyo's 12" Mix] (06:38)
10.Especially For You (Duet with Jason Donovan) [Original 7" Mix] (03:32)
11.Hand On Your Heart [Video Mix] (03:46)
12.Wouldn't Change A Thing [The Espagna Mix Edit] (04:18)
13.Never Too Late [Oz Tour Mix] (05:07)
14.I'm Over Dreaming (Over You) [7" Remix] (03:24)
15.Hand On Your Heart [Dub] (05:33)

1990 Rhythm Of Love (Deluxe Edition) (2CD) (PWL Records, KYLIE 3 T)

CD 1 | 01:17:14

01.Better The Devil You Know (03:54)
02.Step Back In Time (03:06)
03.What Do I Have To Do (03:44)
04.Secrets (04:06)
05.Always Find The Time (03:36)
06.The World Still Turns (04:01)
07.Shocked (04:48)
08.One Boy Girl (04:35)
09.Things Can Only Get Better (03:57)
10.Count The Days (04:24)
11.Rhythm Of Love (04:19)
12.Better The Devil You Know [The Mad March Hare Mix] (07:09)
13.Step Back In Time [Walkin' Rhythm Mix] (08:01)
14.What Do I Have To Do [Pumpin' Mix] (07:48)
15.Shocked [DNA 12" Mix] (06:15)
16.Things Can Only Get Better [Original Mix] (03:37)

CD 2 | 01:19:02

01.Better The Devil You Know [Dave Ford Mix] (05:50)
02.Step Back In Time [Tony King Mix] (07:30)
03.What Do I Have To Do [Between The Sheets Mix] (07:06)
04.Shocked [Harding/Curnow 12" Mix] (07:32)
05.Better The Devil You Know [Alternative Mix] (03:20)
06.I Am The One For You (03:12)
07.What Do I Have To Do [Billy The Fish Mix] (07:31)
08.Better The Devil You Know [US Remix] (06:03)
09.One Boy Girl [12" Mix] (04:57)
10.Shocked [Harding/Curnow 7" Mix] (03:19)
11.Things Can Only Get Better [Original 12" Mix] (07:12)
12.What Do I Have To Do [Sax On The Beach Mix] (08:55)
13.Step Back In Time [The Big Shock] (06:38)

1991 Let's Get To It (Deluxe Edition) (2CD) (PWL Records, KYLIE 4 T)

CD 1 | 01:16:57

01.Word Is Out (03:37)
02.Give Me Just A Little More Time (03:09)
03.Too Much Of A Good Thing (04:25)
04.Finer Feelings (03:54)
05.If You Were With Me Now (Duet with Keith Washington) (03:11)
06.Let's Get To It (04:50)
07.Right Here, Right Now (03:54)
08.Live and Learn (03:15)
09.No World Without You (02:46)
10.I Guess I Like It Like That (06:01)
11.Say The Word - I'll Be There (04:13)
12.Do You Dare? [NRG Edit] (03:22)
13.Closer [Edit] (03:58)
14.Keep On Pumpin' It (The Visionmasters and Tony King featuring Kylie Minogue) [Angelic Remix Edit] (04:03)
15.Word Is Out [Extended Version] (05:52)
16.If You Were With Me Now (Duet with Keith Washington) [Extended Version] (05:10)
17.Give Me Just A Little More Time [Extended Version] (04:35)
18.Finer Feelings [Brothers In Rhythm 12" Mix] (06:49)

CD 2 | 01:18:39

01.Keep On Pumpin' It (The Visionmasters and Tony King featuring Kylie Minogue) [Angelic Remix] (07:26)
02.Do You Dare? [NRG Mix] (07:06)
03.Closer [The Pleasure Mix] (06:49)
04.Word Is Out [Summer Breeze Mix] (07:45)
05.Too Much Of A Good Thing [Original 12" Mix] (05:50)
06.Let's Get To It [Tony King 12" Mix] (06:01)
07.Right Here, Right Now [Tony King 12" Mix] (07:57)
08.Live and Learn [Original 12" Mix] (05:58)
09.Keep On Pumpin' It (The Visionmasters and Tony King featuring Kylie Minogue) [Astral Flight Mix] (06:56)
10.Do You Dare? [New Rave Mix] (06:41)
11.No World Without You [Original Mix] (02:55)
12.If You Were With Me Now (Duet with Keith Washington) [Orchestral Version] (03:12)
13.Finer Feelings [Brothers In Rhythm Dub] (04:09)
-

Лог создания рипа

1988

CD 1

Exact Audio Copy V1.0 beta 3 from 29. August 2011
EAC extraction logfile from 17. February 2015, 16:35
Kylie Minogue / Kylie [Deluxe Edition] [CD1]
Used drive  : Optiarc DVD+-RW AD-5170S   Adapter: 1  ID: 0
Read mode               : Secure
Utilize accurate stream : Yes
Defeat audio cache      : Yes
Make use of C2 pointers : No
Read offset correction                      : 48
Overread into Lead-In and Lead-Out          : No
Fill up missing offset samples with silence : Yes
Delete leading and trailing silent blocks   : No
Null samples used in CRC calculations       : Yes
Used interface                              : Native Win32 interface for Win NT & 2000
Gap handling                                : Appended to previous track
Used output format : Internal WAV Routines
Sample format      : 44.100 Hz; 16 Bit; Stereo
TOC of the extracted CD
     Track |   Start  |  Length  | Start sector | End sector
    ---------------------------------------------------------
        1  |  0:00.00 |  3:24.47 |         0    |    15346
        2  |  3:24.47 |  3:14.03 |     15347    |    29899
        3  |  6:38.50 |  4:02.03 |     29900    |    48052
        4  | 10:40.53 |  3:57.61 |     48053    |    65888
        5  | 14:38.39 |  3:20.42 |     65889    |    80930
        6  | 17:59.06 |  3:37.26 |     80931    |    97231
        7  | 21:36.32 |  3:15.47 |     97232    |   111903
        8  | 24:52.04 |  3:49.02 |    111904    |   129080
        9  | 28:41.06 |  3:37.20 |    129081    |   145375
       10  | 32:18.26 |  3:12.03 |    145376    |   159778
       11  | 35:30.29 |  3:32.19 |    159779    |   175697
       12  | 39:02.48 |  3:16.60 |    175698    |   190457
       13  | 42:19.33 |  6:06.20 |    190458    |   217927
       14  | 48:25.53 |  6:35.26 |    217928    |   247578
       15  | 55:01.04 |  5:59.42 |    247579    |   274545
       16  | 61:00.46 |  5:53.03 |    274546    |   301023
       17  | 66:53.49 |  5:47.37 |    301024    |   327085
       18  | 72:41.11 |  6:17.50 |    327086    |   355410
Track  1
     Filename C:\Users\Admin\Desktop\Kylie [Deluxe Edition] [CD1]\01 I Should Be So Lucky.wav
     Pre-gap length  0:00:02.00
     Peak level 100.0 %
     Extraction speed 3.1 X
     Track quality 100.0 %
     Test CRC 24D9A807
     Copy CRC 24D9A807
     Track not present in AccurateRip database
     Copy OK
Track  2
     Filename C:\Users\Admin\Desktop\Kylie [Deluxe Edition] [CD1]\02 The Loco-Motion.wav
     Pre-gap length  0:00:00.49
     Peak level 100.0 %
     Extraction speed 3.3 X
     Track quality 100.0 %
     Test CRC F9871F1D
     Copy CRC F9871F1D
     Track not present in AccurateRip database
     Copy OK
Track  3
     Filename C:\Users\Admin\Desktop\Kylie [Deluxe Edition] [CD1]\03 Je Ne Sais Pas Pourquoi.wav
     Pre-gap length  0:00:00.49
     Peak level 100.0 %
     Extraction speed 3.3 X
     Track quality 99.9 %
     Test CRC C741E7E1
     Copy CRC C741E7E1
     Track not present in AccurateRip database
     Copy OK
Track  4
     Filename C:\Users\Admin\Desktop\Kylie [Deluxe Edition] [CD1]\04 It's No Secret.wav
     Pre-gap length  0:00:00.49
     Peak level 100.0 %
     Extraction speed 4.0 X
     Track quality 100.0 %
     Test CRC 96CE022B
     Copy CRC 96CE022B
     Track not present in AccurateRip database
     Copy OK
Track  5
     Filename C:\Users\Admin\Desktop\Kylie [Deluxe Edition] [CD1]\05 Got To Be Certain.wav
     Pre-gap length  0:00:00.49
     Peak level 100.0 %
     Extraction speed 4.1 X
     Track quality 100.0 %
     Test CRC D1A10A53
     Copy CRC D1A10A53
     Track not present in AccurateRip database
     Copy OK
Track  6
     Filename C:\Users\Admin\Desktop\Kylie [Deluxe Edition] [CD1]\06 Turn It Into Love.wav
     Pre-gap length  0:00:00.49
     Peak level 100.0 %
     Extraction speed 4.4 X
     Track quality 100.0 %
     Test CRC B4019C26
     Copy CRC B4019C26
     Track not present in AccurateRip database
     Copy OK
Track  7
     Filename C:\Users\Admin\Desktop\Kylie [Deluxe Edition] [CD1]\07 I Miss You.wav
     Pre-gap length  0:00:00.50
     Peak level 100.0 %
     Extraction speed 4.5 X
     Track quality 100.0 %
     Test CRC 99BB2456
     Copy CRC 99BB2456
     Track not present in AccurateRip database
     Copy OK
Track  8
     Filename C:\Users\Admin\Desktop\Kylie [Deluxe Edition] [CD1]\08 I'll Still Be Loving You.wav
     Pre-gap length  0:00:00.50
     Peak level 100.0 %
     Extraction speed 4.8 X
     Track quality 100.0 %
     Test CRC 9CA08F0E
     Copy CRC 9CA08F0E
     Track not present in AccurateRip database
     Copy OK
Track  9
     Filename C:\Users\Admin\Desktop\Kylie [Deluxe Edition] [CD1]\09 Look My Way.wav
     Pre-gap length  0:00:00.50
     Peak level 100.0 %
     Extraction speed 5.0 X
     Track quality 100.0 %
     Test CRC 78FFDB48
     Copy CRC 78FFDB48
     Track not present in AccurateRip database
     Copy OK
Track 10
     Filename C:\Users\Admin\Desktop\Kylie [Deluxe Edition] [CD1]\10 Love At First Sight.wav
     Pre-gap length  0:00:00.50
     Peak level 100.0 %
     Extraction speed 5.1 X
     Track quality 100.0 %
     Test CRC 9204BF27
     Copy CRC 9204BF27
     Track not present in AccurateRip database
     Copy OK
Track 11
     Filename C:\Users\Admin\Desktop\Kylie [Deluxe Edition] [CD1]\11 Made In Heaven.wav
     Pre-gap length  0:00:00.49
     Peak level 100.0 %
     Extraction speed 5.3 X
     Track quality 100.0 %
     Test CRC 1F82CB75
     Copy CRC 1F82CB75
     Track not present in AccurateRip database
     Copy OK
Track 12
     Filename C:\Users\Admin\Desktop\Kylie [Deluxe Edition] [CD1]\12 Locomotion.wav
     Pre-gap length  0:00:00.50
     Peak level 99.6 %
     Extraction speed 5.3 X
     Track quality 100.0 %
     Test CRC 94178D87
     Copy CRC 94178D87
     Track not present in AccurateRip database
     Copy OK
Track 13
     Filename C:\Users\Admin\Desktop\Kylie [Deluxe Edition] [CD1]\13 I Should Be So Lucky [Extended Version].wav
     Pre-gap length  0:00:00.49
     Peak level 100.0 %
     Extraction speed 6.0 X
     Track quality 100.0 %
     Test CRC 5B5DFCED
     Copy CRC 5B5DFCED
     Track not present in AccurateRip database
     Copy OK
Track 14
     Filename C:\Users\Admin\Desktop\Kylie [Deluxe Edition] [CD1]\14 Got To Be Certain [Extended Version].wav
     Pre-gap length  0:00:00.49
     Peak level 100.0 %
     Extraction speed 6.3 X
     Track quality 100.0 %
     Test CRC C54F6DB8
     Copy CRC C54F6DB8
     Track not present in AccurateRip database
     Copy OK
Track 15
     Filename C:\Users\Admin\Desktop\Kylie [Deluxe Edition] [CD1]\15 The Loco-Motion [The Kohaku Mix].wav
     Pre-gap length  0:00:00.50
     Peak level 99.9 %
     Extraction speed 6.0 X
     Track quality 99.9 %
     Test CRC 6F8979B7
     Copy CRC 6F8979B7
     Track not present in AccurateRip database
     Copy OK
Track 16
     Filename C:\Users\Admin\Desktop\Kylie [Deluxe Edition] [CD1]\16 Je Ne Sais Pas Pourquoi [Moi Non Plus Mix].wav
     Pre-gap length  0:00:00.50
     Peak level 100.0 %
     Extraction speed 6.7 X
     Track quality 100.0 %
     Test CRC 07FBAAF4
     Copy CRC 07FBAAF4
     Track not present in AccurateRip database
     Copy OK
Track 17
     Filename C:\Users\Admin\Desktop\Kylie [Deluxe Edition] [CD1]\17 It's No Secret [Extended Version].wav
     Pre-gap length  0:00:00.50
     Peak level 100.0 %
     Extraction speed 6.9 X
     Track quality 100.0 %
     Test CRC 84F1B331
     Copy CRC 84F1B331
     Track not present in AccurateRip database
     Copy OK
Track 18
     Filename C:\Users\Admin\Desktop\Kylie [Deluxe Edition] [CD1]\18 Made In Heaven [Maid In England Mix].wav
     Pre-gap length  0:00:00.49
     Peak level 100.0 %
     Extraction speed 7.2 X
     Track quality 100.0 %
     Test CRC C4EBB3A2
     Copy CRC C4EBB3A2
     Track not present in AccurateRip database
     Copy OK
None of the tracks are present in the AccurateRip database
No errors occurred
End of status report
---- CUETools DB Plugin V2.1.3
[CTDB TOCID: IOCqVcNNSPkCTUt2bfeQg.j9SUE-] found, Submit result: already submitted
[6ea163c6] (4/4) Accurately ripped

CD 2

Exact Audio Copy V1.0 beta 3 from 29. August 2011
EAC extraction logfile from 17. February 2015, 17:00
Kylie Minogue / Kylie [Deluxe Edition] [CD2]
Used drive  : Optiarc DVD+-RW AD-5170S   Adapter: 1  ID: 0
Read mode               : Secure
Utilize accurate stream : Yes
Defeat audio cache      : Yes
Make use of C2 pointers : No
Read offset correction                      : 48
Overread into Lead-In and Lead-Out          : No
Fill up missing offset samples with silence : Yes
Delete leading and trailing silent blocks   : No
Null samples used in CRC calculations       : Yes
Used interface                              : Native Win32 interface for Win NT & 2000
Gap handling                                : Appended to previous track
Used output format : Internal WAV Routines
Sample format      : 44.100 Hz; 16 Bit; Stereo
TOC of the extracted CD
     Track |   Start  |  Length  | Start sector | End sector
    ---------------------------------------------------------
        1  |  0:00.00 |  7:37.33 |         0    |    34307
        2  |  7:37.33 |  4:11.18 |     34308    |    53150
        3  | 11:48.51 |  6:11.20 |     53151    |    80995
        4  | 17:59.71 |  6:51.36 |     80996    |   111856
        5  | 24:51.32 |  6:37.09 |    111857    |   141640
        6  | 31:28.41 |  7:15.00 |    141641    |   174265
        7  | 38:43.41 |  7:10.30 |    174266    |   206545
        8  | 45:53.71 |  5:31.02 |    206546    |   231372
        9  | 51:24.73 |  9:12.30 |    231373    |   272802
       10  | 60:37.28 |  3:41.37 |    272803    |   289414
       11  | 64:18.65 |  4:02.27 |    289415    |   307591
       12  | 68:21.17 |  4:45.43 |    307592    |   329009
       13  | 73:06.60 |  5:40.33 |    329010    |   354542
Track  1
     Filename C:\Users\Admin\Desktop\Kylie [Deluxe Edition] [CD2]\01 Locomotion [Chugga-Motion Mix].wav
     Pre-gap length  0:00:02.00
     Peak level 99.8 %
     Extraction speed 5.3 X
     Track quality 100.0 %
     Test CRC EAED2805
     Copy CRC EAED2805
     Track not present in AccurateRip database
     Copy OK
Track  2
     Filename C:\Users\Admin\Desktop\Kylie [Deluxe Edition] [CD2]\02 Getting Closer [Extended Oz Mix].wav
     Pre-gap length  0:00:00.49
     Peak level 100.0 %
     Extraction speed 5.6 X
     Track quality 100.0 %
     Test CRC FA3A48C4
     Copy CRC FA3A48C4
     Track not present in AccurateRip database
     Copy OK
Track  3
     Filename C:\Users\Admin\Desktop\Kylie [Deluxe Edition] [CD2]\03 I Should Be So Lucky [The Bicentennial Remix].wav
     Pre-gap length  0:00:00.50
     Peak level 100.0 %
     Extraction speed 6.4 X
     Track quality 100.0 %
     Test CRC EFFFBA5D
     Copy CRC EFFFBA5D
     Track not present in AccurateRip database
     Copy OK
Track  4
     Filename C:\Users\Admin\Desktop\Kylie [Deluxe Edition] [CD2]\04 Got To Be Certain [Extra Beat Boys Remix].wav
     Pre-gap length  0:00:00.50
     Peak level 100.0 %
     Extraction speed 7.1 X
     Track quality 100.0 %
     Test CRC 6AC0B27B
     Copy CRC 6AC0B27B
     Track not present in AccurateRip database
     Copy OK
Track  5
     Filename C:\Users\Admin\Desktop\Kylie [Deluxe Edition] [CD2]\05 The Loco-Motion [The Sankie Mix].wav
     Pre-gap length  0:00:00.49
     Peak level 100.0 %
     Extraction speed 7.7 X
     Track quality 100.0 %
     Test CRC 13D1C02D
     Copy CRC 13D1C02D
     Track not present in AccurateRip database
     Copy OK
Track  6
     Filename C:\Users\Admin\Desktop\Kylie [Deluxe Edition] [CD2]\06 Je Ne Sais Pas Pourquoi [The Revolutionary Mix].wav
     Pre-gap length  0:00:00.49
     Peak level 100.0 %
     Extraction speed 8.2 X
     Track quality 100.0 %
     Test CRC 8583375A
     Copy CRC 8583375A
     Track not present in AccurateRip database
     Copy OK
Track  7
     Filename C:\Users\Admin\Desktop\Kylie [Deluxe Edition] [CD2]\07 Made In Heaven [Original 12'' Mix].wav
     Pre-gap length  0:00:00.49
     Peak level 100.0 %
     Extraction speed 8.7 X
     Track quality 100.0 %
     Test CRC 78388126
     Copy CRC 78388126
     Track not present in AccurateRip database
     Copy OK
Track  8
     Filename C:\Users\Admin\Desktop\Kylie [Deluxe Edition] [CD2]\08 I Should Be So Lucky [12'' Remix].wav
     Pre-gap length  0:00:00.48
     Peak level 100.0 %
     Extraction speed 7.6 X
     Track quality 99.9 %
     Test CRC 480E9541
     Copy CRC 480E9541
     Track not present in AccurateRip database
     Copy OK
Track  9
     Filename C:\Users\Admin\Desktop\Kylie [Deluxe Edition] [CD2]\09 The Loco-Motion [12'' Master].wav
     Pre-gap length  0:00:00.49
     Peak level 100.0 %
     Extraction speed 8.7 X
     Track quality 99.9 %
     Test CRC 876E22C7
     Copy CRC 876E22C7
     Track not present in AccurateRip database
     Copy OK
Track 10
     Filename C:\Users\Admin\Desktop\Kylie [Deluxe Edition] [CD2]\10 Glad To Be Alive.wav
     Pre-gap length  0:00:00.49
     Peak level 99.0 %
     Extraction speed 9.0 X
     Track quality 100.0 %
     Test CRC 06BEFD80
     Copy CRC 06BEFD80
     Track not present in AccurateRip database
     Copy OK
Track 11
     Filename C:\Users\Admin\Desktop\Kylie [Deluxe Edition] [CD2]\11 Getting Closer [UK Mix].wav
     Pre-gap length  0:00:00.50
     Peak level 100.0 %
     Extraction speed 7.6 X
     Track quality 99.9 %
     Test CRC A1FA4FED
     Copy CRC A1FA4FED
     Track not present in AccurateRip database
     Copy OK
Track 12
     Filename C:\Users\Admin\Desktop\Kylie [Deluxe Edition] [CD2]\12 Made In Heaven [Heaven Scent Mix].wav
     Pre-gap length  0:00:00.50
     Peak level 100.0 %
     Extraction speed 9.8 X
     Track quality 100.0 %
     Test CRC 282A583C
     Copy CRC 282A583C
     Track not present in AccurateRip database
     Copy OK
Track 13
     Filename C:\Users\Admin\Desktop\Kylie [Deluxe Edition] [CD2]\13 The Loco-Motion [Oz Tour Mix].wav
     Pre-gap length  0:00:00.49
     Peak level 100.0 %
     Extraction speed 9.9 X
     Track quality 100.0 %
     Test CRC 12031B9F
     Copy CRC 12031B9F
     Track not present in AccurateRip database
     Copy OK
None of the tracks are present in the AccurateRip database
No errors occurred
End of status report
---- CUETools DB Plugin V2.1.3
[CTDB TOCID: IIq287dym1MkWo_m2B9i1o2BmN0-] found, Submit result: already submitted
[08747840] (3/3) Accurately ripped

1989

CD 1

Exact Audio Copy V1.0 beta 3 from 29. August 2011
EAC extraction logfile from 17. February 2015, 16:39
Kylie Minogue / Enjoy Yourself [Deluxe Edition] [CD1]
Used drive  : hp      DVD RW AD-7701H   Adapter: 0  ID: 1
Read mode               : Secure
Utilize accurate stream : Yes
Defeat audio cache      : Yes
Make use of C2 pointers : No
Read offset correction                      : 48
Overread into Lead-In and Lead-Out          : No
Fill up missing offset samples with silence : Yes
Delete leading and trailing silent blocks   : No
Null samples used in CRC calculations       : Yes
Used interface                              : Native Win32 interface for Win NT & 2000
Gap handling                                : Appended to previous track
Used output format : Internal WAV Routines
Sample format      : 44.100 Hz; 16 Bit; Stereo
TOC of the extracted CD
     Track |   Start  |  Length  | Start sector | End sector
    ---------------------------------------------------------
        1  |  0:00.00 |  3:51.44 |         0    |    17368
        2  |  3:51.44 |  3:14.66 |     17369    |    31984
        3  |  7:06.35 |  3:23.16 |     31985    |    47225
        4  | 10:29.51 |  3:21.27 |     47226    |    62327
        5  | 13:51.03 |  2:26.32 |     62328    |    73309
        6  | 16:17.35 |  2:41.52 |     73310    |    85436
        7  | 18:59.12 |  3:24.08 |     85437    |   100744
        8  | 22:23.20 |  2:30.17 |    100745    |   112011
        9  | 24:53.37 |  3:44.10 |    112012    |   128821
       10  | 28:37.47 |  3:45.08 |    128822    |   145704
       11  | 32:22.55 |  4:00.65 |    145705    |   163769
       12  | 36:23.45 |  3:38.03 |    163770    |   180122
       13  | 40:01.48 |  3:32.20 |    180123    |   196042
       14  | 43:33.68 |  3:31.59 |    196043    |   211926
       15  | 47:05.52 |  6:26.62 |    211927    |   240938
       16  | 53:32.39 |  7:15.29 |    240939    |   273592
       17  | 60:47.68 |  6:10.07 |    273593    |   301349
       18  | 66:58.00 |  4:05.69 |    301350    |   319793
       19  | 71:03.69 |  5:01.42 |    319794    |   342410
Track  1
     Filename C:\Users\user\Desktop\Enjoy Yourself [Deluxe Edition] [CD1]\01 Hand On Your Heart.wav
     Pre-gap length  0:00:02.00
     Peak level 100.0 %
     Extraction speed 2.9 X
     Track quality 100.0 %
     Test CRC A3392726
     Copy CRC A3392726
     Track not present in AccurateRip database
     Copy OK
Track  2
     Filename C:\Users\user\Desktop\Enjoy Yourself [Deluxe Edition] [CD1]\02 Wouldn't Change A Thing.wav
     Pre-gap length  0:00:00.50
     Peak level 100.0 %
     Extraction speed 2.5 X
     Track quality 99.9 %
     Test CRC 941E8C5B
     Copy CRC 941E8C5B
     Track not present in AccurateRip database
     Copy OK
Track  3
     Filename C:\Users\user\Desktop\Enjoy Yourself [Deluxe Edition] [CD1]\03 Never Too Late.wav
     Pre-gap length  0:00:00.49
     Peak level 100.0 %
     Extraction speed 3.3 X
     Track quality 100.0 %
     Test CRC D412A2D1
     Copy CRC D412A2D1
     Track not present in AccurateRip database
     Copy OK
Track  4
     Filename C:\Users\user\Desktop\Enjoy Yourself [Deluxe Edition] [CD1]\04 Nothing To Lose.wav
     Pre-gap length  0:00:00.49
     Peak level 100.0 %
     Extraction speed 3.6 X
     Track quality 100.0 %
     Test CRC 814C3009
     Copy CRC 814C3009
     Track not present in AccurateRip database
     Copy OK
Track  5
     Filename C:\Users\user\Desktop\Enjoy Yourself [Deluxe Edition] [CD1]\05 Tell Tale Signs.wav
     Pre-gap length  0:00:00.49
     Peak level 99.2 %
     Extraction speed 2.7 X
     Track quality 99.9 %
     Test CRC 8777F47C
     Copy CRC 8777F47C
     Track not present in AccurateRip database
     Copy OK
Track  6
     Filename C:\Users\user\Desktop\Enjoy Yourself [Deluxe Edition] [CD1]\06 My Secret Heart.wav
     Pre-gap length  0:00:00.50
     Peak level 98.8 %
     Extraction speed 2.9 X
     Track quality 99.9 %
     Test CRC B85D59B0
     Copy CRC B85D59B0
     Track not present in AccurateRip database
     Copy OK
Track  7
     Filename C:\Users\user\Desktop\Enjoy Yourself [Deluxe Edition] [CD1]\07 I'm Over Dreaming (Over You).wav
     Pre-gap length  0:00:00.50
     Peak level 100.0 %
     Extraction speed 4.0 X
     Track quality 100.0 %
     Test CRC B94448BC
     Copy CRC B94448BC
     Track not present in AccurateRip database
     Copy OK
Track  8
     Filename C:\Users\user\Desktop\Enjoy Yourself [Deluxe Edition] [CD1]\08 Tears On My Pillow.wav
     Pre-gap length  0:00:00.50
     Peak level 99.8 %
     Extraction speed 4.0 X
     Track quality 100.0 %
     Test CRC 5C48D8F0
     Copy CRC 5C48D8F0
     Track not present in AccurateRip database
     Copy OK
Track  9
     Filename C:\Users\user\Desktop\Enjoy Yourself [Deluxe Edition] [CD1]\09 Heaven and Earth.wav
     Pre-gap length  0:00:00.49
     Peak level 99.2 %
     Extraction speed 4.4 X
     Track quality 100.0 %
     Test CRC 2824C75E
     Copy CRC 2824C75E
     Track not present in AccurateRip database
     Copy OK
Track 10
     Filename C:\Users\user\Desktop\Enjoy Yourself [Deluxe Edition] [CD1]\10 Enjoy Yourself.wav
     Pre-gap length  0:00:00.50
     Peak level 99.8 %
     Extraction speed 3.7 X
     Track quality 99.9 %
     Test CRC 8E71009A
     Copy CRC 8E71009A
     Track not present in AccurateRip database
     Copy OK
Track 11
     Filename C:\Users\user\Desktop\Enjoy Yourself [Deluxe Edition] [CD1]\11 Especially For You.wav
     Pre-gap length  0:00:00.50
     Peak level 100.0 %
     Extraction speed 4.8 X
     Track quality 100.0 %
     Test CRC 33190F35
     Copy CRC 33190F35
     Track not present in AccurateRip database
     Copy OK
Track 12
     Filename C:\Users\user\Desktop\Enjoy Yourself [Deluxe Edition] [CD1]\12 All I Wanna Do Is Make You Mine.wav
     Pre-gap length  0:00:00.49
     Peak level 99.6 %
     Extraction speed 4.8 X
     Track quality 100.0 %
     Test CRC 3CA43962
     Copy CRC 3CA43962
     Track not present in AccurateRip database
     Copy OK
Track 13
     Filename C:\Users\user\Desktop\Enjoy Yourself [Deluxe Edition] [CD1]\13 Just Wanna Love You.wav
     Pre-gap length  0:00:00.50
     Peak level 100.0 %
     Extraction speed 5.0 X
     Track quality 100.0 %
     Test CRC E21DB392
     Copy CRC E21DB392
     Track not present in AccurateRip database
     Copy OK
Track 14
     Filename C:\Users\user\Desktop\Enjoy Yourself [Deluxe Edition] [CD1]\14 We Know The Meaning Of Love.wav
     Pre-gap length  0:00:00.50
     Peak level 100.0 %
     Extraction speed 4.2 X
     Track quality 99.9 %
     Test CRC 5798CDB7
     Copy CRC 5798CDB7
     Track not present in AccurateRip database
     Copy OK
Track 15
     Filename C:\Users\user\Desktop\Enjoy Yourself [Deluxe Edition] [CD1]\15 Hand On Your Heart [The Great Aorta Mix].wav
     Pre-gap length  0:00:00.49
     Peak level 100.0 %
     Extraction speed 5.6 X
     Track quality 100.0 %
     Test CRC B91451FB
     Copy CRC B91451FB
     Track not present in AccurateRip database
     Copy OK
Track 16
     Filename C:\Users\user\Desktop\Enjoy Yourself [Deluxe Edition] [CD1]\16 Wouldn't Change A Thing [Your Thang Mix].wav
     Pre-gap length  0:00:00.49
     Peak level 100.0 %
     Extraction speed 5.9 X
     Track quality 100.0 %
     Test CRC C78A8D79
     Copy CRC C78A8D79
     Track not present in AccurateRip database
     Copy OK
Track 17
     Filename C:\Users\user\Desktop\Enjoy Yourself [Deluxe Edition] [CD1]\17 Never Too Late [Extended Version].wav
     Pre-gap length  0:00:00.50
     Peak level 100.0 %
     Extraction speed 6.0 X
     Track quality 100.0 %
     Test CRC 3455F6F8
     Copy CRC 3455F6F8
     Track not present in AccurateRip database
     Copy OK
Track 18
     Filename C:\Users\user\Desktop\Enjoy Yourself [Deluxe Edition] [CD1]\18 Tears On My Pillow [Extended Version].wav
     Pre-gap length  0:00:00.49
     Peak level 100.0 %
     Extraction speed 5.9 X
     Track quality 100.0 %
     Test CRC 1500D459
     Copy CRC 1500D459
     Track not present in AccurateRip database
     Copy OK
Track 19
     Filename C:\Users\user\Desktop\Enjoy Yourself [Deluxe Edition] [CD1]\19 Especially For You [Extended Version].wav
     Pre-gap length  0:00:00.49
     Peak level 100.0 %
     Extraction speed 6.1 X
     Track quality 100.0 %
     Test CRC 8AFC727E
     Copy CRC 8AFC727E
     Track not present in AccurateRip database
     Copy OK
None of the tracks are present in the AccurateRip database
No errors occurred
End of status report
---- CUETools DB Plugin V2.1.3
[CTDB TOCID: liZiyj57FqQuVSpCz2zzjuZqfac-] found, Submit result: liZiyj57FqQuVSpCz2zzjuZqfac- has been confirmed
[84d9c29e] (3/3) Accurately ripped

CD 2

Exact Audio Copy V1.0 beta 3 from 29. August 2011
EAC extraction logfile from 17. February 2015, 17:24
Kylie Minogue / Enjoy Yourself [Deluxe Edition] [CD2]
Used drive  : hp      DVD RW AD-7701H   Adapter: 0  ID: 1
Read mode               : Secure
Utilize accurate stream : Yes
Defeat audio cache      : Yes
Make use of C2 pointers : No
Read offset correction                      : 48
Overread into Lead-In and Lead-Out          : No
Fill up missing offset samples with silence : Yes
Delete leading and trailing silent blocks   : No
Null samples used in CRC calculations       : Yes
Used interface                              : Native Win32 interface for Win NT & 2000
Gap handling                                : Appended to previous track
Used output format : Internal WAV Routines
Sample format      : 44.100 Hz; 16 Bit; Stereo
TOC of the extracted CD
     Track |   Start  |  Length  | Start sector | End sector
    ---------------------------------------------------------
        1  |  0:00.00 |  5:22.34 |         0    |    24183
        2  |  5:22.34 |  5:47.47 |     24184    |    50255
        3  | 11:10.06 |  4:56.22 |     50256    |    72477
        4  | 16:06.28 |  5:51.46 |     72478    |    98848
        5  | 21:57.74 |  4:20.63 |     98849    |   118411
        6  | 26:18.62 |  5:00.36 |    118412    |   140947
        7  | 31:19.23 |  6:01.48 |    140948    |   168070
        8  | 37:20.71 |  5:33.56 |    168071    |   193101
        9  | 42:54.52 |  6:37.71 |    193102    |   222947
       10  | 49:32.48 |  3:31.65 |    222948    |   238837
       11  | 53:04.38 |  3:45.22 |    238838    |   255734
       12  | 56:49.60 |  4:17.48 |    255735    |   275057
       13  | 61:07.33 |  5:06.42 |    275058    |   298049
       14  | 66:14.00 |  3:23.43 |    298050    |   313317
       15  | 69:37.43 |  5:32.29 |    313318    |   338246
Track  1
     Filename C:\Users\user\Desktop\Enjoy Yourself [Deluxe Edition] [CD2]\01 Hand On Your Heart [The Heartache Mix].wav
     Pre-gap length  0:00:02.00
     Peak level 100.0 %
     Extraction speed 3.1 X
     Track quality 100.0 %
     Test CRC 93CA28EC
     Copy CRC 93CA28EC
     Track not present in AccurateRip database
     Copy OK
Track  2
     Filename C:\Users\user\Desktop\Enjoy Yourself [Deluxe Edition] [CD2]\02 Wouldn't Change A Thing [The Espagna Mix].wav
     Pre-gap length  0:00:00.50
     Peak level 100.0 %
     Extraction speed 3.5 X
     Track quality 100.0 %
     Test CRC 16E931AC
     Copy CRC 16E931AC
     Track not present in AccurateRip database
     Copy OK
Track  3
     Filename C:\Users\user\Desktop\Enjoy Yourself [Deluxe Edition] [CD2]\03 I'm Over Dreaming (Over You) [Extended Remix].wav
     Pre-gap length  0:00:00.50
     Peak level 100.0 %
     Extraction speed 3.8 X
     Track quality 100.0 %
     Test CRC 46FB7CD7
     Copy CRC 46FB7CD7
     Track not present in AccurateRip database
     Copy OK
Track  4
     Filename C:\Users\user\Desktop\Enjoy Yourself [Deluxe Edition] [CD2]\04 We Know The Meaning Of Love [Extended Version].wav
     Pre-gap length  0:00:00.50
     Peak level 100.0 %
     Extraction speed 3.7 X
     Track quality 99.9 %
     Test CRC 969DCB80
     Copy CRC 969DCB80
     Track not present in AccurateRip database
     Copy OK
Track  5
     Filename C:\Users\user\Desktop\Enjoy Yourself [Deluxe Edition] [CD2]\05 Tears On My Pillow [12'' Remix].wav
     Pre-gap length  0:00:00.50
     Peak level 98.8 %
     Extraction speed 4.3 X
     Track quality 100.0 %
     Test CRC BF493FA2
     Copy CRC BF493FA2
     Track not present in AccurateRip database
     Copy OK
Track  6
     Filename C:\Users\user\Desktop\Enjoy Yourself [Deluxe Edition] [CD2]\06 Especially For You [Original 12'' Mix].wav
     Pre-gap length  0:00:00.49
     Peak level 100.0 %
     Extraction speed 4.6 X
     Track quality 100.0 %
     Test CRC 0AF33425
     Copy CRC 0AF33425
     Track not present in AccurateRip database
     Copy OK
Track  7
     Filename C:\Users\user\Desktop\Enjoy Yourself [Deluxe Edition] [CD2]\07 All I Wanna Do Is Make You Mine [Extended Version].wav
     Pre-gap length  0:00:00.49
     Peak level 100.0 %
     Extraction speed 4.9 X
     Track quality 100.0 %
     Test CRC D843D866
     Copy CRC D843D866
     Track not present in AccurateRip database
     Copy OK
Track  8
     Filename C:\Users\user\Desktop\Enjoy Yourself [Deluxe Edition] [CD2]\08 Hand On Your Heart [Smokin' Remix].wav
     Pre-gap length  0:00:00.50
     Peak level 100.0 %
     Extraction speed 5.1 X
     Track quality 100.0 %
     Test CRC 457FEA30
     Copy CRC 457FEA30
     Track not present in AccurateRip database
     Copy OK
Track  9
     Filename C:\Users\user\Desktop\Enjoy Yourself [Deluxe Edition] [CD2]\09 Wouldn't Change A Thing [Yoyo's 12'' Mix].wav
     Pre-gap length  0:00:00.49
     Peak level 100.0 %
     Extraction speed 5.4 X
     Track quality 100.0 %
     Test CRC 66002D4C
     Copy CRC 66002D4C
     Track not present in AccurateRip database
     Copy OK
Track 10
     Filename C:\Users\user\Desktop\Enjoy Yourself [Deluxe Edition] [CD2]\10 Especially For You [Original 7'' Mix].wav
     Pre-gap length  0:00:00.50
     Peak level 99.8 %
     Extraction speed 5.3 X
     Track quality 100.0 %
     Test CRC 88227782
     Copy CRC 88227782
     Track not present in AccurateRip database
     Copy OK
Track 11
     Filename C:\Users\user\Desktop\Enjoy Yourself [Deluxe Edition] [CD2]\11 Hand On Your Heart [Video Mix].wav
     Pre-gap length  0:00:00.50
     Peak level 100.0 %
     Extraction speed 5.4 X
     Track quality 100.0 %
     Test CRC ADD85BDE
     Copy CRC ADD85BDE
     Track not present in AccurateRip database
     Copy OK
Track 12
     Filename C:\Users\user\Desktop\Enjoy Yourself [Deluxe Edition] [CD2]\12 Wouldn't Change A Thing [The Espagna Mix Edit].wav
     Pre-gap length  0:00:00.50
     Peak level 100.0 %
     Extraction speed 4.8 X
     Track quality 99.9 %
     Test CRC 50313427
     Copy CRC 50313427
     Track not present in AccurateRip database
     Copy OK
Track 13
     Filename C:\Users\user\Desktop\Enjoy Yourself [Deluxe Edition] [CD2]\13 Never Too Late [Oz Tour Mix].wav
     Pre-gap length  0:00:00.49
     Peak level 100.0 %
     Extraction speed 5.9 X
     Track quality 100.0 %
     Test CRC 1AFC1738
     Copy CRC 1AFC1738
     Track not present in AccurateRip database
     Copy OK
Track 14
     Filename C:\Users\user\Desktop\Enjoy Yourself [Deluxe Edition] [CD2]\14 I'm Over Dreaming (Over You) [7'' Remix].wav
     Pre-gap length  0:00:00.49
     Peak level 100.0 %
     Extraction speed 5.7 X
     Track quality 100.0 %
     Test CRC 197324F8
     Copy CRC 197324F8
     Track not present in AccurateRip database
     Copy OK
Track 15
     Filename C:\Users\user\Desktop\Enjoy Yourself [Deluxe Edition] [CD2]\15 Hand On Your Heart [Dub].wav
     Pre-gap length  0:00:00.49
     Peak level 100.0 %
     Extraction speed 6.2 X
     Track quality 100.0 %
     Test CRC 1E0DFC40
     Copy CRC 1E0DFC40
     Track not present in AccurateRip database
     Copy OK
None of the tracks are present in the AccurateRip database
No errors occurred
End of status report
---- CUETools DB Plugin V2.1.3
[CTDB TOCID: EfY95PqPyzLods5LxTjVhbkBVoc-] found, Submit result: EfY95PqPyzLods5LxTjVhbkBVoc- has been confirmed
[c8a18ad4] (2/2) Accurately ripped

1990

CD 1

Exact Audio Copy V1.0 beta 3 from 29. August 2011
EAC extraction logfile from 17. February 2015, 22:52
Kylie Minogue / Rhythm Of Love [Deluxe Edition] [CD1]
Used drive  : Optiarc DVD+-RW AD-5170S   Adapter: 1  ID: 0
Read mode               : Secure
Utilize accurate stream : Yes
Defeat audio cache      : Yes
Make use of C2 pointers : No
Read offset correction                      : 48
Overread into Lead-In and Lead-Out          : No
Fill up missing offset samples with silence : Yes
Delete leading and trailing silent blocks   : No
Null samples used in CRC calculations       : Yes
Used interface                              : Native Win32 interface for Win NT & 2000
Gap handling                                : Appended to previous track
Used output format : Internal WAV Routines
Sample format      : 44.100 Hz; 16 Bit; Stereo
TOC of the extracted CD
     Track |   Start  |  Length  | Start sector | End sector
    ---------------------------------------------------------
        1  |  0:00.00 |  3:53.65 |         0    |    17539
        2  |  3:53.65 |  3:05.17 |     17540    |    31431
        3  |  6:59.07 |  3:43.67 |     31432    |    48223
        4  | 10:42.74 |  4:05.55 |     48224    |    66653
        5  | 14:48.54 |  3:36.00 |     66654    |    82853
        6  | 18:24.54 |  4:00.38 |     82854    |   100891
        7  | 22:25.17 |  4:47.58 |    100892    |   122474
        8  | 27:13.00 |  4:34.30 |    122475    |   143054
        9  | 31:47.30 |  3:56.19 |    143055    |   160773
       10  | 35:43.49 |  4:23.39 |    160774    |   180537
       11  | 40:07.13 |  4:18.55 |    180538    |   199942
       12  | 44:25.68 |  7:08.39 |    199943    |   232081
       13  | 51:34.32 |  8:00.68 |    232082    |   268149
       14  | 59:35.25 |  7:47.19 |    268150    |   303193
       15  | 67:22.44 |  6:14.37 |    303194    |   331280
       16  | 73:37.06 |  3:36.47 |    331281    |   347527
Track  1
     Filename C:\Users\Admin\Desktop\Rhythm Of Love [Deluxe Edition] [CD1]\01 Better The Devil You Know.wav
     Pre-gap length  0:00:02.00
     Peak level 99.8 %
     Extraction speed 4.6 X
     Track quality 100.0 %
     Test CRC 2B862F01
     Copy CRC 2B862F01
     Track not present in AccurateRip database
     Copy OK
Track  2
     Filename C:\Users\Admin\Desktop\Rhythm Of Love [Deluxe Edition] [CD1]\02 Step Back In Time.wav
     Pre-gap length  0:00:00.50
     Peak level 99.6 %
     Extraction speed 3.9 X
     Track quality 99.9 %
     Test CRC E23E78FD
     Copy CRC E23E78FD
     Track not present in AccurateRip database
     Copy OK
Track  3
     Filename C:\Users\Admin\Desktop\Rhythm Of Love [Deluxe Edition] [CD1]\03 What Do I Have To Do.wav
     Pre-gap length  0:00:00.50
     Peak level 100.0 %
     Extraction speed 5.4 X
     Track quality 100.0 %
     Test CRC 345734C3
     Copy CRC 345734C3
     Track not present in AccurateRip database
     Copy OK
Track  4
     Filename C:\Users\Admin\Desktop\Rhythm Of Love [Deluxe Edition] [CD1]\04 Secrets.wav
     Pre-gap length  0:00:00.50
     Peak level 100.0 %
     Extraction speed 5.9 X
     Track quality 100.0 %
     Test CRC 647648ED
     Copy CRC 647648ED
     Track not present in AccurateRip database
     Copy OK
Track  5
     Filename C:\Users\Admin\Desktop\Rhythm Of Love [Deluxe Edition] [CD1]\05 Always Find The Time.wav
     Pre-gap length  0:00:00.50
     Peak level 99.7 %
     Extraction speed 6.1 X
     Track quality 100.0 %
     Test CRC 9DBC24AD
     Copy CRC 9DBC24AD
     Track not present in AccurateRip database
     Copy OK
Track  6
     Filename C:\Users\Admin\Desktop\Rhythm Of Love [Deluxe Edition] [CD1]\06 The World Still Turns.wav
     Pre-gap length  0:00:00.50
     Peak level 100.0 %
     Extraction speed 6.5 X
     Track quality 100.0 %
     Test CRC EFFCF512
     Copy CRC EFFCF512
     Track not present in AccurateRip database
     Copy OK
Track  7
     Filename C:\Users\Admin\Desktop\Rhythm Of Love [Deluxe Edition] [CD1]\07 Shocked.wav
     Pre-gap length  0:00:00.49
     Peak level 100.0 %
     Extraction speed 7.0 X
     Track quality 100.0 %
     Test CRC 719E30D6
     Copy CRC 719E30D6
     Track not present in AccurateRip database
     Copy OK
Track  8
     Filename C:\Users\Admin\Desktop\Rhythm Of Love [Deluxe Edition] [CD1]\08 One Boy Girl.wav
     Pre-gap length  0:00:00.50
     Peak level 99.5 %
     Extraction speed 7.3 X
     Track quality 100.0 %
     Test CRC A003983E
     Copy CRC A003983E
     Track not present in AccurateRip database
     Copy OK
Track  9
     Filename C:\Users\Admin\Desktop\Rhythm Of Love [Deluxe Edition] [CD1]\09 Things Can Only Get Better.wav
     Pre-gap length  0:00:00.50
     Peak level 99.7 %
     Extraction speed 7.5 X
     Track quality 100.0 %
     Test CRC A83EA917
     Copy CRC A83EA917
     Track not present in AccurateRip database
     Copy OK
Track 10
     Filename C:\Users\Admin\Desktop\Rhythm Of Love [Deluxe Edition] [CD1]\10 Count The Days.wav
     Pre-gap length  0:00:00.50
     Peak level 100.0 %
     Extraction speed 7.8 X
     Track quality 100.0 %
     Test CRC 7C39D1F8
     Copy CRC 7C39D1F8
     Track not present in AccurateRip database
     Copy OK
Track 11
     Filename C:\Users\Admin\Desktop\Rhythm Of Love [Deluxe Edition] [CD1]\11 Rhythm Of Love.wav
     Pre-gap length  0:00:00.50
     Peak level 99.6 %
     Extraction speed 8.1 X
     Track quality 100.0 %
     Test CRC 541644B2
     Copy CRC 541644B2
     Track not present in AccurateRip database
     Copy OK
Track 12
     Filename C:\Users\Admin\Desktop\Rhythm Of Love [Deluxe Edition] [CD1]\12 Better The Devil You Know [The Mad March Hare Mix].wav
     Pre-gap length  0:00:00.49
     Peak level 100.0 %
     Extraction speed 8.8 X
     Track quality 100.0 %
     Test CRC B5BF94E8
     Copy CRC B5BF94E8
     Track not present in AccurateRip database
     Copy OK
Track 13
     Filename C:\Users\Admin\Desktop\Rhythm Of Love [Deluxe Edition] [CD1]\13 Step Back In Time [Walkin' Rhythm Mix].wav
     Pre-gap length  0:00:00.50
     Peak level 99.9 %
     Extraction speed 9.3 X
     Track quality 100.0 %
     Test CRC FB6ED17E
     Copy CRC FB6ED17E
     Track not present in AccurateRip database
     Copy OK
Track 14
     Filename C:\Users\Admin\Desktop\Rhythm Of Love [Deluxe Edition] [CD1]\14 What Do I Have To Do [Pumpin' Mix].wav
     Pre-gap length  0:00:00.49
     Peak level 100.0 %
     Extraction speed 9.7 X
     Track quality 100.0 %
     Test CRC B4165303
     Copy CRC B4165303
     Track not present in AccurateRip database
     Copy OK
Track 15
     Filename C:\Users\Admin\Desktop\Rhythm Of Love [Deluxe Edition] [CD1]\15 Shocked [DNA 12'' Mix].wav
     Pre-gap length  0:00:00.50
     Peak level 100.0 %
     Extraction speed 8.6 X
     Track quality 99.9 %
     Test CRC 6C79E2F2
     Copy CRC 6C79E2F2
     Track not present in AccurateRip database
     Copy OK
Track 16
     Filename C:\Users\Admin\Desktop\Rhythm Of Love [Deluxe Edition] [CD1]\16 Things Can Only Get Better [Original Mix].wav
     Pre-gap length  0:00:00.50
     Peak level 99.7 %
     Extraction speed 9.4 X
     Track quality 100.0 %
     Test CRC 98006BFD
     Copy CRC 98006BFD
     Track not present in AccurateRip database
     Copy OK
None of the tracks are present in the AccurateRip database
No errors occurred
End of status report
---- CUETools DB Plugin V2.1.3
[CTDB TOCID: 7IaeotM970OZwHgH3c_veO8vcE0-] found, Submit result: 7IaeotM970OZwHgH3c_veO8vcE0- has been confirmed
[03193543] (4/5) Accurately ripped
[bcbb3d99] (1/5) No match

CD 2

Exact Audio Copy V1.0 beta 3 from 29. August 2011
EAC extraction logfile from 17. February 2015, 23:21
Kylie Minogue / Rhythm Of Love [Deluxe Edition] [CD2]
Used drive  : Optiarc DVD+-RW AD-5170S   Adapter: 1  ID: 0
Read mode               : Secure
Utilize accurate stream : Yes
Defeat audio cache      : Yes
Make use of C2 pointers : No
Read offset correction                      : 48
Overread into Lead-In and Lead-Out          : No
Fill up missing offset samples with silence : Yes
Delete leading and trailing silent blocks   : No
Null samples used in CRC calculations       : Yes
Used interface                              : Native Win32 interface for Win NT & 2000
Gap handling                                : Appended to previous track
Used output format : Internal WAV Routines
Sample format      : 44.100 Hz; 16 Bit; Stereo
TOC of the extracted CD
     Track |   Start  |  Length  | Start sector | End sector
    ---------------------------------------------------------
        1  |  0:00.00 |  5:49.60 |         0    |    26234
        2  |  5:49.60 |  7:29.41 |     26235    |    59950
        3  | 13:19.26 |  7:05.20 |     59951    |    91845
        4  | 20:24.46 |  7:31.65 |     91846    |   125735
        5  | 27:56.36 |  3:19.38 |    125736    |   140698
        6  | 31:15.74 |  3:11.51 |    140699    |   155074
        7  | 34:27.50 |  7:30.68 |    155075    |   188892
        8  | 41:58.43 |  6:02.70 |    188893    |   216112
        9  | 48:01.38 |  4:56.40 |    216113    |   238352
       10  | 52:58.03 |  3:18.62 |    238353    |   253264
       11  | 56:16.65 |  7:11.70 |    253265    |   285659
       12  | 63:28.60 |  8:54.55 |    285660    |   325764
       13  | 72:23.40 |  6:37.41 |    325765    |   355580
Track  1
     Filename C:\Users\Admin\Desktop\Rhythm Of Love [Deluxe Edition] [CD2]\01 Better The Devil You Know [Dave Ford Mix].wav
     Pre-gap length  0:00:02.00
     Peak level 100.0 %
     Extraction speed 5.1 X
     Track quality 100.0 %
     Test CRC A9A997BB
     Copy CRC A9A997BB
     Track not present in AccurateRip database
     Copy OK
Track  2
     Filename C:\Users\Admin\Desktop\Rhythm Of Love [Deluxe Edition] [CD2]\02 Step Back In Time [Tony King Mix].wav
     Pre-gap length  0:00:00.49
     Peak level 100.0 %
     Extraction speed 5.3 X
     Track quality 99.9 %
     Test CRC B5986271
     Copy CRC B5986271
     Track not present in AccurateRip database
     Copy OK
Track  3
     Filename C:\Users\Admin\Desktop\Rhythm Of Love [Deluxe Edition] [CD2]\03 What Do I Have To Do [Between The Sheets Mix].wav
     Pre-gap length  0:00:00.49
     Peak level 99.5 %
     Extraction speed 5.9 X
     Track quality 99.9 %
     Test CRC 0B9EB640
     Copy CRC 0B9EB640
     Track not present in AccurateRip database
     Copy OK
Track  4
     Filename C:\Users\Admin\Desktop\Rhythm Of Love [Deluxe Edition] [CD2]\04 Shocked [Harding Curnow 12'' Mix].wav
     Pre-gap length  0:00:00.49
     Peak level 99.4 %
     Extraction speed 6.6 X
     Track quality 99.9 %
     Test CRC EFD321B0
     Copy CRC EFD321B0
     Track not present in AccurateRip database
     Copy OK
Track  5
     Filename C:\Users\Admin\Desktop\Rhythm Of Love [Deluxe Edition] [CD2]\05 Better The Devil You Know [Alternative Mix].wav
     Pre-gap length  0:00:00.49
     Peak level 100.0 %
     Extraction speed 5.7 X
     Track quality 99.9 %
     Test CRC 174FD661
     Copy CRC 174FD661
     Track not present in AccurateRip database
     Copy OK
Track  6
     Filename C:\Users\Admin\Desktop\Rhythm Of Love [Deluxe Edition] [CD2]\06 I Am The One For You.wav
     Pre-gap length  0:00:00.49
     Peak level 100.0 %
     Extraction speed 7.3 X
     Track quality 100.0 %
     Test CRC 22F8E398
     Copy CRC 22F8E398
     Track not present in AccurateRip database
     Copy OK
Track  7
     Filename C:\Users\Admin\Desktop\Rhythm Of Love [Deluxe Edition] [CD2]\07 What Do I Have To Do [Billy The Fish Mix].wav
     Pre-gap length  0:00:00.50
     Peak level 100.0 %
     Extraction speed 8.5 X
     Track quality 100.0 %
     Test CRC E8AC6A2C
     Copy CRC E8AC6A2C
     Track not present in AccurateRip database
     Copy OK
Track  8
     Filename C:\Users\Admin\Desktop\Rhythm Of Love [Deluxe Edition] [CD2]\08 Better The Devil You Know [US Remix].wav
     Pre-gap length  0:00:00.49
     Peak level 100.0 %
     Extraction speed 8.7 X
     Track quality 100.0 %
     Test CRC BE4BC69B
     Copy CRC BE4BC69B
     Track not present in AccurateRip database
     Copy OK
Track  9
     Filename C:\Users\Admin\Desktop\Rhythm Of Love [Deluxe Edition] [CD2]\09 One Boy Girl [12'' Mix].wav
     Pre-gap length  0:00:00.50
     Peak level 99.2 %
     Extraction speed 8.9 X
     Track quality 100.0 %
     Test CRC 44A3799B
     Copy CRC 44A3799B
     Track not present in AccurateRip database
     Copy OK
Track 10
     Filename C:\Users\Admin\Desktop\Rhythm Of Love [Deluxe Edition] [CD2]\10 Shocked [Harding Curnow 7'' Mix].wav
     Pre-gap length  0:00:00.50
     Peak level 99.5 %
     Extraction speed 8.6 X
     Track quality 100.0 %
     Test CRC BC0C46BF
     Copy CRC BC0C46BF
     Track not present in AccurateRip database
     Copy OK
Track 11
     Filename C:\Users\Admin\Desktop\Rhythm Of Love [Deluxe Edition] [CD2]\11 Things Can Only Get Better [Original 12'' Mix].wav
     Pre-gap length  0:00:00.49
     Peak level 100.0 %
     Extraction speed 8.6 X
     Track quality 99.9 %
     Test CRC 30F1CDB0
     Copy CRC 30F1CDB0
     Track not present in AccurateRip database
     Copy OK
Track 12
     Filename C:\Users\Admin\Desktop\Rhythm Of Love [Deluxe Edition] [CD2]\12 What Do I Have To Do [Sax On The Beach Mix].wav
     Pre-gap length  0:00:00.49
     Peak level 99.3 %
     Extraction speed 10.3 X
     Track quality 100.0 %
     Test CRC 814D7D9F
     Copy CRC 814D7D9F
     Track not present in AccurateRip database
     Copy OK
Track 13
     Filename C:\Users\Admin\Desktop\Rhythm Of Love [Deluxe Edition] [CD2]\13 Step Back In Time [The Big Shock].wav
     Pre-gap length  0:00:00.50
     Peak level 100.0 %
     Extraction speed 10.2 X
     Track quality 100.0 %
     Test CRC 7ACE27CD
     Copy CRC 7ACE27CD
     Track not present in AccurateRip database
     Copy OK
None of the tracks are present in the AccurateRip database
No errors occurred
End of status report
---- CUETools DB Plugin V2.1.3
[CTDB TOCID: OmTI._jqr2tN.gntGwqJ_yBNQ8c-] found, Submit result: OmTI._jqr2tN.gntGwqJ_yBNQ8c- has been uploaded
[118e4aab] (1/1) Differs in 126 samples @79:00:60-79:00:69
You can use CUETools to repair this rip.

1991

CD 1

Exact Audio Copy V1.0 beta 3 from 29. August 2011
EAC extraction logfile from 17. February 2015, 23:26
Kylie Minogue / Let's Get To It [Deluxe Edition] [CD1]
Used drive  : hp      DVD RW AD-7701H   Adapter: 0  ID: 1
Read mode               : Secure
Utilize accurate stream : Yes
Defeat audio cache      : Yes
Make use of C2 pointers : No
Read offset correction                      : 48
Overread into Lead-In and Lead-Out          : No
Fill up missing offset samples with silence : Yes
Delete leading and trailing silent blocks   : No
Null samples used in CRC calculations       : Yes
Used interface                              : Native Win32 interface for Win NT & 2000
Gap handling                                : Appended to previous track
Used output format : Internal WAV Routines
Sample format      : 44.100 Hz; 16 Bit; Stereo
TOC of the extracted CD
     Track |   Start  |  Length  | Start sector | End sector
    ---------------------------------------------------------
        1  |  0:00.00 |  3:36.12 |         0    |    16211
        2  |  3:36.12 |  3:08.63 |     16212    |    30374
        3  |  6:45.00 |  4:24.29 |     30375    |    50203
        4  | 11:09.29 |  3:53.27 |     50204    |    67705
        5  | 15:02.56 |  3:10.48 |     67706    |    82003
        6  | 18:13.29 |  4:49.74 |     82004    |   103752
        7  | 23:03.28 |  3:53.54 |    103753    |   121281
        8  | 26:57.07 |  3:14.44 |    121282    |   135875
        9  | 30:11.51 |  2:45.46 |    135876    |   148296
       10  | 32:57.22 |  6:00.42 |    148297    |   175338
       11  | 38:57.64 |  4:12.52 |    175339    |   194290
       12  | 43:10.41 |  3:21.25 |    194291    |   209390
       13  | 46:31.66 |  3:57.06 |    209391    |   227171
       14  | 50:28.72 |  4:02.01 |    227172    |   245322
       15  | 54:30.73 |  5:51.56 |    245323    |   271703
       16  | 60:22.54 |  5:09.68 |    271704    |   294946
       17  | 65:32.47 |  4:34.37 |    294947    |   315533
       18  | 70:07.09 |  6:48.72 |    315534    |   346205
Track  1
     Filename C:\Users\user\Desktop\Let's Get To It [Deluxe Edition] [CD1]\01 Word Is Out.wav
     Pre-gap length  0:00:02.00
     Peak level 100.0 %
     Extraction speed 2.8 X
     Track quality 100.0 %
     Test CRC A4D9B44D
     Copy CRC A4D9B44D
     Track not present in AccurateRip database
     Copy OK
Track  2
     Filename C:\Users\user\Desktop\Let's Get To It [Deluxe Edition] [CD1]\02 Give Me Just A Little More Time.wav
     Pre-gap length  0:00:00.49
     Peak level 100.0 %
     Extraction speed 3.0 X
     Track quality 100.0 %
     Test CRC 09D8A433
     Copy CRC 09D8A433
     Track not present in AccurateRip database
     Copy OK
Track  3
     Filename C:\Users\user\Desktop\Let's Get To It [Deluxe Edition] [CD1]\03 Too Much Of A Good Thing.wav
     Pre-gap length  0:00:00.50
     Peak level 100.0 %
     Extraction speed 3.5 X
     Track quality 100.0 %
     Test CRC E33C24AF
     Copy CRC E33C24AF
     Track not present in AccurateRip database
     Copy OK
Track  4
     Filename C:\Users\user\Desktop\Let's Get To It [Deluxe Edition] [CD1]\04 Finer Feelings.wav
     Pre-gap length  0:00:00.49
     Peak level 100.0 %
     Extraction speed 3.0 X
     Track quality 99.9 %
     Test CRC D8D77E23
     Copy CRC D8D77E23
     Track not present in AccurateRip database
     Copy OK
Track  5
     Filename C:\Users\user\Desktop\Let's Get To It [Deluxe Edition] [CD1]\05 If You Were With Me Now.wav
     Pre-gap length  0:00:00.50
     Peak level 100.0 %
     Extraction speed 3.8 X
     Track quality 100.0 %
     Test CRC 4A265A69
     Copy CRC 4A265A69
     Track not present in AccurateRip database
     Copy OK
Track  6
     Filename C:\Users\user\Desktop\Let's Get To It [Deluxe Edition] [CD1]\06 Let's Get To It.wav
     Pre-gap length  0:00:00.50
     Peak level 99.8 %
     Extraction speed 4.3 X
     Track quality 100.0 %
     Test CRC B54F0F8B
     Copy CRC B54F0F8B
     Track not present in AccurateRip database
     Copy OK
Track  7
     Filename C:\Users\user\Desktop\Let's Get To It [Deluxe Edition] [CD1]\07 Right Here, Right Now.wav
     Pre-gap length  0:00:00.50
     Peak level 100.0 %
     Extraction speed 3.6 X
     Track quality 99.9 %
     Test CRC D5A4E7D0
     Copy CRC D5A4E7D0
     Track not present in AccurateRip database
     Copy OK
Track  8
     Filename C:\Users\user\Desktop\Let's Get To It [Deluxe Edition] [CD1]\08 Live and Learn.wav
     Pre-gap length  0:00:00.50
     Peak level 99.9 %
     Extraction speed 4.4 X
     Track quality 100.0 %
     Test CRC 53BF57B2
     Copy CRC 53BF57B2
     Track not present in AccurateRip database
     Copy OK
Track  9
     Filename C:\Users\user\Desktop\Let's Get To It [Deluxe Edition] [CD1]\09 No World Without You.wav
     Pre-gap length  0:00:00.50
     Peak level 98.1 %
     Extraction speed 4.4 X
     Track quality 100.0 %
     Test CRC CA40677F
     Copy CRC CA40677F
     Track not present in AccurateRip database
     Copy OK
Track 10
     Filename C:\Users\user\Desktop\Let's Get To It [Deluxe Edition] [CD1]\10 I Guess I Like It Like That.wav
     Pre-gap length  0:00:00.50
     Peak level 100.0 %
     Extraction speed 4.5 X
     Track quality 99.9 %
     Test CRC F8D76323
     Copy CRC F8D76323
     Track not present in AccurateRip database
     Copy OK
Track 11
     Filename C:\Users\user\Desktop\Let's Get To It [Deluxe Edition] [CD1]\11 Say The Word - I'll Be There.wav
     Pre-gap length  0:00:00.49
     Peak level 99.3 %
     Extraction speed 5.1 X
     Track quality 100.0 %
     Test CRC 2F6DB48F
     Copy CRC 2F6DB48F
     Track not present in AccurateRip database
     Copy OK
Track 12
     Filename C:\Users\user\Desktop\Let's Get To It [Deluxe Edition] [CD1]\12 Do You Dare [NRG Edit].wav
     Pre-gap length  0:00:00.50
     Peak level 100.0 %
     Extraction speed 5.1 X
     Track quality 100.0 %
     Test CRC C196CD84
     Copy CRC C196CD84
     Track not present in AccurateRip database
     Copy OK
Track 13
     Filename C:\Users\user\Desktop\Let's Get To It [Deluxe Edition] [CD1]\13 Closer [Edit].wav
     Pre-gap length  0:00:00.50
     Peak level 99.3 %
     Extraction speed 5.3 X
     Track quality 100.0 %
     Test CRC B943154D
     Copy CRC B943154D
     Track not present in AccurateRip database
     Copy OK
Track 14
     Filename C:\Users\user\Desktop\Let's Get To It [Deluxe Edition] [CD1]\14 Keep On Pumpin' It [Angelic Remix Edit].wav
     Pre-gap length  0:00:00.49
     Peak level 99.7 %
     Extraction speed 4.6 X
     Track quality 99.9 %
     Test CRC 22CD519A
     Copy CRC 22CD519A
     Track not present in AccurateRip database
     Copy OK
Track 15
     Filename C:\Users\user\Desktop\Let's Get To It [Deluxe Edition] [CD1]\15 Word Is Out [Extended Version].wav
     Pre-gap length  0:00:00.50
     Peak level 100.0 %
     Extraction speed 5.9 X
     Track quality 100.0 %
     Test CRC 7B6055AA
     Copy CRC 7B6055AA
     Track not present in AccurateRip database
     Copy OK
Track 16
     Filename C:\Users\user\Desktop\Let's Get To It [Deluxe Edition] [CD1]\16 If You Were With Me Now [Extended Version].wav
     Pre-gap length  0:00:00.49
     Peak level 99.2 %
     Extraction speed 6.0 X
     Track quality 100.0 %
     Test CRC EB010E88
     Copy CRC EB010E88
     Track not present in AccurateRip database
     Copy OK
Track 17
     Filename C:\Users\user\Desktop\Let's Get To It [Deluxe Edition] [CD1]\17 Give Me Just A Little More Time [Extended Version].wav
     Pre-gap length  0:00:00.50
     Peak level 100.0 %
     Extraction speed 5.9 X
     Track quality 100.0 %
     Test CRC A86C6C1F
     Copy CRC A86C6C1F
     Track not present in AccurateRip database
     Copy OK
Track 18
     Filename C:\Users\user\Desktop\Let's Get To It [Deluxe Edition] [CD1]\18 Finer Feelings [Brothers In Rhythm 12'' Mix].wav
     Pre-gap length  0:00:00.49
     Peak level 100.0 %
     Extraction speed 6.4 X
     Track quality 100.0 %
     Test CRC C53DCE45
     Copy CRC C53DCE45
     Track not present in AccurateRip database
     Copy OK
None of the tracks are present in the AccurateRip database
No errors occurred
End of status report
---- CUETools DB Plugin V2.1.3
[CTDB TOCID: qSFwFxmRVkcDRHpE5zc_FRdm2f0-] found, Submit result: qSFwFxmRVkcDRHpE5zc_FRdm2f0- has been confirmed
[f9079a97] (2/2) Accurately ripped

CD 2

Exact Audio Copy V1.0 beta 3 from 29. August 2011
EAC extraction logfile from 18. February 2015, 0:10
Kylie Minogue / Let's Get To It [Deluxe Edition] [CD2]
Used drive  : hp      DVD RW AD-7701H   Adapter: 0  ID: 1
Read mode               : Secure
Utilize accurate stream : Yes
Defeat audio cache      : Yes
Make use of C2 pointers : No
Read offset correction                      : 48
Overread into Lead-In and Lead-Out          : No
Fill up missing offset samples with silence : Yes
Delete leading and trailing silent blocks   : No
Null samples used in CRC calculations       : Yes
Used interface                              : Native Win32 interface for Win NT & 2000
Gap handling                                : Appended to previous track
Used output format : Internal WAV Routines
Sample format      : 44.100 Hz; 16 Bit; Stereo
TOC of the extracted CD
     Track |   Start  |  Length  | Start sector | End sector
    ---------------------------------------------------------
        1  |  0:00.00 |  7:25.55 |         0    |    33429
        2  |  7:25.55 |  7:05.25 |     33430    |    65329
        3  | 14:31.05 |  6:48.12 |     65330    |    95941
        4  | 21:19.17 |  7:44.56 |     95942    |   130797
        5  | 29:03.73 |  5:49.70 |    130798    |   157042
        6  | 34:53.68 |  6:00.23 |    157043    |   184065
        7  | 40:54.16 |  7:56.36 |    184066    |   219801
        8  | 48:50.52 |  5:57.40 |    219802    |   246616
        9  | 54:48.17 |  6:55.10 |    246617    |   277751
       10  | 61:43.27 |  6:40.26 |    277752    |   307777
       11  | 68:23.53 |  2:54.32 |    307778    |   320859
       12  | 71:18.10 |  3:11.39 |    320860    |   335223
       13  | 74:29.49 |  4:08.68 |    335224    |   353891
Track  1
     Filename C:\Users\user\Desktop\Let's Get To It [Deluxe Edition] [CD2]\01 Keep On Pumpin' It [Angelic Remix].wav
     Pre-gap length  0:00:02.00
     Peak level 100.0 %
     Extraction speed 3.3 X
     Track quality 100.0 %
     Test CRC 37B9A966
     Copy CRC 37B9A966
     Track not present in AccurateRip database
     Copy OK
Track  2
     Filename C:\Users\user\Desktop\Let's Get To It [Deluxe Edition] [CD2]\02 Do You Dare [NRG Mix].wav
     Pre-gap length  0:00:00.49
     Peak level 100.0 %
     Extraction speed 3.8 X
     Track quality 100.0 %
     Test CRC F8D012F1
     Copy CRC F8D012F1
     Track not present in AccurateRip database
     Copy OK
Track  3
     Filename C:\Users\user\Desktop\Let's Get To It [Deluxe Edition] [CD2]\03 Closer [The Pleasure Mix].wav
     Pre-gap length  0:00:00.50
     Peak level 99.5 %
     Extraction speed 4.3 X
     Track quality 100.0 %
     Test CRC 2FDD29C4
     Copy CRC 2FDD29C4
     Track not present in AccurateRip database
     Copy OK
Track  4
     Filename C:\Users\user\Desktop\Let's Get To It [Deluxe Edition] [CD2]\04 Word Is Out [Summer Breeze Mix].wav
     Pre-gap length  0:00:00.50
     Peak level 100.0 %
     Extraction speed 4.7 X
     Track quality 100.0 %
     Test CRC 585CDCB4
     Copy CRC 585CDCB4
     Track not present in AccurateRip database
     Copy OK
Track  5
     Filename C:\Users\user\Desktop\Let's Get To It [Deluxe Edition] [CD2]\05 Too Much Of A Good Thing [Original 12'' Mix].wav
     Pre-gap length  0:00:00.50
     Peak level 100.0 %
     Extraction speed 4.4 X
     Track quality 99.9 %
     Test CRC 20567718
     Copy CRC 20567718
     Track not present in AccurateRip database
     Copy OK
Track  6
     Filename C:\Users\user\Desktop\Let's Get To It [Deluxe Edition] [CD2]\06 Let's Get To It [Tony King 12'' Mix].wav
     Pre-gap length  0:00:00.49
     Peak level 100.0 %
     Extraction speed 5.2 X
     Track quality 100.0 %
     Test CRC 3A010A55
     Copy CRC 3A010A55
     Track not present in AccurateRip database
     Copy OK
Track  7
     Filename C:\Users\user\Desktop\Let's Get To It [Deluxe Edition] [CD2]\07 Right Here, Right Now [Tony King 12'' Mix].wav
     Pre-gap length  0:00:00.50
     Peak level 100.0 %
     Extraction speed 5.7 X
     Track quality 100.0 %
     Test CRC 549F3477
     Copy CRC 549F3477
     Track not present in AccurateRip database
     Copy OK
Track  8
     Filename C:\Users\user\Desktop\Let's Get To It [Deluxe Edition] [CD2]\08 Live and Learn [Original 12'' Mix].wav
     Pre-gap length  0:00:00.50
     Peak level 100.0 %
     Extraction speed 5.1 X
     Track quality 99.9 %
     Test CRC A6555F5A
     Copy CRC A6555F5A
     Track not present in AccurateRip database
     Copy OK
Track  9
     Filename C:\Users\user\Desktop\Let's Get To It [Deluxe Edition] [CD2]\09 Keep On Pumpin' It [Astral Flight Mix].wav
     Pre-gap length  0:00:00.49
     Peak level 100.0 %
     Extraction speed 6.2 X
     Track quality 100.0 %
     Test CRC E03960E9
     Copy CRC E03960E9
     Track not present in AccurateRip database
     Copy OK
Track 10
     Filename C:\Users\user\Desktop\Let's Get To It [Deluxe Edition] [CD2]\10 Do You Dare [New Rave Mix].wav
     Pre-gap length  0:00:00.50
     Peak level 100.0 %
     Extraction speed 5.7 X
     Track quality 99.9 %
     Test CRC D6DD98FA
     Copy CRC D6DD98FA
     Track not present in AccurateRip database
     Copy OK
Track 11
     Filename C:\Users\user\Desktop\Let's Get To It [Deluxe Edition] [CD2]\11 No World Without You [Original Mix].wav
     Pre-gap length  0:00:00.49
     Peak level 99.0 %
     Extraction speed 5.9 X
     Track quality 100.0 %
     Test CRC 319DECFA
     Copy CRC 319DECFA
     Track not present in AccurateRip database
     Copy OK
Track 12
     Filename C:\Users\user\Desktop\Let's Get To It [Deluxe Edition] [CD2]\12 If You Were With Me Now [Orchestral Version].wav
     Pre-gap length  0:00:00.50
     Peak level 99.0 %
     Extraction speed 6.0 X
     Track quality 100.0 %
     Test CRC 3C85F2B4
     Copy CRC 3C85F2B4
     Track not present in AccurateRip database
     Copy OK
Track 13
     Filename C:\Users\user\Desktop\Let's Get To It [Deluxe Edition] [CD2]\13 Finer Feelings [Brothers In Rhythm Dub].wav
     Pre-gap length  0:00:00.49
     Peak level 100.0 %
     Extraction speed 6.4 X
     Track quality 100.0 %
     Test CRC 29A85E68
     Copy CRC 29A85E68
     Track not present in AccurateRip database
     Copy OK
None of the tracks are present in the AccurateRip database
No errors occurred
End of status report
---- CUETools DB Plugin V2.1.3
[CTDB TOCID: TRoLEORtMDEgC5YjGo7jsKB2fWE-] disk not present in database, Submit result: TRoLEORtMDEgC5YjGo7jsKB2fWE- has been uploaded

Индексная карта (non-compilant .cue)

1988

CD 1

REM DATE 1988
REM DISCID DC128212
REM COMMENT "ExactAudioCopy v1.0b3"
CATALOG 5013929250161
PERFORMER "Kylie Minogue"
TITLE "Kylie [Deluxe Edition] [CD1]"
FILE "01 I Should Be So Lucky.wav" WAVE
  TRACK 01 AUDIO
    TITLE "I Should Be So Lucky"
    PERFORMER "Kylie Minogue"
    ISRC GBBTK0900051
    INDEX 01 00:00:00
  TRACK 02 AUDIO
    TITLE "The Loco-Motion"
    PERFORMER "Kylie Minogue"
    ISRC GBBTK0900052
    INDEX 00 03:24:10
FILE "02 The Loco-Motion.wav" WAVE
    INDEX 01 00:00:00
  TRACK 03 AUDIO
    TITLE "Je Ne Sais Pas Pourquoi"
    PERFORMER "Kylie Minogue"
    ISRC GBBTK0900053
    INDEX 00 03:13:41
FILE "03 Je Ne Sais Pas Pourquoi.wav" WAVE
    INDEX 01 00:00:00
  TRACK 04 AUDIO
    TITLE "It's No Secret"
    PERFORMER "Kylie Minogue"
    ISRC GBBTK0900054
    INDEX 00 04:01:41
FILE "04 It's No Secret.wav" WAVE
    INDEX 01 00:00:00
  TRACK 05 AUDIO
    TITLE "Got To Be Certain"
    PERFORMER "Kylie Minogue"
    ISRC GBBTK0900055
    INDEX 00 03:57:24
FILE "05 Got To Be Certain.wav" WAVE
    INDEX 01 00:00:00
  TRACK 06 AUDIO
    TITLE "Turn It Into Love"
    PERFORMER "Kylie Minogue"
    ISRC GBBTK0900056
    INDEX 00 03:20:05
FILE "06 Turn It Into Love.wav" WAVE
    INDEX 01 00:00:00
  TRACK 07 AUDIO
    TITLE "I Miss You"
    PERFORMER "Kylie Minogue"
    ISRC GBBTK0900057
    INDEX 00 03:36:63
FILE "07 I Miss You.wav" WAVE
    INDEX 01 00:00:00
  TRACK 08 AUDIO
    TITLE "I'll Still Be Loving You"
    PERFORMER "Kylie Minogue"
    ISRC GBBTK0900058
    INDEX 00 03:15:09
FILE "08 I'll Still Be Loving You.wav" WAVE
    INDEX 01 00:00:00
  TRACK 09 AUDIO
    TITLE "Look My Way"
    PERFORMER "Kylie Minogue"
    ISRC GBBTK0900059
    INDEX 00 03:48:39
FILE "09 Look My Way.wav" WAVE
    INDEX 01 00:00:00
  TRACK 10 AUDIO
    TITLE "Love At First Sight"
    PERFORMER "Kylie Minogue"
    ISRC GBBTK0900060
    INDEX 00 03:36:57
FILE "10 Love At First Sight.wav" WAVE
    INDEX 01 00:00:00
  TRACK 11 AUDIO
    TITLE "Made In Heaven"
    PERFORMER "Kylie Minogue"
    ISRC GBBTK0900220
    INDEX 00 03:11:41
FILE "11 Made In Heaven.wav" WAVE
    INDEX 01 00:00:00
  TRACK 12 AUDIO
    TITLE "Locomotion"
    PERFORMER "Kylie Minogue"
    ISRC GBBTK0900185
    INDEX 00 03:31:56
FILE "12 Locomotion.wav" WAVE
    INDEX 01 00:00:00
  TRACK 13 AUDIO
    TITLE "I Should Be So Lucky [Extended Version]"
    PERFORMER "Kylie Minogue"
    ISRC GBBTK0900191
    INDEX 00 03:16:23
FILE "13 I Should Be So Lucky [Extended Version].wav" WAVE
    INDEX 01 00:00:00
  TRACK 14 AUDIO
    TITLE "Got To Be Certain [Extended Version]"
    PERFORMER "Kylie Minogue"
    ISRC GBBTK0900198
    INDEX 00 06:05:58
FILE "14 Got To Be Certain [Extended Version].wav" WAVE
    INDEX 01 00:00:00
  TRACK 15 AUDIO
    TITLE "The Loco-Motion [The Kohaku Mix]"
    PERFORMER "Kylie Minogue"
    ISRC GBBTK0900204
    INDEX 00 06:34:63
FILE "15 The Loco-Motion [The Kohaku Mix].wav" WAVE
    INDEX 01 00:00:00
  TRACK 16 AUDIO
    TITLE "Je Ne Sais Pas Pourquoi [Moi Non Plus Mix]"
    PERFORMER "Kylie Minogue"
    ISRC GBBTK0900216
    INDEX 00 05:59:04
FILE "16 Je Ne Sais Pas Pourquoi [Moi Non Plus Mix].wav" WAVE
    INDEX 01 00:00:00
  TRACK 17 AUDIO
    TITLE "It's No Secret [Extended Version]"
    PERFORMER "Kylie Minogue"
    ISRC GBBTK0900246
    INDEX 00 05:52:40
FILE "17 It's No Secret [Extended Version].wav" WAVE
    INDEX 01 00:00:00
  TRACK 18 AUDIO
    TITLE "Made In Heaven [Maid In England Mix]"
    PERFORMER "Kylie Minogue"
    ISRC GBBTK0900221
    INDEX 00 05:47:00
FILE "18 Made In Heaven [Maid In England Mix].wav" WAVE
    INDEX 01 00:00:00

CD 2

REM DATE 1988
REM DISCID BE12770D
REM COMMENT "ExactAudioCopy v1.0b3"
CATALOG 5013929250161
PERFORMER "Kylie Minogue"
TITLE "Kylie [Deluxe Edition] [CD2]"
FILE "01 Locomotion [Chugga-Motion Mix].wav" WAVE
  TRACK 01 AUDIO
    TITLE "Locomotion [Chugga-Motion Mix]"
    PERFORMER "Kylie Minogue"
    ISRC GBBTK0900186
    INDEX 01 00:00:00
  TRACK 02 AUDIO
    TITLE "Getting Closer [Extended Oz Mix]"
    PERFORMER "Kylie Minogue"
    ISRC GBBTK0900189
    INDEX 00 07:36:71
FILE "02 Getting Closer [Extended Oz Mix].wav" WAVE
    INDEX 01 00:00:00
  TRACK 03 AUDIO
    TITLE "I Should Be So Lucky [The Bicentennial Remix]"
    PERFORMER "Kylie Minogue"
    ISRC GBBTK0900192
    INDEX 00 04:10:55
FILE "03 I Should Be So Lucky [The Bicentennial Remix].wav" WAVE
    INDEX 01 00:00:00
  TRACK 04 AUDIO
    TITLE "Got To Be Certain [Extra Beat Boys Remix]"
    PERFORMER "Kylie Minogue"
    ISRC GBBTK0900199
    INDEX 00 06:10:57
FILE "04 Got To Be Certain [Extra Beat Boys Remix].wav" WAVE
    INDEX 01 00:00:00
  TRACK 05 AUDIO
    TITLE "The Loco-Motion [The Sankie Mix]"
    PERFORMER "Kylie Minogue"
    ISRC GBBTK0900209
    INDEX 00 06:50:74
FILE "05 The Loco-Motion [The Sankie Mix].wav" WAVE
    INDEX 01 00:00:00
  TRACK 06 AUDIO
    TITLE "Je Ne Sais Pas Pourquoi [The Revolutionary Mix]"
    PERFORMER "Kylie Minogue"
    ISRC GBBTK0900224
    INDEX 00 06:36:47
FILE "06 Je Ne Sais Pas Pourquoi [The Revolutionary Mix].wav" WAVE
    INDEX 01 00:00:00
  TRACK 07 AUDIO
    TITLE "Made In Heaven [Original 12'' Mix]"
    PERFORMER "Kylie Minogue"
    ISRC GBBTK0900229
    INDEX 00 07:14:38
FILE "07 Made In Heaven [Original 12'' Mix].wav" WAVE
    INDEX 01 00:00:00
  TRACK 08 AUDIO
    TITLE "I Should Be So Lucky [12'' Remix]"
    PERFORMER "Kylie Minogue"
    ISRC GBBTK0900195
    INDEX 00 07:09:69
FILE "08 I Should Be So Lucky [12'' Remix].wav" WAVE
    INDEX 01 00:00:00
  TRACK 09 AUDIO
    TITLE "The Loco-Motion [12'' Master]"
    PERFORMER "Kylie Minogue"
    ISRC GBBTK0900211
    INDEX 00 05:30:40
FILE "09 The Loco-Motion [12'' Master].wav" WAVE
    INDEX 01 00:00:00
  TRACK 10 AUDIO
    TITLE "Glad To Be Alive"
    PERFORMER "Kylie Minogue"
    ISRC GBBTK0900190
    INDEX 00 09:11:68
FILE "10 Glad To Be Alive.wav" WAVE
    INDEX 01 00:00:00
  TRACK 11 AUDIO
    TITLE "Getting Closer [UK Mix]"
    PERFORMER "Kylie Minogue"
    ISRC GBBTK0900300
    INDEX 00 03:40:74
FILE "11 Getting Closer [UK Mix].wav" WAVE
    INDEX 01 00:00:00
  TRACK 12 AUDIO
    TITLE "Made In Heaven [Heaven Scent Mix]"
    PERFORMER "Kylie Minogue"
    ISRC GBBTK0900230
    INDEX 00 04:01:64
FILE "12 Made In Heaven [Heaven Scent Mix].wav" WAVE
    INDEX 01 00:00:00
  TRACK 13 AUDIO
    TITLE "The Loco-Motion [Oz Tour Mix]"
    PERFORMER "Kylie Minogue"
    ISRC GBBTK0900214
    INDEX 00 04:45:06
FILE "13 The Loco-Motion [Oz Tour Mix].wav" WAVE
    INDEX 01 00:00:00

1989

CD 1

REM DATE 1989
REM DISCID 0611D513
REM COMMENT "ExactAudioCopy v1.0b3"
CATALOG 5013929250260
PERFORMER "Kylie Minogue"
TITLE "Enjoy Yourself [Deluxe Edition] [CD1]"
FILE "01 Hand On Your Heart.wav" WAVE
  TRACK 01 AUDIO
    TITLE "Hand On Your Heart"
    PERFORMER "Kylie Minogue"
    ISRC GBBTK0900061
    INDEX 01 00:00:00
  TRACK 02 AUDIO
    TITLE "Wouldn't Change A Thing"
    PERFORMER "Kylie Minogue"
    ISRC GBBTK0900062
    INDEX 00 03:51:06
FILE "02 Wouldn't Change A Thing.wav" WAVE
    INDEX 01 00:00:00
  TRACK 03 AUDIO
    TITLE "Never Too Late"
    PERFORMER "Kylie Minogue"
    ISRC GBBTK0900063
    INDEX 00 03:14:29
FILE "03 Never Too Late.wav" WAVE
    INDEX 01 00:00:00
  TRACK 04 AUDIO
    TITLE "Nothing To Lose"
    PERFORMER "Kylie Minogue"
    ISRC GBBTK0900064
    INDEX 00 03:22:54
FILE "04 Nothing To Lose.wav" WAVE
    INDEX 01 00:00:00
  TRACK 05 AUDIO
    TITLE "Tell Tale Signs"
    PERFORMER "Kylie Minogue"
    ISRC GBBTK0900065
    INDEX 00 03:20:65
FILE "05 Tell Tale Signs.wav" WAVE
    INDEX 01 00:00:00
  TRACK 06 AUDIO
    TITLE "My Secret Heart"
    PERFORMER "Kylie Minogue"
    ISRC GBBTK0900066
    INDEX 00 02:25:69
FILE "06 My Secret Heart.wav" WAVE
    INDEX 01 00:00:00
  TRACK 07 AUDIO
    TITLE "I'm Over Dreaming (Over You)"
    PERFORMER "Kylie Minogue"
    ISRC GBBTK0900067
    INDEX 00 02:41:14
FILE "07 I'm Over Dreaming (Over You).wav" WAVE
    INDEX 01 00:00:00
  TRACK 08 AUDIO
    TITLE "Tears On My Pillow"
    PERFORMER "Kylie Minogue"
    ISRC GBBTK0900068
    INDEX 00 03:23:45
FILE "08 Tears On My Pillow.wav" WAVE
    INDEX 01 00:00:00
  TRACK 09 AUDIO
    TITLE "Heaven and Earth"
    PERFORMER "Kylie Minogue"
    ISRC GBBTK0900069
    INDEX 00 02:29:55
FILE "09 Heaven and Earth.wav" WAVE
    INDEX 01 00:00:00
  TRACK 10 AUDIO
    TITLE "Enjoy Yourself"
    PERFORMER "Kylie Minogue"
    ISRC GBBTK0900070
    INDEX 00 03:43:47
FILE "10 Enjoy Yourself.wav" WAVE
    INDEX 01 00:00:00
  TRACK 11 AUDIO
    TITLE "Especially For You"
    PERFORMER "Kylie Minogue"
    ISRC GBBTK0900093
    INDEX 00 03:44:45
FILE "11 Especially For You.wav" WAVE
    INDEX 01 00:00:00
  TRACK 12 AUDIO
    TITLE "All I Wanna Do Is Make You Mine"
    PERFORMER "Kylie Minogue"
    ISRC GBBTK0900237
    INDEX 00 04:00:28
FILE "12 All I Wanna Do Is Make You Mine.wav" WAVE
    INDEX 01 00:00:00
  TRACK 13 AUDIO
    TITLE "Just Wanna Love You"
    PERFORMER "Kylie Minogue"
    ISRC GBBTK0900259
    INDEX 00 03:37:40
FILE "13 Just Wanna Love You.wav" WAVE
    INDEX 01 00:00:00
  TRACK 14 AUDIO
    TITLE "We Know The Meaning Of Love"
    PERFORMER "Kylie Minogue"
    ISRC GBBTK0900298
    INDEX 00 03:31:57
FILE "14 We Know The Meaning Of Love.wav" WAVE
    INDEX 01 00:00:00
  TRACK 15 AUDIO
    TITLE "Hand On Your Heart [The Great Aorta Mix]"
    PERFORMER "Kylie Minogue"
    ISRC GBBTK0900254
    INDEX 00 03:31:22
FILE "15 Hand On Your Heart [The Great Aorta Mix].wav" WAVE
    INDEX 01 00:00:00
  TRACK 16 AUDIO
    TITLE "Wouldn't Change A Thing [Your Thang Mix]"
    PERFORMER "Kylie Minogue"
    ISRC GBBTK0900270
    INDEX 00 06:26:25
FILE "16 Wouldn't Change A Thing [Your Thang Mix].wav" WAVE
    INDEX 01 00:00:00
  TRACK 17 AUDIO
    TITLE "Never Too Late [Extended Version]"
    PERFORMER "Kylie Minogue"
    ISRC GBBTK0900286
    INDEX 00 07:14:66
FILE "17 Never Too Late [Extended Version].wav" WAVE
    INDEX 01 00:00:00
  TRACK 18 AUDIO
    TITLE "Tears On My Pillow [Extended Version]"
    PERFORMER "Kylie Minogue"
    ISRC GBBTK0900294
    INDEX 00 06:09:45
FILE "18 Tears On My Pillow [Extended Version].wav" WAVE
    INDEX 01 00:00:00
  TRACK 19 AUDIO
    TITLE "Especially For You [Extended Version]"
    PERFORMER "Kylie Minogue"
    ISRC GBBTK0900232
    INDEX 00 04:05:32
FILE "19 Especially For You [Extended Version].wav" WAVE
    INDEX 01 00:00:00

CD 2

REM DATE 1989
REM DISCID F4119D0F
REM COMMENT "ExactAudioCopy v1.0b3"
CATALOG 5013929250260
PERFORMER "Kylie Minogue"
TITLE "Enjoy Yourself [Deluxe Edition] [CD2]"
FILE "01 Hand On Your Heart [The Heartache Mix].wav" WAVE
  TRACK 01 AUDIO
    TITLE "Hand On Your Heart [The Heartache Mix]"
    PERFORMER "Kylie Minogue"
    ISRC GBBTK0900262
    INDEX 01 00:00:00
  TRACK 02 AUDIO
    TITLE "Wouldn't Change A Thing [The Espagna Mix]"
    PERFORMER "Kylie Minogue"
    ISRC GBBTK0900277
    INDEX 00 05:21:71
FILE "02 Wouldn't Change A Thing [The Espagna Mix].wav" WAVE
    INDEX 01 00:00:00
  TRACK 03 AUDIO
    TITLE "I'm Over Dreaming (Over You) [Extended Remix]"
    PERFORMER "Kylie Minogue"
    ISRC GBBTK0900308
    INDEX 00 05:47:09
FILE "03 I'm Over Dreaming (Over You) [Extended Remix].wav" WAVE
    INDEX 01 00:00:00
  TRACK 04 AUDIO
    TITLE "We Know The Meaning Of Love [Extended Version]"
    PERFORMER "Kylie Minogue"
    ISRC GBBTK0900299
    INDEX 00 04:55:59
FILE "04 We Know The Meaning Of Love [Extended Version].wav" WAVE
    INDEX 01 00:00:00
  TRACK 05 AUDIO
    TITLE "Tears On My Pillow [12'' Remix]"
    PERFORMER "Kylie Minogue"
    ISRC GBBTK0900295
    INDEX 00 05:51:08
FILE "05 Tears On My Pillow [12'' Remix].wav" WAVE
    INDEX 01 00:00:00
  TRACK 06 AUDIO
    TITLE "Especially For You [Original 12'' Mix]"
    PERFORMER "Kylie Minogue"
    ISRC GBBTK0900236
    INDEX 00 04:20:26
FILE "06 Especially For You [Original 12'' Mix].wav" WAVE
    INDEX 01 00:00:00
  TRACK 07 AUDIO
    TITLE "All I Wanna Do Is Make You Mine [Extended Version]"
    PERFORMER "Kylie Minogue"
    ISRC GBBTK0900238
    INDEX 00 04:59:74
FILE "07 All I Wanna Do Is Make You Mine [Extended Version].wav" WAVE
    INDEX 01 00:00:00
  TRACK 08 AUDIO
    TITLE "Hand On Your Heart [Smokin' Remix]"
    PERFORMER "Kylie Minogue"
    ISRC GBBTK0900263
    INDEX 00 06:01:10
FILE "08 Hand On Your Heart [Smokin' Remix].wav" WAVE
    INDEX 01 00:00:00
  TRACK 09 AUDIO
    TITLE "Wouldn't Change A Thing [Yoyo's 12'' Mix]"
    PERFORMER "Kylie Minogue"
    ISRC GBBTK0900279
    INDEX 00 05:33:19
FILE "09 Wouldn't Change A Thing [Yoyo's 12'' Mix].wav" WAVE
    INDEX 01 00:00:00
  TRACK 10 AUDIO
    TITLE "Especially For You [Original 7'' Mix]"
    PERFORMER "Kylie Minogue"
    ISRC GBBTK0900235
    INDEX 00 06:37:33
FILE "10 Especially For You [Original 7'' Mix].wav" WAVE
    INDEX 01 00:00:00
  TRACK 11 AUDIO
    TITLE "Hand On Your Heart [Video Mix]"
    PERFORMER "Kylie Minogue"
    ISRC GBBTK0900256
    INDEX 00 03:31:27
FILE "11 Hand On Your Heart [Video Mix].wav" WAVE
    INDEX 01 00:00:00
  TRACK 12 AUDIO
    TITLE "Wouldn't Change A Thing [The Espagna Mix Edit]"
    PERFORMER "Kylie Minogue"
    ISRC GBBTK0900278
    INDEX 00 03:44:59
FILE "12 Wouldn't Change A Thing [The Espagna Mix Edit].wav" WAVE
    INDEX 01 00:00:00
  TRACK 13 AUDIO
    TITLE "Never Too Late [Oz Tour Mix]"
    PERFORMER "Kylie Minogue"
    ISRC GBBTK0900289
    INDEX 00 04:17:11
FILE "13 Never Too Late [Oz Tour Mix].wav" WAVE
    INDEX 01 00:00:00
  TRACK 14 AUDIO
    TITLE "I'm Over Dreaming (Over You) [7'' Remix]"
    PERFORMER "Kylie Minogue"
    ISRC GBBTK0900307
    INDEX 00 05:06:05
FILE "14 I'm Over Dreaming (Over You) [7'' Remix].wav" WAVE
    INDEX 01 00:00:00
  TRACK 15 AUDIO
    TITLE "Hand On Your Heart [Dub]"
    PERFORMER "Kylie Minogue"
    ISRC GBBTK0900255
    INDEX 00 03:23:06
FILE "15 Hand On Your Heart [Dub].wav" WAVE
    INDEX 01 00:00:00

1990

CD 1

REM DATE 1990
REM DISCID E1121910
REM COMMENT "ExactAudioCopy v1.0b3"
CATALOG 5013929250369
PERFORMER "Kylie Minogue"
TITLE "Rhythm Of Love [Deluxe Edition] [CD1]"
FILE "01 Better The Devil You Know.wav" WAVE
  TRACK 01 AUDIO
    TITLE "Better The Devil You Know"
    PERFORMER "Kylie Minogue"
    ISRC GBBTK0900071
    INDEX 01 00:00:00
  TRACK 02 AUDIO
    TITLE "Step Back In Time"
    PERFORMER "Kylie Minogue"
    ISRC GBBTK0900072
    INDEX 00 03:53:27
FILE "02 Step Back In Time.wav" WAVE
    INDEX 01 00:00:00
  TRACK 03 AUDIO
    TITLE "What Do I Have To Do"
    PERFORMER "Kylie Minogue"
    ISRC GBBTK0900073
    INDEX 00 03:04:54
FILE "03 What Do I Have To Do.wav" WAVE
    INDEX 01 00:00:00
  TRACK 04 AUDIO
    TITLE "Secrets"
    PERFORMER "Kylie Minogue"
    ISRC GBBTK0900074
    INDEX 00 03:43:29
FILE "04 Secrets.wav" WAVE
    INDEX 01 00:00:00
  TRACK 05 AUDIO
    TITLE "Always Find The Time"
    PERFORMER "Kylie Minogue"
    ISRC GBBTK0900075
    INDEX 00 04:05:17
FILE "05 Always Find The Time.wav" WAVE
    INDEX 01 00:00:00
  TRACK 06 AUDIO
    TITLE "The World Still Turns"
    PERFORMER "Kylie Minogue"
    ISRC GBBTK0900076
    INDEX 00 03:35:37
FILE "06 The World Still Turns.wav" WAVE
    INDEX 01 00:00:00
  TRACK 07 AUDIO
    TITLE "Shocked"
    PERFORMER "Kylie Minogue"
    ISRC GBBTK0900077
    INDEX 00 04:00:01
FILE "07 Shocked.wav" WAVE
    INDEX 01 00:00:00
  TRACK 08 AUDIO
    TITLE "One Boy Girl"
    PERFORMER "Kylie Minogue"
    ISRC GBBTK0900078
    INDEX 00 04:47:20
FILE "08 One Boy Girl.wav" WAVE
    INDEX 01 00:00:00
  TRACK 09 AUDIO
    TITLE "Things Can Only Get Better"
    PERFORMER "Kylie Minogue"
    ISRC GBBTK0900079
    INDEX 00 04:33:67
FILE "09 Things Can Only Get Better.wav" WAVE
    INDEX 01 00:00:00
  TRACK 10 AUDIO
    TITLE "Count The Days"
    PERFORMER "Kylie Minogue"
    ISRC GBBTK0900080
    INDEX 00 03:55:56
FILE "10 Count The Days.wav" WAVE
    INDEX 01 00:00:00
  TRACK 11 AUDIO
    TITLE "Rhythm Of Love"
    PERFORMER "Kylie Minogue"
    ISRC GBBTK0900081
    INDEX 00 04:23:01
FILE "11 Rhythm Of Love.wav" WAVE
    INDEX 01 00:00:00
  TRACK 12 AUDIO
    TITLE "Better The Devil You Know [The Mad March Hare Mix]"
    PERFORMER "Kylie Minogue"
    ISRC GBBTK0900302
    INDEX 00 04:18:18
FILE "12 Better The Devil You Know [The Mad March Hare Mix].wav" WAVE
    INDEX 01 00:00:00
  TRACK 13 AUDIO
    TITLE "Step Back In Time [Walkin' Rhythm Mix]"
    PERFORMER "Kylie Minogue"
    ISRC GBBTK0900321
    INDEX 00 07:08:01
FILE "13 Step Back In Time [Walkin' Rhythm Mix].wav" WAVE
    INDEX 01 00:00:00
  TRACK 14 AUDIO
    TITLE "What Do I Have To Do [Pumpin' Mix]"
    PERFORMER "Kylie Minogue"
    ISRC GBBTK0900330
    INDEX 00 08:00:31
FILE "14 What Do I Have To Do [Pumpin' Mix].wav" WAVE
    INDEX 01 00:00:00
  TRACK 15 AUDIO
    TITLE "Shocked [DNA 12'' Mix]"
    PERFORMER "Kylie Minogue"
    ISRC GBBTK0900349
    INDEX 00 07:46:56
FILE "15 Shocked [DNA 12'' Mix].wav" WAVE
    INDEX 01 00:00:00
  TRACK 16 AUDIO
    TITLE "Things Can Only Get Better [Original Mix]"
    PERFORMER "Kylie Minogue"
    ISRC GBBTK0900414
    INDEX 00 06:13:74
FILE "16 Things Can Only Get Better [Original Mix].wav" WAVE
    INDEX 01 00:00:00

CD 2

REM DATE 1991
REM DISCID B812850D
REM COMMENT "ExactAudioCopy v1.0b3"
CATALOG 5013929250369
PERFORMER "Kylie Minogue"
TITLE "Rhythm Of Love [Deluxe Edition] [CD2]"
FILE "01 Better The Devil You Know [Dave Ford Mix].wav" WAVE
  TRACK 01 AUDIO
    TITLE "Better The Devil You Know [Dave Ford Mix]"
    PERFORMER "Kylie Minogue"
    ISRC GBBTK0900303
    INDEX 01 00:00:00
  TRACK 02 AUDIO
    TITLE "Step Back In Time [Tony King Mix]"
    PERFORMER "Kylie Minogue"
    ISRC GBBTK0900323
    INDEX 00 05:49:23
FILE "02 Step Back In Time [Tony King Mix].wav" WAVE
    INDEX 01 00:00:00
  TRACK 03 AUDIO
    TITLE "What Do I Have To Do [Between The Sheets Mix]"
    PERFORMER "Kylie Minogue"
    ISRC GBBTK0900339
    INDEX 00 07:29:04
FILE "03 What Do I Have To Do [Between The Sheets Mix].wav" WAVE
    INDEX 01 00:00:00
  TRACK 04 AUDIO
    TITLE "Shocked [Harding Curnow 12'' Mix]"
    PERFORMER "Kylie Minogue"
    ISRC GBBTK0900357
    INDEX 00 07:04:58
FILE "04 Shocked [Harding Curnow 12'' Mix].wav" WAVE
    INDEX 01 00:00:00
  TRACK 05 AUDIO
    TITLE "Better The Devil You Know [Alternative Mix]"
    PERFORMER "Kylie Minogue"
    ISRC GBBTK0900304
    INDEX 00 07:31:28
FILE "05 Better The Devil You Know [Alternative Mix].wav" WAVE
    INDEX 01 00:00:00
  TRACK 06 AUDIO
    TITLE "I Am The One For You"
    PERFORMER "Kylie Minogue"
    ISRC GBBTK0900361
    INDEX 00 03:19:01
FILE "06 I Am The One For You.wav" WAVE
    INDEX 01 00:00:00
  TRACK 07 AUDIO
    TITLE "What Do I Have To Do [Billy The Fish Mix]"
    PERFORMER "Kylie Minogue"
    ISRC GBBTK1000082
    INDEX 00 03:11:13
FILE "07 What Do I Have To Do [Billy The Fish Mix].wav" WAVE
    INDEX 01 00:00:00
  TRACK 08 AUDIO
    TITLE "Better The Devil You Know [US Remix]"
    PERFORMER "Kylie Minogue"
    ISRC GBBTK0900311
    INDEX 00 07:30:31
FILE "08 Better The Devil You Know [US Remix].wav" WAVE
    INDEX 01 00:00:00
  TRACK 09 AUDIO
    TITLE "One Boy Girl [12'' Mix]"
    PERFORMER "Kylie Minogue"
    ISRC GBBTK0900352
    INDEX 00 06:02:32
FILE "09 One Boy Girl [12'' Mix].wav" WAVE
    INDEX 01 00:00:00
  TRACK 10 AUDIO
    TITLE "Shocked [Harding Curnow 7'' Mix]"
    PERFORMER "Kylie Minogue"
    ISRC GBBTK0900358
    INDEX 00 04:56:02
FILE "10 Shocked [Harding Curnow 7'' Mix].wav" WAVE
    INDEX 01 00:00:00
  TRACK 11 AUDIO
    TITLE "Things Can Only Get Better [Original 12'' Mix]"
    PERFORMER "Kylie Minogue"
    ISRC GBBTK0900415
    INDEX 00 03:18:25
FILE "11 Things Can Only Get Better [Original 12'' Mix].wav" WAVE
    INDEX 01 00:00:00
  TRACK 12 AUDIO
    TITLE "What Do I Have To Do [Sax On The Beach Mix]"
    PERFORMER "Kylie Minogue"
    ISRC GBBTK1400003
    INDEX 00 07:11:33
FILE "12 What Do I Have To Do [Sax On The Beach Mix].wav" WAVE
    INDEX 01 00:00:00
  TRACK 13 AUDIO
    TITLE "Step Back In Time [The Big Shock]"
    PERFORMER "Kylie Minogue"
    ISRC GBBTK1400004
    INDEX 00 08:54:17
FILE "13 Step Back In Time [The Big Shock].wav" WAVE
    INDEX 01 00:00:00

1991

CD 1

REM DATE 1991
REM DISCID 09120812
REM COMMENT "ExactAudioCopy v1.0b3"
CATALOG 5013929250468
PERFORMER "Kylie Minogue"
TITLE "Let's Get To It [Deluxe Edition] [CD1]"
FILE "01 Word Is Out.wav" WAVE
  TRACK 01 AUDIO
    TITLE "Word Is Out"
    PERFORMER "Kylie Minogue"
    ISRC GBBTK0900082
    INDEX 01 00:00:00
  TRACK 02 AUDIO
    TITLE "Give Me Just A Little More Time"
    PERFORMER "Kylie Minogue"
    ISRC GBBTK0900083
    INDEX 00 03:35:50
FILE "02 Give Me Just A Little More Time.wav" WAVE
    INDEX 01 00:00:00
  TRACK 03 AUDIO
    TITLE "Too Much Of A Good Thing"
    PERFORMER "Kylie Minogue"
    ISRC GBBTK0900084
    INDEX 00 03:08:25
FILE "03 Too Much Of A Good Thing.wav" WAVE
    INDEX 01 00:00:00
  TRACK 04 AUDIO
    TITLE "Finer Feelings"
    PERFORMER "Kylie Minogue"
    ISRC GBBTK0900085
    INDEX 00 04:23:67
FILE "04 Finer Feelings.wav" WAVE
    INDEX 01 00:00:00
  TRACK 05 AUDIO
    TITLE "If You Were With Me Now"
    PERFORMER "Kylie Minogue"
    ISRC GBBTK0900086
    INDEX 00 03:52:64
FILE "05 If You Were With Me Now.wav" WAVE
    INDEX 01 00:00:00
  TRACK 06 AUDIO
    TITLE "Let's Get To It"
    PERFORMER "Kylie Minogue"
    ISRC GBBTK0900087
    INDEX 00 03:10:10
FILE "06 Let's Get To It.wav" WAVE
    INDEX 01 00:00:00
  TRACK 07 AUDIO
    TITLE "Right Here, Right Now"
    PERFORMER "Kylie Minogue"
    ISRC GBBTK0900088
    INDEX 00 04:49:36
FILE "07 Right Here, Right Now.wav" WAVE
    INDEX 01 00:00:00
  TRACK 08 AUDIO
    TITLE "Live and Learn"
    PERFORMER "Kylie Minogue"
    ISRC GBBTK0900089
    INDEX 00 03:53:16
FILE "08 Live and Learn.wav" WAVE
    INDEX 01 00:00:00
  TRACK 09 AUDIO
    TITLE "No World Without You"
    PERFORMER "Kylie Minogue"
    ISRC GBBTK0900090
    INDEX 00 03:14:06
FILE "09 No World Without You.wav" WAVE
    INDEX 01 00:00:00
  TRACK 10 AUDIO
    TITLE "I Guess I Like It Like That"
    PERFORMER "Kylie Minogue"
    ISRC GBBTK0900091
    INDEX 00 02:45:08
FILE "10 I Guess I Like It Like That.wav" WAVE
    INDEX 01 00:00:00
  TRACK 11 AUDIO
    TITLE "Say The Word - I'll Be There"
    PERFORMER "Kylie Minogue"
    ISRC GBBTK0900372
    INDEX 00 06:00:05
FILE "11 Say The Word - I'll Be There.wav" WAVE
    INDEX 01 00:00:00
  TRACK 12 AUDIO
    TITLE "Do You Dare [NRG Edit]"
    PERFORMER "Kylie Minogue"
    ISRC GBBTK0900398
    INDEX 00 04:12:14
FILE "12 Do You Dare [NRG Edit].wav" WAVE
    INDEX 01 00:00:00
  TRACK 13 AUDIO
    TITLE "Closer [Edit]"
    PERFORMER "Kylie Minogue"
    ISRC GBBTK0900407
    INDEX 00 03:20:62
FILE "13 Closer [Edit].wav" WAVE
    INDEX 01 00:00:00
  TRACK 14 AUDIO
    TITLE "Keep On Pumpin' It [Angelic Remix Edit]"
    PERFORMER "Kylie Minogue"
    ISRC GBBTK0900632
    INDEX 00 03:56:44
FILE "14 Keep On Pumpin' It [Angelic Remix Edit].wav" WAVE
    INDEX 01 00:00:00
  TRACK 15 AUDIO
    TITLE "Word Is Out [Extended Version]"
    PERFORMER "Kylie Minogue"
    ISRC GBBTK0900366
    INDEX 00 04:01:38
FILE "15 Word Is Out [Extended Version].wav" WAVE
    INDEX 01 00:00:00
  TRACK 16 AUDIO
    TITLE "If You Were With Me Now [Extended Version]"
    PERFORMER "Kylie Minogue"
    ISRC GBBTK0900385
    INDEX 00 05:51:19
FILE "16 If You Were With Me Now [Extended Version].wav" WAVE
    INDEX 01 00:00:00
  TRACK 17 AUDIO
    TITLE "Give Me Just A Little More Time [Extended Version]"
    PERFORMER "Kylie Minogue"
    ISRC GBBTK0900392
    INDEX 00 05:09:30
FILE "17 Give Me Just A Little More Time [Extended Version].wav" WAVE
    INDEX 01 00:00:00
  TRACK 18 AUDIO
    TITLE "Finer Feelings [Brothers In Rhythm 12'' Mix]"
    PERFORMER "Kylie Minogue"
    ISRC GBBTK0900400
    INDEX 00 04:34:00
FILE "18 Finer Feelings [Brothers In Rhythm 12'' Mix].wav" WAVE
    INDEX 01 00:00:00

CD 2

REM DATE 1991
REM DISCID B6126E0D
REM COMMENT "ExactAudioCopy v1.0b3"
CATALOG 5013929250468
PERFORMER "Kylie Minogue"
TITLE "Let's Get To It [Deluxe Edition] [CD2]"
FILE "01 Keep On Pumpin' It [Angelic Remix].wav" WAVE
  TRACK 01 AUDIO
    TITLE "Keep On Pumpin' It [Angelic Remix]"
    PERFORMER "Kylie Minogue"
    ISRC GBBTK0900633
    INDEX 01 00:00:00
  TRACK 02 AUDIO
    TITLE "Do You Dare [NRG Mix]"
    PERFORMER "Kylie Minogue"
    ISRC GBBTK0900395
    INDEX 00 07:25:18
FILE "02 Do You Dare [NRG Mix].wav" WAVE
    INDEX 01 00:00:00
  TRACK 03 AUDIO
    TITLE "Closer [The Pleasure Mix]"
    PERFORMER "Kylie Minogue"
    ISRC GBBTK0900406
    INDEX 00 07:04:62
FILE "03 Closer [The Pleasure Mix].wav" WAVE
    INDEX 01 00:00:00
  TRACK 04 AUDIO
    TITLE "Word Is Out [Summer Breeze Mix]"
    PERFORMER "Kylie Minogue"
    ISRC GBBTK0900375
    INDEX 00 06:47:49
FILE "04 Word Is Out [Summer Breeze Mix].wav" WAVE
    INDEX 01 00:00:00
  TRACK 05 AUDIO
    TITLE "Too Much Of A Good Thing [Original 12'' Mix]"
    PERFORMER "Kylie Minogue"
    ISRC GBBTK0900430
    INDEX 00 07:44:18
FILE "05 Too Much Of A Good Thing [Original 12'' Mix].wav" WAVE
    INDEX 01 00:00:00
  TRACK 06 AUDIO
    TITLE "Let's Get To It [Tony King 12'' Mix]"
    PERFORMER "Kylie Minogue"
    ISRC GBBTK0900424
    INDEX 00 05:49:33
FILE "06 Let's Get To It [Tony King 12'' Mix].wav" WAVE
    INDEX 01 00:00:00
  TRACK 07 AUDIO
    TITLE "Right Here, Right Now [Tony King 12'' Mix]"
    PERFORMER "Kylie Minogue"
    ISRC GBBTK0900377
    INDEX 00 05:59:60
FILE "07 Right Here, Right Now [Tony King 12'' Mix].wav" WAVE
    INDEX 01 00:00:00
  TRACK 08 AUDIO
    TITLE "Live and Learn [Original 12'' Mix]"
    PERFORMER "Kylie Minogue"
    ISRC GBBTK0900380
    INDEX 00 07:55:73
FILE "08 Live and Learn [Original 12'' Mix].wav" WAVE
    INDEX 01 00:00:00
  TRACK 09 AUDIO
    TITLE "Keep On Pumpin' It [Astral Flight Mix]"
    PERFORMER "Kylie Minogue"
    ISRC GBBTK0900634
    INDEX 00 05:57:03
FILE "09 Keep On Pumpin' It [Astral Flight Mix].wav" WAVE
    INDEX 01 00:00:00
  TRACK 10 AUDIO
    TITLE "Do You Dare [New Rave Mix]"
    PERFORMER "Kylie Minogue"
    ISRC GBBTK0900396
    INDEX 00 06:54:47
FILE "10 Do You Dare [New Rave Mix].wav" WAVE
    INDEX 01 00:00:00
  TRACK 11 AUDIO
    TITLE "No World Without You [Original Mix]"
    PERFORMER "Kylie Minogue"
    ISRC GBBTK0900383
    INDEX 00 06:39:64
FILE "11 No World Without You [Original Mix].wav" WAVE
    INDEX 01 00:00:00
  TRACK 12 AUDIO
    TITLE "If You Were With Me Now [Orchestral Version]"
    PERFORMER "Kylie Minogue"
    ISRC GBBTK0900386
    INDEX 00 02:53:69
FILE "12 If You Were With Me Now [Orchestral Version].wav" WAVE
    INDEX 01 00:00:00
  TRACK 13 AUDIO
    TITLE "Finer Feelings [Brothers In Rhythm Dub]"
    PERFORMER "Kylie Minogue"
    ISRC GBBTK0900401
    INDEX 00 03:11:02
FILE "13 Finer Feelings [Brothers In Rhythm Dub].wav" WAVE
    INDEX 01 00:00:00
--
[Профиль] [ЛС]
Показать сообщения:    

Текущее время: Сегодня 15:44

Часовой пояс: GMT



Вы не можете начинать темы
Вы не можете отвечать на сообщения
Вы не можете редактировать свои сообщения
Вы не можете удалять свои сообщения
Вы не можете голосовать в опросах
Вы не можете прикреплять файлы к сообщениям
Вы не можете скачивать файлы