Kylie Minogue: Kiss Me Once - Live At The SSE Hydro [2015, Pop, BDRip] 1080p

 
Автор Сообщение

sergej644 ®

Пол:

Стаж: 4 года 11 месяцев

Сообщений: 6043

Откуда: Soviet Union



Награды: Нет

Торрент-статистика

Создавать темы 23-Мар-2015 15:03

[Цитировать]

--Kylie Minogue: Kiss Me Once - Live At The SSE Hydro Название: Kylie Minogue: Kiss Me Once - Live At The SSE Hydro
Год выпуска: 2015
Жанр: Pop
Продолжительность: 01:49:43---Kylie Minogue and Band:
Pete Watson – Piano/Keyboards;
Tom Meadows – Drums;
Dishan Abrahams – Bass;
Luke Fitton – Guitar;
Roxy Rizzo, Lucy Jules – Backing Vocals---Описание: После выхода альбома "Kiss Me Once" в 2014 году, Кайли Миноуг отправилась в грандиозное мировое турне. Она включила в свои выступления все хиты, которых за долгую карьеру певицы у неё накопилось немало. Данный концерт состоялся в Глазго в ноябре 2014 года.-

Треклист:

01. Breathe / Les Sex Intro
02. Les Sex
03. In My Arms
04. Timebomb
05. Wow
06. Step Back In Time
07. Spinning Around
08. Your Disco Needs You
09. On a Night Like This
10. Slow
11. Enjoy Yourself
12. Hand On Your Heart
13. Never Too Late
14. Got To Be Certain
15. I Should Be So Lucky
16. Skirt
17. Need You Tonight
18. Sexercize
19. Can’t Get You Out Of My Head
20. Kids
21. Beautiful
22. Kiss Me Once
23. Get Outta My Way
24. Love At First Sight
25. Tears On My Pillow
26. Locomotion
27. All The Lovers
28. Into The Blue
29. End Sequence (Kmo Instrumental)
--Файл
Качество: BDRip 1080p
Формат: MKV
Видео кодек: H264
Аудио кодек: DTS, PCM, AC3
Видео: MPEG4 Video (H264), 1920x1080, 29.97fps, 12.5 Mbps
Аудио #1: DTS, 48000 Hz, 6ch, 1536 kbps
Аудио #2: PCM, 48000 Hz, 2ch, 1536 kbps
Аудио #3: Dolby AC3, 48000 Hz, 6ch, 448 kbps--Сэмпл--

MediaInfo:

General
Unique ID                      : 245286593160959931400899240435192314734 (0xB8887ABEB6681FF69A4B0D10DE6E3B6E)
Complete name                  : F:Torrent 22014.Kylie.Minogue.Kiss.Me.Once.renta23.mkv
Format                         : Matroska
Format version                 : Version 4 / Version 2
File size                      : 12.3 GiB
Duration                       : 1h 49mn
Overall bit rate               : 16.0 Mbps
Movie name                     : renta23
Encoded date                   : UTC 2015-03-23 10:58:09
Writing application            : mkvmerge v7.7.0 ('Six Voices') 32bit built on Feb 28 2015 23:23:00
Writing library                : libebml v1.3.1 + libmatroska v1.4.2
DURATION                       : 01:49:42.976000000
NUMBER_OF_FRAMES               : 205718
NUMBER_OF_BYTES                : 368646656
_STATISTICS_WRITING_APP        : mkvmerge v7.7.0 ('Six Voices') 32bit built on Feb 28 2015 23:23:00
_STATISTICS_WRITING_DATE_UTC   : 2015-03-23 10:58:09
_STATISTICS_TAGS               : BPS DURATION NUMBER_OF_FRAMES NUMBER_OF_BYTES
Video
ID                             : 1
Format                         : AVC
Format/Info                    : Advanced Video Codec
Format profile                 : High@L4.1
Format settings, CABAC         : Yes
Format settings, ReFrames      : 3 frames
Codec ID                       : V_MPEG4/ISO/AVC
Duration                       : 1h 49mn
Nominal bit rate               : 12.5 Mbps
Width                          : 1 920 pixels
Height                         : 1 080 pixels
Display aspect ratio           : 16:9
Frame rate mode                : Constant
Frame rate                     : 29.970 fps
Color space                    : YUV
Chroma subsampling             : 4:2:0
Bit depth                      : 8 bits
Scan type                      : Progressive
Bits/(Pixel*Frame)             : 0.201
Title                          : 2014 Kylie Minogue Kiss Me Once – Live At The SSE Hydro
Writing library                : x264 core 125 r2208 d9d2288
Encoding settings              : cabac=1 / ref=4 / deblock=1:-1:-1 / analyse=0x3:0x133 / me=umh / subme=11 / psy=1 / psy_rd=1.10:0.15 / mixed_ref=1 / me_range=24 / chroma_me=1 / trellis=2 / 8x8dct=1 / cqm=0 / deadzone=21,11 / fast_pskip=0 / chroma_qp_offset=-3 / threads=12 / lookahead_threads=2 / sliced_threads=0 / nr=0 / decimate=1 / interlaced=0 / bluray_compat=0 / constrained_intra=0 / bframes=12 / b_pyramid=1 / b_adapt=2 / b_bias=0 / direct=3 / weightb=1 / open_gop=0 / weightp=2 / keyint=250 / keyint_min=25 / scenecut=40 / intra_refresh=0 / rc_lookahead=50 / rc=2pass / mbtree=1 / bitrate=12500 / ratetol=1.0 / qcomp=0.60 / qpmin=0 / qpmax=69 / qpstep=4 / cplxblur=20.0 / qblur=0.5 / ip_ratio=1.40 / aq=1:1.00
Language                       : English
Default                        : Yes
Forced                         : No
Audio #1
ID                             : 2
Format                         : DTS
Format/Info                    : Digital Theater Systems
Mode                           : 16
Format settings, Endianness    : Big
Codec ID                       : A_DTS
Duration                       : 1h 49mn
Bit rate mode                  : Constant
Bit rate                       : 1 509 Kbps
Channel(s)                     : 6 channels
Channel positions              : Front: L C R, Side: L R, LFE
Sampling rate                  : 48.0 KHz
Bit depth                      : 24 bits
Compression mode               : Lossy
Stream size                    : 1.16 GiB (9%)
Title                          : DTS
Language                       : English
Default                        : No
Forced                         : No
Audio #2
ID                             : 3
Format                         : PCM
Codec ID                       : A_PCM/INT/LIT
Duration                       : 1h 49mn
Bit rate mode                  : Constant
Channel(s)                     : 2 channels
Sampling rate                  : 48.0 KHz
Bit depth                      : 16 bits
Title                          : PCM
Language                       : English
Default                        : No
Forced                         : No
Audio #3
ID                             : 4
Format                         : AC-3
Format/Info                    : Audio Coding 3
Mode extension                 : CM (complete main)
Format settings, Endianness    : Big
Codec ID                       : A_AC3
Duration                       : 1h 49mn
Bit rate mode                  : Constant
Bit rate                       : 448 Kbps
Channel(s)                     : 6 channels
Channel positions              : Front: L C R, Side: L R, LFE
Sampling rate                  : 48.0 KHz
Bit depth                      : 16 bits
Compression mode               : Lossy
Stream size                    : 352 MiB (3%)
Title                          : AC3
Language                       : English
Default                        : No
Forced                         : No
Menu
00:00:00.000                   : en:Chapter 01
00:02:07.393                   : en:Chapter 02
00:05:16.082                   : en:Chapter 03
00:08:42.121                   : en:Chapter 04
00:12:59.478                   : en:Chapter 05
00:16:12.504                   : en:Chapter 06
00:20:43.508                   : en:Chapter 07
00:24:25.096                   : en:Chapter 08
00:29:07.846                   : en:Chapter 09
00:32:44.662                   : en:Chapter 10
00:36:57.348                   : en:Chapter 11
00:37:45.096                   : en:Chapter 12
00:40:33.431                   : en:Chapter 13
00:42:23.340                   : en:Chapter 14
00:44:18.022                   : en:Chapter 15
00:46:52.709                   : en:Chapter 16
00:49:18.822                   : en:Chapter 17
00:53:17.194                   : en:Chapter 18
00:57:03.353                   : en:Chapter 19
00:58:13.289                   : en:Chapter 20
01:02:39.522                   : en:Chapter 21
01:04:02.772                   : en:Chapter 22
01:08:43.652                   : en:Chapter 23
01:13:36.311                   : en:Chapter 24
01:17:29.811                   : en:Chapter 25
01:23:54.829                   : en:Chapter 26
01:29:41.075                   : en:Chapter 27
01:31:33.521                   : en:Chapter 28
01:36:02.590                   : en:Chapter 29
01:39:53.654                   : en:Chapter 30
01:46:30.917                   : en:Chapter 31
01:49:40.740                   : en:Chapter 32
- -
[Профиль] [ЛС]
Показать сообщения:    

Текущее время: Сегодня 10:53

Часовой пояс: GMT



Вы не можете начинать темы
Вы не можете отвечать на сообщения
Вы не можете редактировать свои сообщения
Вы не можете удалять свои сообщения
Вы не можете голосовать в опросах
Вы не можете прикреплять файлы к сообщениям
Вы не можете скачивать файлы