(Pop, Synth-pop, Eurodance) Kylie Minogue - Enjoy Yourself (Deluxe Edition)(2CD)(1989, Remastered) - 2015 [FLAC, tracks+.cue, lossless]

 
Автор Сообщение

sergej644 ®

Пол:

Стаж: 4 года 11 месяцев

Сообщений: 6040

Откуда: Soviet Union



Награды: Нет

Торрент-статистика

Создавать темы 05-Июл-2015 17:13

[Цитировать]

-Kylie Minogue / Enjoy Yourself (Deluxe Edition)(2CD)(1989, Remastered)-- Год издания: 2015
Страна: Australia
Жанр: Pop, Synth-pop, Eurodance
Продолжительность: 02:31:16-Лейбл издания: Cherry Red Records
Тип альбома: Compilations
Страна-выпуска диска: Australia
Номер по каталогу: KYLIE 2 T
Формат: FLAC
Битрейт аудио: lossless
Тип рипа: tracks+.cue
Наличие сканов в содержимом раздачи: да
-

Трэклист

Disc One | 01:16:06

01. Hand On Your Heart (03:52)
02. Wouldn't Change A Thing (03:15)
03. Never Too Late (03:24)
04. Nothing To Lose (03:22)
05. Tell-Tale Signs (02:27)
06. My Secret Heart (02:42)
07. I'm Over Dreaming (Over You) (03:25)
08. Tears On My Pillow (02:31)
09. Heaven And Earth (03:45)
10. Enjoy Yourself (03:46)
Bonus tracks:
11. Especially For You (04:01)
12. All I Wanna Do Is Make You Mine (03:39)
13. Just Wanna Love You (03:33)
14. We Know The Meaning Of Love (03:32)
15. Hand On Your Heart (The Great Aorta Mix) (06:27)
16. Wouldn't Change A Thing (Your Thang Mix) (07:16)
17. Never Too Late (Extended Version) (06:11)
18. Tears On My Pillow (Extended Version) (04:06)
19. Especially For You (Extended Version) (05:02)

Disc Two | 0:15:10

01. Hand On Your Heart (The Heartache Mix) (05:23)
02. Wouldn't Change A Thing (The Espagna Mix) (05:48)
03. I'm Over Dreaming (Over You) (Extended Remix) (04:57)
04. We Know The Meaning Of Love (Extended Version) (05:52)
05. Tears On My Pillow (12'' Remix) (04:21)
06. Especially For You (Original 12'' Mix) (05:01)
07. All I Wanna Do Is Make You Mine (Extended Version) (06:02)
08. Hand On Your Heart (Smokin' Remix) (05:34)
09. Wouldn't Change A Thing (Yoyo's 12'' Mix) (06:38)
10. Especially For You (Original 7'' Mix) (03:32)
11. Hand On Your Heart (Video Mix) (03:46)
12. Wouldn't Change A Thing (The Espagna Mix Edit) (04:18)
13. Never Too Late (Oz Tour Mix) (05:07)
14. I'm Over Dreaming (Over You) (7'' Remix) (03:24)
15. Hand On Your Heart (Dub) (05:33)
-

Лог создания рипа

CD 1

Exact Audio Copy V1.0 beta 3 from 29. August 2011
EAC extraction logfile from 14. June 2015, 22:42
Kylie Minogue / Enjoy Yourself [Deluxe Edition]: Disc One
Used drive  : PIONEER BD-RW   BDR-205   Adapter: 0  ID: 1
Read mode : Burst
Read offset correction                      : 667
Overread into Lead-In and Lead-Out          : No
Fill up missing offset samples with silence : Yes
Delete leading and trailing silent blocks   : No
Null samples used in CRC calculations       : Yes
Used interface                              : Native Win32 interface for Win NT & 2000
Gap handling                                : Not detected, thus appended to previous track
Used output format              : User Defined Encoder
Selected bitrate                : 128 kBit/s
Quality                         : High
Add ID3 tag                     : No
Command line compressor         : C:\Program Files (x86)\Exact Audio Copy\Flac\flac.exe
Additional command line options :  -V -8 -T "Date=%year%" -T "Genre=%genre%" %source%
TOC of the extracted CD
     Track |   Start  |  Length  | Start sector | End sector
    ---------------------------------------------------------
        1  |  0:00.00 |  3:51.44 |         0    |    17368
        2  |  3:51.44 |  3:14.66 |     17369    |    31984
        3  |  7:06.35 |  3:23.16 |     31985    |    47225
        4  | 10:29.51 |  3:21.27 |     47226    |    62327
        5  | 13:51.03 |  2:26.32 |     62328    |    73309
        6  | 16:17.35 |  2:41.52 |     73310    |    85436
        7  | 18:59.12 |  3:24.08 |     85437    |   100744
        8  | 22:23.20 |  2:30.17 |    100745    |   112011
        9  | 24:53.37 |  3:44.10 |    112012    |   128821
       10  | 28:37.47 |  3:45.08 |    128822    |   145704
       11  | 32:22.55 |  4:00.65 |    145705    |   163769
       12  | 36:23.45 |  3:38.03 |    163770    |   180122
       13  | 40:01.48 |  3:32.20 |    180123    |   196042
       14  | 43:33.68 |  3:31.59 |    196043    |   211926
       15  | 47:05.52 |  6:26.62 |    211927    |   240938
       16  | 53:32.39 |  7:15.29 |    240939    |   273592
       17  | 60:47.68 |  6:10.07 |    273593    |   301349
       18  | 66:58.00 |  4:05.69 |    301350    |   319793
       19  | 71:03.69 |  5:01.42 |    319794    |   342410
Track  1
     Filename E:\Kylie Minogue - Enjoy Yourself [Deluxe Edition]\Kylie Minogue - Enjoy Yourself [Deluxe Edition]- Disc One\01 Hand On Your Heart.wav
     Peak level 100.0 %
     Extraction speed 18.6 X
     Test CRC A3392726
     Copy CRC A3392726
     Accurately ripped (confidence 6)  [DC38C967]  (AR v2)
     Copy OK
Track  2
     Filename E:\Kylie Minogue - Enjoy Yourself [Deluxe Edition]\Kylie Minogue - Enjoy Yourself [Deluxe Edition]- Disc One\02 Wouldn't Change A Thing.wav
     Peak level 100.0 %
     Extraction speed 20.2 X
     Test CRC 941E8C5B
     Copy CRC 941E8C5B
     Accurately ripped (confidence 6)  [7DF69495]  (AR v2)
     Copy OK
Track  3
     Filename E:\Kylie Minogue - Enjoy Yourself [Deluxe Edition]\Kylie Minogue - Enjoy Yourself [Deluxe Edition]- Disc One\03 Never Too Late.wav
     Peak level 100.0 %
     Extraction speed 21.6 X
     Test CRC D412A2D1
     Copy CRC D412A2D1
     Accurately ripped (confidence 6)  [1DCFFE40]  (AR v2)
     Copy OK
Track  4
     Filename E:\Kylie Minogue - Enjoy Yourself [Deluxe Edition]\Kylie Minogue - Enjoy Yourself [Deluxe Edition]- Disc One\04 Nothing To Lose.wav
     Peak level 100.0 %
     Extraction speed 23.0 X
     Test CRC 814C3009
     Copy CRC 814C3009
     Accurately ripped (confidence 6)  [9E4FD9E8]  (AR v2)
     Copy OK
Track  5
     Filename E:\Kylie Minogue - Enjoy Yourself [Deluxe Edition]\Kylie Minogue - Enjoy Yourself [Deluxe Edition]- Disc One\05 Tell-Tale Signs.wav
     Peak level 99.2 %
     Extraction speed 24.0 X
     Test CRC 8777F47C
     Copy CRC 8777F47C
     Accurately ripped (confidence 6)  [7161A64A]  (AR v2)
     Copy OK
Track  6
     Filename E:\Kylie Minogue - Enjoy Yourself [Deluxe Edition]\Kylie Minogue - Enjoy Yourself [Deluxe Edition]- Disc One\06 My Secret Heart.wav
     Peak level 98.8 %
     Extraction speed 25.0 X
     Test CRC B85D59B0
     Copy CRC B85D59B0
     Accurately ripped (confidence 6)  [5EA405AA]  (AR v2)
     Copy OK
Track  7
     Filename E:\Kylie Minogue - Enjoy Yourself [Deluxe Edition]\Kylie Minogue - Enjoy Yourself [Deluxe Edition]- Disc One\07 I'm Over Dreaming (Over You).wav
     Peak level 100.0 %
     Extraction speed 26.1 X
     Test CRC B94448BC
     Copy CRC B94448BC
     Accurately ripped (confidence 6)  [6702AC26]  (AR v2)
     Copy OK
Track  8
     Filename E:\Kylie Minogue - Enjoy Yourself [Deluxe Edition]\Kylie Minogue - Enjoy Yourself [Deluxe Edition]- Disc One\08 Tears On My Pillow.wav
     Peak level 99.8 %
     Extraction speed 27.0 X
     Test CRC 5C48D8F0
     Copy CRC 5C48D8F0
     Accurately ripped (confidence 5)  [58835863]  (AR v2)
     Copy OK
Track  9
     Filename E:\Kylie Minogue - Enjoy Yourself [Deluxe Edition]\Kylie Minogue - Enjoy Yourself [Deluxe Edition]- Disc One\09 Heaven And Earth.wav
     Peak level 99.2 %
     Extraction speed 28.1 X
     Test CRC 2824C75E
     Copy CRC 2824C75E
     Accurately ripped (confidence 6)  [EC544059]  (AR v2)
     Copy OK
Track 10
     Filename E:\Kylie Minogue - Enjoy Yourself [Deluxe Edition]\Kylie Minogue - Enjoy Yourself [Deluxe Edition]- Disc One\10 Enjoy Yourself.wav
     Peak level 99.8 %
     Extraction speed 29.1 X
     Test CRC 8E71009A
     Copy CRC 8E71009A
     Accurately ripped (confidence 6)  [6CA9DE2E]  (AR v2)
     Copy OK
Track 11
     Filename E:\Kylie Minogue - Enjoy Yourself [Deluxe Edition]\Kylie Minogue - Enjoy Yourself [Deluxe Edition]- Disc One\11 Especially For You.wav
     Peak level 100.0 %
     Extraction speed 30.4 X
     Test CRC 33190F35
     Copy CRC 33190F35
     Accurately ripped (confidence 6)  [CB134AB4]  (AR v2)
     Copy OK
Track 12
     Filename E:\Kylie Minogue - Enjoy Yourself [Deluxe Edition]\Kylie Minogue - Enjoy Yourself [Deluxe Edition]- Disc One\12 All I Wanna Do Is Make You Mine.wav
     Peak level 99.6 %
     Extraction speed 31.5 X
     Test CRC 3CA43962
     Copy CRC 3CA43962
     Accurately ripped (confidence 6)  [52977FD9]  (AR v2)
     Copy OK
Track 13
     Filename E:\Kylie Minogue - Enjoy Yourself [Deluxe Edition]\Kylie Minogue - Enjoy Yourself [Deluxe Edition]- Disc One\13 Just Wanna Love You.wav
     Peak level 100.0 %
     Extraction speed 32.4 X
     Test CRC E21DB392
     Copy CRC E21DB392
     Accurately ripped (confidence 6)  [1B7939A9]  (AR v2)
     Copy OK
Track 14
     Filename E:\Kylie Minogue - Enjoy Yourself [Deluxe Edition]\Kylie Minogue - Enjoy Yourself [Deluxe Edition]- Disc One\14 We Know The Meaning Of Love.wav
     Peak level 100.0 %
     Extraction speed 33.4 X
     Test CRC 5798CDB7
     Copy CRC 5798CDB7
     Accurately ripped (confidence 6)  [257F0A3E]  (AR v2)
     Copy OK
Track 15
     Filename E:\Kylie Minogue - Enjoy Yourself [Deluxe Edition]\Kylie Minogue - Enjoy Yourself [Deluxe Edition]- Disc One\15 Hand On Your Heart [The Great Aorta Mix].wav
     Peak level 100.0 %
     Extraction speed 34.9 X
     Test CRC B91451FB
     Copy CRC B91451FB
     Accurately ripped (confidence 5)  [D8442273]  (AR v2)
     Copy OK
Track 16
     Filename E:\Kylie Minogue - Enjoy Yourself [Deluxe Edition]\Kylie Minogue - Enjoy Yourself [Deluxe Edition]- Disc One\16 Wouldn't Change A Thing [Your Thang Mix].wav
     Peak level 100.0 %
     Extraction speed 36.6 X
     Test CRC C78A8D79
     Copy CRC C78A8D79
     Accurately ripped (confidence 6)  [C497800A]  (AR v2)
     Copy OK
Track 17
     Filename E:\Kylie Minogue - Enjoy Yourself [Deluxe Edition]\Kylie Minogue - Enjoy Yourself [Deluxe Edition]- Disc One\17 Never Too Late [Extended Version].wav
     Peak level 100.0 %
     Extraction speed 38.2 X
     Test CRC 3455F6F8
     Copy CRC 3455F6F8
     Accurately ripped (confidence 6)  [3BAF894D]  (AR v2)
     Copy OK
Track 18
     Filename E:\Kylie Minogue - Enjoy Yourself [Deluxe Edition]\Kylie Minogue - Enjoy Yourself [Deluxe Edition]- Disc One\18 Tears On My Pillow [Extended Version].wav
     Peak level 100.0 %
     Extraction speed 39.2 X
     Test CRC 1500D459
     Copy CRC 1500D459
     Accurately ripped (confidence 6)  [B419958D]  (AR v2)
     Copy OK
Track 19
     Filename E:\Kylie Minogue - Enjoy Yourself [Deluxe Edition]\Kylie Minogue - Enjoy Yourself [Deluxe Edition]- Disc One\19 Especially For You [Extended Version].wav
     Peak level 100.0 %
     Extraction speed 40.4 X
     Test CRC 8AFC727E
     Copy CRC 8AFC727E
     Accurately ripped (confidence 7)  [34140167]  (AR v2)
     Copy OK
All tracks accurately ripped
No errors occurred
End of status report

CD 2

Exact Audio Copy V1.0 beta 3 from 29. August 2011
EAC extraction logfile from 14. June 2015, 22:54
Kylie Minogue / Enjoy Yourself (Deluxe Edition)
Used drive  : PIONEER BD-RW   BDR-205   Adapter: 0  ID: 1
Read mode : Burst
Read offset correction                      : 667
Overread into Lead-In and Lead-Out          : No
Fill up missing offset samples with silence : Yes
Delete leading and trailing silent blocks   : No
Null samples used in CRC calculations       : Yes
Used interface                              : Native Win32 interface for Win NT & 2000
Gap handling                                : Not detected, thus appended to previous track
Used output format              : User Defined Encoder
Selected bitrate                : 128 kBit/s
Quality                         : High
Add ID3 tag                     : No
Command line compressor         : C:\Program Files (x86)\Exact Audio Copy\Flac\flac.exe
Additional command line options :  -V -8 -T "Date=%year%" -T "Genre=%genre%" %source%
TOC of the extracted CD
     Track |   Start  |  Length  | Start sector | End sector
    ---------------------------------------------------------
        1  |  0:00.00 |  5:22.34 |         0    |    24183
        2  |  5:22.34 |  5:47.47 |     24184    |    50255
        3  | 11:10.06 |  4:56.22 |     50256    |    72477
        4  | 16:06.28 |  5:51.46 |     72478    |    98848
        5  | 21:57.74 |  4:20.63 |     98849    |   118411
        6  | 26:18.62 |  5:00.36 |    118412    |   140947
        7  | 31:19.23 |  6:01.48 |    140948    |   168070
        8  | 37:20.71 |  5:33.56 |    168071    |   193101
        9  | 42:54.52 |  6:37.71 |    193102    |   222947
       10  | 49:32.48 |  3:31.65 |    222948    |   238837
       11  | 53:04.38 |  3:45.22 |    238838    |   255734
       12  | 56:49.60 |  4:17.48 |    255735    |   275057
       13  | 61:07.33 |  5:06.42 |    275058    |   298049
       14  | 66:14.00 |  3:23.43 |    298050    |   313317
       15  | 69:37.43 |  5:32.29 |    313318    |   338246
Track  1
     Filename E:\Kylie Minogue - Enjoy Yourself [Deluxe Edition]\Kylie Minogue - Enjoy Yourself [Deluxe Edition]- Disc Two\01 Hand On Your Heart (The Heartache Mix).wav
     Peak level 100.0 %
     Extraction speed 18.7 X
     Test CRC 93CA28EC
     Copy CRC 93CA28EC
     Accurately ripped (confidence 3)  [C74248C2]  (AR v2)
     Copy OK
Track  2
     Filename E:\Kylie Minogue - Enjoy Yourself [Deluxe Edition]\Kylie Minogue - Enjoy Yourself [Deluxe Edition]- Disc Two\02 Wouldn't Change A Thing (The Espagna Mix).wav
     Peak level 100.0 %
     Extraction speed 21.2 X
     Test CRC 16E931AC
     Copy CRC 16E931AC
     Accurately ripped (confidence 3)  [142B0E4C]  (AR v2)
     Copy OK
Track  3
     Filename E:\Kylie Minogue - Enjoy Yourself [Deluxe Edition]\Kylie Minogue - Enjoy Yourself [Deluxe Edition]- Disc Two\03 I'm Over Dreaming (Over You) (Extended Remix).wav
     Peak level 100.0 %
     Extraction speed 23.3 X
     Test CRC 46FB7CD7
     Copy CRC 46FB7CD7
     Accurately ripped (confidence 3)  [3E7FD581]  (AR v2)
     Copy OK
Track  4
     Filename E:\Kylie Minogue - Enjoy Yourself [Deluxe Edition]\Kylie Minogue - Enjoy Yourself [Deluxe Edition]- Disc Two\04 We Know The Meaning Of Love (Extended Version).wav
     Peak level 100.0 %
     Extraction speed 25.3 X
     Test CRC 969DCB80
     Copy CRC 969DCB80
     Accurately ripped (confidence 3)  [4F36060B]  (AR v2)
     Copy OK
Track  5
     Filename E:\Kylie Minogue - Enjoy Yourself [Deluxe Edition]\Kylie Minogue - Enjoy Yourself [Deluxe Edition]- Disc Two\05 Tears On My Pillow (12'' Remix).wav
     Peak level 98.8 %
     Extraction speed 27.0 X
     Test CRC BF493FA2
     Copy CRC BF493FA2
     Accurately ripped (confidence 3)  [A00CD10D]  (AR v2)
     Copy OK
Track  6
     Filename E:\Kylie Minogue - Enjoy Yourself [Deluxe Edition]\Kylie Minogue - Enjoy Yourself [Deluxe Edition]- Disc Two\06 Especially For You (Original 12'' Mix).wav
     Peak level 100.0 %
     Extraction speed 28.5 X
     Test CRC 0AF33425
     Copy CRC 0AF33425
     Accurately ripped (confidence 3)  [7FF69628]  (AR v2)
     Copy OK
Track  7
     Filename E:\Kylie Minogue - Enjoy Yourself [Deluxe Edition]\Kylie Minogue - Enjoy Yourself [Deluxe Edition]- Disc Two\07 All I Wanna Do Is Make You Mine (Extended Version).wav
     Peak level 100.0 %
     Extraction speed 30.1 X
     Test CRC D843D866
     Copy CRC D843D866
     Accurately ripped (confidence 3)  [C4CBC2BC]  (AR v2)
     Copy OK
Track  8
     Filename E:\Kylie Minogue - Enjoy Yourself [Deluxe Edition]\Kylie Minogue - Enjoy Yourself [Deluxe Edition]- Disc Two\08 Hand On Your Heart (Smokin' Remix).wav
     Peak level 100.0 %
     Extraction speed 31.9 X
     Test CRC 457FEA30
     Copy CRC 457FEA30
     Accurately ripped (confidence 3)  [5D662775]  (AR v2)
     Copy OK
Track  9
     Filename E:\Kylie Minogue - Enjoy Yourself [Deluxe Edition]\Kylie Minogue - Enjoy Yourself [Deluxe Edition]- Disc Two\09 Wouldn't Change A Thing (Yoyo's 12'' Mix).wav
     Peak level 100.0 %
     Extraction speed 33.5 X
     Test CRC 66002D4C
     Copy CRC 66002D4C
     Accurately ripped (confidence 3)  [83A9BA0D]  (AR v2)
     Copy OK
Track 10
     Filename E:\Kylie Minogue - Enjoy Yourself [Deluxe Edition]\Kylie Minogue - Enjoy Yourself [Deluxe Edition]- Disc Two\10 Especially For You (Original 7'' Mix).wav
     Peak level 99.8 %
     Extraction speed 34.6 X
     Test CRC 88227782
     Copy CRC 88227782
     Accurately ripped (confidence 3)  [A8C6E3D9]  (AR v2)
     Copy OK
Track 11
     Filename E:\Kylie Minogue - Enjoy Yourself [Deluxe Edition]\Kylie Minogue - Enjoy Yourself [Deluxe Edition]- Disc Two\11 Hand On Your Heart (Video Mix).wav
     Peak level 100.0 %
     Extraction speed 35.5 X
     Test CRC ADD85BDE
     Copy CRC ADD85BDE
     Accurately ripped (confidence 3)  [3AC6C2C7]  (AR v2)
     Copy OK
Track 12
     Filename E:\Kylie Minogue - Enjoy Yourself [Deluxe Edition]\Kylie Minogue - Enjoy Yourself [Deluxe Edition]- Disc Two\12 Wouldn't Change A Thing (The Espagna Mix Edit).wav
     Peak level 100.0 %
     Extraction speed 36.6 X
     Test CRC 50313427
     Copy CRC 50313427
     Accurately ripped (confidence 3)  [AB5373F5]  (AR v2)
     Copy OK
Track 13
     Filename E:\Kylie Minogue - Enjoy Yourself [Deluxe Edition]\Kylie Minogue - Enjoy Yourself [Deluxe Edition]- Disc Two\13 Never Too Late (Oz Tour Mix).wav
     Peak level 100.0 %
     Extraction speed 37.7 X
     Test CRC 1AFC1738
     Copy CRC 1AFC1738
     Accurately ripped (confidence 3)  [86FA3865]  (AR v2)
     Copy OK
Track 14
     Filename E:\Kylie Minogue - Enjoy Yourself [Deluxe Edition]\Kylie Minogue - Enjoy Yourself [Deluxe Edition]- Disc Two\14 I'm Over Dreaming (Over You) (7'' Remix).wav
     Peak level 100.0 %
     Extraction speed 38.5 X
     Test CRC 197324F8
     Copy CRC 197324F8
     Accurately ripped (confidence 3)  [9F0F4EEF]  (AR v2)
     Copy OK
Track 15
     Filename E:\Kylie Minogue - Enjoy Yourself [Deluxe Edition]\Kylie Minogue - Enjoy Yourself [Deluxe Edition]- Disc Two\15 Hand On Your Heart (Dub).wav
     Peak level 100.0 %
     Extraction speed 39.8 X
     Test CRC 1E0DFC40
     Copy CRC 1E0DFC40
     Accurately ripped (confidence 3)  [297E9B63]  (AR v2)
     Copy OK
All tracks accurately ripped
No errors occurred
End of status report

Лог Audiochecker

CD 1

AUDIOCHECKER v2.0 beta (build 457) - by Dester - opdester@freemail.hu
~~~~~~~~~~~~~~~~~~~~~~~~~~~~~~~~~~
-=== DO NOT EDIT THIS FILE! ===-
Путь: ...\Kylie Minogue - Enjoy Yourself [Deluxe Edition]- Disc One
01 -=- 01 Hand On Your Heart.flac -=- CDDA (100%)
02 -=- 02 Wouldn't Change A Thing.flac -=- CDDA (100%)
03 -=- 03 Never Too Late.flac -=- CDDA (100%)
04 -=- 04 Nothing To Lose.flac -=- CDDA (100%)
05 -=- 05 Tell-Tale Signs.flac -=- CDDA (100%)
06 -=- 06 My Secret Heart.flac -=- CDDA (100%)
07 -=- 07 I'm Over Dreaming (Over You).flac -=- CDDA (100%)
08 -=- 08 Tears On My Pillow.flac -=- CDDA (99%)
09 -=- 09 Heaven And Earth.flac -=- CDDA (99%)
10 -=- 10 Enjoy Yourself.flac -=- CDDA (100%)
11 -=- 11 Especially For You.flac -=- MPEG (95%)
12 -=- 12 All I Wanna Do Is Make You Mine.flac -=- CDDA (100%)
13 -=- 13 Just Wanna Love You.flac -=- CDDA (100%)
14 -=- 14 We Know The Meaning Of Love.flac -=- CDDA (100%)
15 -=- 15 Hand On Your Heart [The Great Aorta Mix].flac -=- CDDA (99%)
16 -=- 16 Wouldn't Change A Thing [Your Thang Mix].flac -=- CDDA (100%)
17 -=- 17 Never Too Late [Extended Version].flac -=- CDDA (99%)
18 -=- 18 Tears On My Pillow [Extended Version].flac -=- CDDA (100%)
19 -=- 19 Especially For You [Extended Version].flac -=- CDDA (100%)
Сводка 94,79% CDDA
137666356

CD 2

AUDIOCHECKER v2.0 beta (build 457) - by Dester - opdester@freemail.hu
~~~~~~~~~~~~~~~~~~~~~~~~~~~~~~~~~~
-=== DO NOT EDIT THIS FILE! ===-
Путь: ...\Kylie Minogue - Enjoy Yourself [Deluxe Edition]- Disc Two
01 -=- 01 Hand On Your Heart (The Heartache Mix).flac -=- CDDA (100%)
02 -=- 02 Wouldn't Change A Thing (The Espagna Mix).flac -=- CDDA (100%)
03 -=- 03 I'm Over Dreaming (Over You) (Extended Remix).flac -=- CDDA (100%)
04 -=- 04 We Know The Meaning Of Love (Extended Version).flac -=- CDDA (100%)
05 -=- 05 Tears On My Pillow (12'' Remix).flac -=- CDDA (100%)
06 -=- 06 Especially For You (Original 12'' Mix).flac -=- CDDA (100%)
07 -=- 07 All I Wanna Do Is Make You Mine (Extended Version).flac -=- CDDA (100%)
08 -=- 08 Hand On Your Heart (Smokin' Remix).flac -=- CDDA (100%)
09 -=- 09 Wouldn't Change A Thing (Yoyo's 12'' Mix).flac -=- CDDA (100%)
10 -=- 10 Especially For You (Original 7'' Mix).flac -=- CDDA (100%)
11 -=- 11 Hand On Your Heart (Video Mix).flac -=- CDDA (100%)
12 -=- 12 Wouldn't Change A Thing (The Espagna Mix Edit).flac -=- CDDA (99%)
13 -=- 13 Never Too Late (Oz Tour Mix).flac -=- CDDA (100%)
14 -=- 14 I'm Over Dreaming (Over You) (7'' Remix).flac -=- CDDA (100%)
15 -=- 15 Hand On Your Heart (Dub).flac -=- CDDA (100%)
Сводка 99,93% CDDA
14082260
--Не забываем говорить
[Профиль] [ЛС]

Создавать темы 13-Авг-2015 10:42 (спустя 1 месяц 7 дней)

Топик был перенесен из форума Зарубежная в форум World Pop
sergej644
 
Кто просматривает тему:

Форум Тема Автор Размер
World Pop (Pop, Synth Pop) [CD] Silent Circle - No. 1(Anniversary Edition) - 2011, FLAC (tracks+.cue), lossless 2v2w 540 MB
Показать сообщения:    

Текущее время: Сегодня 20:44

Часовой пояс: GMT



Вы не можете начинать темы
Вы не можете отвечать на сообщения
Вы не можете редактировать свои сообщения
Вы не можете удалять свои сообщения
Вы не можете голосовать в опросах
Вы не можете прикреплять файлы к сообщениям
Вы не можете скачивать файлы