(Glam Rock, Rock) Kiss - Solo album (4CD) - 1978 [FLAC, image+.cue, lossless]

 
Автор Сообщение

sergej644 ®

Пол:

Стаж: 4 года 11 месяцев

Сообщений: 6046

Откуда: Soviet Union



Награды: Нет

Торрент-статистика

Создавать темы 26-Май-2015 10:39

[Цитировать]

-Kiss / Solo album (4CD)-- Год издания: 1978
Страна: USA
Жанр: Glam Rock, Rock
Продолжительность: 02:26:34-Лейбл издания: Mercury Records
Тип альбома: Album
Страна-выпуска диска: Germany
Формат: FLAC
Битрейт аудио: lossless
Тип рипа: image+.cue
Наличие сканов в содержимом раздачи: да
---

Ace Frehley (The Remasters 1997) || 00:36:50

Номер по каталогу: 532 385-2(18)

01.Rip It Out (03:41)
02.Speedin' Back To My Baby (03:38)
03.Snow Blind (03:56)
04.Ozone (04:44)
05.What's On Your Mind? (03:29)
06.New York Groove (03:04)
07.I'm In Need Of Love (04:40)
08.Wiped-Out (04:14)
09.Fractured Mirror (05:27)

лог создания рипа

Exact Audio Copy V1.0 beta 6 from 9. April 2015
Отчёт EAC об извлечении, выполненном 27. апреля 2015, 19:37
Kiss / Ace Frehley (The Remasters)
Дисковод: HL-DT-STDVDRAM GH20NS10   Adapter: 1  ID: 0
Режим чтения                 : Достоверность
Использование точного потока : Да
Отключение кэша аудио        : Да
Использование указателей C2  : Нет
Коррекция смещения при чтении                     : 667
Способность читать области Lead-in и Lead-out     : Нет
Заполнение пропущенных сэмплов тишиной            : Да
Удаление блоков с тишиной в начале и конце        : Нет
При вычислениях CRC использовались нулевые сэмплы : Да
Интерфейс                                         : Встроенный Win32-интерфейс для Win NT/2000
Выходной формат          : Пользовательский кодировщик
Выбранный битрейт        : 128 kBit/s
Качество                 : Высокий
Добавление ID3-тега      : Нет
Утилита сжатия           : C:\Program Files (x86)\Exact Audio Copy\FLAC\FLAC.EXE
Дополнительные параметры : -V -8 -T "Date=%year%" -T "Genre=%genre%" %source%
TOC извлечённого CD
     Трек |   Старт  | Длительность | Начальный сектор | Конечный сектор
    ---------------------------------------------------------------------
       1  |  0:00.00 |    3:40.50   |           0      |      16549
       2  |  3:40.50 |    3:37.27   |       16550      |      32851
       3  |  7:18.02 |    3:55.60   |       32852      |      50536
       4  | 11:13.62 |    4:43.15   |       50537      |      71776
       5  | 15:57.02 |    3:28.48   |       71777      |      87424
       6  | 19:25.50 |    3:03.52   |       87425      |     101201
       7  | 22:29.27 |    4:39.50   |      101202      |     122176
       8  | 27:09.02 |    4:13.48   |      122177      |     141199
       9  | 31:22.50 |    5:26.47   |      141200      |     165696
Характеристики диапазона извлечения и сообщения об ошибках
Выбранный диапазон
     Имя файла F:\ЕАС\fan24\Kiss - Ace Frehley (The Remasters).wav
     Пиковый уровень 100.0 %
     Скорость извлечения 7.0 X
     Качество диапазона 100.0 %
     CRC теста AC128DB8
     CRC копии AC128DB8
     Копирование... OK
Ошибок не произошло
AccurateRip: сводка
Трек  1  : извлечено точно (доверие 13)  [192938FA]  (AR v2)
Трек  2  : извлечено точно (доверие 13)  [38D41A25]  (AR v2)
Трек  3  : извлечено точно (доверие 13)  [AAEF8F38]  (AR v2)
Трек  4  : извлечено точно (доверие 13)  [91A92C52]  (AR v2)
Трек  5  : извлечено точно (доверие 13)  [61CAA7AA]  (AR v2)
Трек  6  : извлечено точно (доверие 14)  [82787353]  (AR v2)
Трек  7  : извлечено точно (доверие 13)  [98D7BDFB]  (AR v2)
Трек  8  : извлечено точно (доверие 13)  [FF3ABC30]  (AR v2)
Трек  9  : извлечено точно (доверие 13)  [8A83E758]  (AR v2)
Все треки извлечены точно
Конец отчёта
---- CUETools DB Plugin V2.1.6
[CTDB TOCID: SNfrnxl5SA8hEyhNJ0vBfZ828AE-] found
Submit result: SNfrnxl5SA8hEyhNJ0vBfZ828AE- has been confirmed
Track | CTDB Status
  1   | (18/19) Accurately ripped
  2   | (18/19) Accurately ripped
  3   | (18/19) Accurately ripped
  4   | (19/19) Accurately ripped
  5   | (19/19) Accurately ripped
  6   | (18/19) Accurately ripped
  7   | (19/19) Accurately ripped
  8   | (18/19) Accurately ripped
  9   | (18/19) Accurately ripped

содержание индексной карты *cue

REM GENRE Rock
REM DATE 1978
REM DISCID 7208A109
REM COMMENT "ExactAudioCopy v1.0b6"
PERFORMER "Kiss"
TITLE "Ace Frehley (The Remasters)"
FILE "Kiss - Ace Frehley (The Remasters).flac" WAVE
  TRACK 01 AUDIO
    TITLE "Rip It Out"
    PERFORMER "Kiss"
    INDEX 01 00:00:00
  TRACK 02 AUDIO
    TITLE "Speedin' Back To My Baby"
    PERFORMER "Kiss"
    INDEX 01 03:40:50
  TRACK 03 AUDIO
    TITLE "Snow Blind"
    PERFORMER "Kiss"
    INDEX 01 07:18:02
  TRACK 04 AUDIO
    TITLE "Ozone"
    PERFORMER "Kiss"
    INDEX 01 11:13:62
  TRACK 05 AUDIO
    TITLE "What's On Your Mind?"
    PERFORMER "Kiss"
    INDEX 00 15:53:65
    INDEX 01 15:57:02
  TRACK 06 AUDIO
    TITLE "New York Groove"
    PERFORMER "Kiss"
    INDEX 01 19:25:50
  TRACK 07 AUDIO
    TITLE "I'm In Need Of Love"
    PERFORMER "Kiss"
    INDEX 01 22:29:27
  TRACK 08 AUDIO
    TITLE "Wiped-Out"
    PERFORMER "Kiss"
    INDEX 00 27:06:37
    INDEX 01 27:09:02
  TRACK 09 AUDIO
    TITLE "Fractured Mirror"
    PERFORMER "Kiss"
    INDEX 01 31:22:50

Лог Audiochecker:

AUDIOCHECKER v2.0 beta (build 457) - by Dester - opdester@freemail.hu
~~~~~~~~~~~~~~~~~~~~~~~~~~~~~~~~~~
Started at: вторник, 26. 05. 2015. - 11:43.31
1 file found
1 -===- D:\Torrent files\Kiss - Solo Albums 1978\Ace Frehley (Germany, Universal 532 385-2(18))\Kiss - Ace Frehley (The Remasters).flac
  Extracted successfully
  Conclusion: this track is CDDA with probability 100%
  Tempfile successfully deleted.
Finished at: вторник, 26. 05. 2015. - 11:45.21 (operation time: 0:01.50)

Gene Simmons (The Remasters 1997) || 00:39:04

Номер по каталогу: 532 384-2(18)

01.Radioactive (03:52)
02.Burning Up With Fever (04:23)
03.See You Tonite (02:29)
04.Tunnel Of Love (03:53)
05.True Confessions (03:31)
06.Living In Sin (03:52)
07.Always Near You/Nowhere To Hide (04:13)
08.Man Of 1,000 Faces (03:18)
09.Mr. Make Believe (04:03)
10.See You In Your Dreams (02:50)
11.When You Wish Upon A Star (02:45)

лог создания рипа

Exact Audio Copy V1.0 beta 6 from 9. April 2015
Отчёт EAC об извлечении, выполненном 27. апреля 2015, 20:25
Kiss / Gene Simmons (The Remasters)
Дисковод: HL-DT-STDVDRAM GH20NS10   Adapter: 1  ID: 0
Режим чтения                 : Достоверность
Использование точного потока : Да
Отключение кэша аудио        : Да
Использование указателей C2  : Нет
Коррекция смещения при чтении                     : 667
Способность читать области Lead-in и Lead-out     : Нет
Заполнение пропущенных сэмплов тишиной            : Да
Удаление блоков с тишиной в начале и конце        : Нет
При вычислениях CRC использовались нулевые сэмплы : Да
Интерфейс                                         : Встроенный Win32-интерфейс для Win NT/2000
Выходной формат          : Пользовательский кодировщик
Выбранный битрейт        : 128 kBit/s
Качество                 : Высокий
Добавление ID3-тега      : Нет
Утилита сжатия           : C:\Program Files (x86)\Exact Audio Copy\FLAC\FLAC.EXE
Дополнительные параметры : -V -8 -T "Date=%year%" -T "Genre=%genre%" %source%
TOC извлечённого CD
     Трек |   Старт  | Длительность | Начальный сектор | Конечный сектор
    ---------------------------------------------------------------------
       1  |  0:00.00 |    3:51.02   |           0      |      17326
       2  |  3:51.02 |    4:22.28   |       17327      |      37004
       3  |  8:13.30 |    2:28.32   |       37005      |      48136
       4  | 10:41.62 |    3:52.60   |       48137      |      65596
       5  | 14:34.47 |    3:30.53   |       65597      |      81399
       6  | 18:05.25 |    3:51.45   |       81400      |      98769
       7  | 21:56.70 |    4:12.42   |       98770      |     117711
       8  | 26:09.37 |    3:17.60   |      117712      |     132546
       9  | 29:27.22 |    4:02.18   |      132547      |     150714
      10  | 33:29.40 |    2:49.37   |      150715      |     163426
      11  | 36:19.02 |    2:44.08   |      163427      |     175734
Характеристики диапазона извлечения и сообщения об ошибках
Выбранный диапазон
     Имя файла F:\ЕАС\fan24\Kiss - Gene Simmons (The Remasters).wav
     Пиковый уровень 100.0 %
     Скорость извлечения 7.0 X
     Качество диапазона 100.0 %
     CRC теста 8AE43764
     CRC копии 8AE43764
     Копирование... OK
Ошибок не произошло
AccurateRip: сводка
Трек  1  : извлечено точно (доверие 6)  [1D7DB88F]  (AR v2)
Трек  2  : извлечено точно (доверие 6)  [4426094D]  (AR v2)
Трек  3  : извлечено точно (доверие 6)  [3EAE0B64]  (AR v2)
Трек  4  : извлечено точно (доверие 6)  [E1F01FFC]  (AR v2)
Трек  5  : извлечено точно (доверие 6)  [2395990D]  (AR v2)
Трек  6  : извлечено точно (доверие 6)  [A550D1BF]  (AR v2)
Трек  7  : извлечено точно (доверие 6)  [E4920AEE]  (AR v2)
Трек  8  : извлечено точно (доверие 6)  [85B2AD09]  (AR v2)
Трек  9  : извлечено точно (доверие 6)  [0FA7ECFB]  (AR v2)
Трек 10  : извлечено точно (доверие 6)  [B6CA78A5]  (AR v2)
Трек 11  : извлечено точно (доверие 6)  [14180A27]  (AR v2)
Все треки извлечены точно
Конец отчёта
---- CUETools DB Plugin V2.1.6
[CTDB TOCID: 1G8KVB9In5Zz3cIz4RxmP7ddyuY-] found
Submit result: 1G8KVB9In5Zz3cIz4RxmP7ddyuY- has been confirmed
Track | CTDB Status
  1   | (12/12) Accurately ripped
  2   | (12/12) Accurately ripped
  3   | (12/12) Accurately ripped
  4   | (12/12) Accurately ripped
  5   | (12/12) Accurately ripped
  6   | (12/12) Accurately ripped
  7   | (12/12) Accurately ripped
  8   | (12/12) Accurately ripped
  9   | (12/12) Accurately ripped
10   | (12/12) Accurately ripped
11   | (12/12) Accurately ripped

содержание индексной карты *cue

REM GENRE Rock
REM DATE 1978
REM DISCID 9009270B
REM COMMENT "ExactAudioCopy v1.0b6"
PERFORMER "Kiss"
TITLE "Gene Simmons (The Remasters)"
FILE "Kiss - Gene Simmons (The Remasters).flac" WAVE
  TRACK 01 AUDIO
    TITLE "Radioactive"
    PERFORMER "Kiss"
    INDEX 01 00:00:00
  TRACK 02 AUDIO
    TITLE "Burning Up With Fever"
    PERFORMER "Kiss"
    INDEX 01 03:51:02
  TRACK 03 AUDIO
    TITLE "See You Tonite"
    PERFORMER "Kiss"
    INDEX 01 08:13:30
  TRACK 04 AUDIO
    TITLE "Tunnel Of Love"
    PERFORMER "Kiss"
    INDEX 01 10:41:62
  TRACK 05 AUDIO
    TITLE "True Confessions"
    PERFORMER "Kiss"
    INDEX 01 14:34:47
  TRACK 06 AUDIO
    TITLE "Living In Sin"
    PERFORMER "Kiss"
    INDEX 01 18:05:25
  TRACK 07 AUDIO
    TITLE "Always Near You/Nowhere To Hide"
    PERFORMER "Kiss"
    INDEX 01 21:56:70
  TRACK 08 AUDIO
    TITLE "Man Of 1,000 Faces"
    PERFORMER "Kiss"
    INDEX 01 26:09:37
  TRACK 09 AUDIO
    TITLE "Mr. Make Believe"
    PERFORMER "Kiss"
    INDEX 01 29:27:22
  TRACK 10 AUDIO
    TITLE "See You In Your Dreams"
    PERFORMER "Kiss"
    INDEX 01 33:29:40
  TRACK 11 AUDIO
    TITLE "When You Wish Upon A Star"
    PERFORMER "Kiss"
    INDEX 01 36:19:02

Лог Audiochecker:

AUDIOCHECKER v2.0 beta (build 457) - by Dester - opdester@freemail.hu
~~~~~~~~~~~~~~~~~~~~~~~~~~~~~~~~~~
Started at: вторник, 26. 05. 2015. - 11:45.41
1 file found
1 -===- D:\Torrent files\Kiss - Solo Albums 1978\Gene Simmons (Germany, Universal 532 384-2(18))\Kiss - Gene Simmons (The Remasters).flac
  Extracted successfully
  Conclusion: this track is CDDA with probability 100%
  Tempfile successfully deleted.
Finished at: вторник, 26. 05. 2015. - 11:47.37 (operation time: 0:01.56)

Paul Stanley (The Remasters 1997) || 00:35:29

Номер по каталогу: 532 387-2(18)

01.Tonight You Belong To Me (04:41)
02.Move On (03:12)
03.Ain't Quite Right (03:38)
04.Wouldn't You Like To Know Me (03:21)
05.Take Me Away (Together As One) (05:36)
06.It's Alright (03:38)
07.Hold Me, Touch Me (Think Of Me When We're Apart) (03:43)
08.Love In Chains (03:34)
09.Goodbye (04:10)

лог создания рипа

Exact Audio Copy V1.0 beta 6 from 9. April 2015
Отчёт EAC об извлечении, выполненном 28. апреля 2015, 9:45
Kiss / Paul Stanley (The Remasters)
Дисковод: HL-DT-STDVDRAM GH20NS10   Adapter: 1  ID: 0
Режим чтения                 : Достоверность
Использование точного потока : Да
Отключение кэша аудио        : Да
Использование указателей C2  : Нет
Коррекция смещения при чтении                     : 667
Способность читать области Lead-in и Lead-out     : Нет
Заполнение пропущенных сэмплов тишиной            : Да
Удаление блоков с тишиной в начале и конце        : Нет
При вычислениях CRC использовались нулевые сэмплы : Да
Интерфейс                                         : Встроенный Win32-интерфейс для Win NT/2000
Выходной формат          : Пользовательский кодировщик
Выбранный битрейт        : 128 kBit/s
Качество                 : Высокий
Добавление ID3-тега      : Нет
Утилита сжатия           : C:\Program Files (x86)\Exact Audio Copy\FLAC\FLAC.EXE
Дополнительные параметры : -V -8 -T "Date=%year%" -T "Genre=%genre%" %source%
TOC извлечённого CD
     Трек |   Старт  | Длительность | Начальный сектор | Конечный сектор
    ---------------------------------------------------------------------
       1  |  0:00.00 |    4:40.35   |           0      |      21034
       2  |  4:40.35 |    3:11.38   |       21035      |      35397
       3  |  7:51.73 |    3:37.40   |       35398      |      51712
       4  | 11:29.38 |    3:20.42   |       51713      |      66754
       5  | 14:50.05 |    5:35.38   |       66755      |      91917
       6  | 20:25.43 |    3:37.52   |       91918      |     108244
       7  | 24:03.20 |    3:42.03   |      108245      |     124897
       8  | 27:45.23 |    3:33.42   |      124898      |     140914
       9  | 31:18.65 |    4:09.50   |      140915      |     159639
Характеристики диапазона извлечения и сообщения об ошибках
Выбранный диапазон
     Имя файла F:\ЕАС\fan24\Kiss - Paul Stanley (The Remasters).wav
     Пиковый уровень 100.0 %
     Скорость извлечения 6.9 X
     Качество диапазона 100.0 %
     CRC теста 41B07E73
     CRC копии 41B07E73
     Копирование... OK
Ошибок не произошло
AccurateRip: сводка
Трек  1  : извлечено точно (доверие 9)  [C5618EDA]  (AR v2)
Трек  2  : извлечено точно (доверие 9)  [B0FF10CA]  (AR v2)
Трек  3  : извлечено точно (доверие 9)  [D65ED102]  (AR v2)
Трек  4  : извлечено точно (доверие 9)  [E7B5F897]  (AR v2)
Трек  5  : извлечено точно (доверие 9)  [7678B23D]  (AR v2)
Трек  6  : извлечено точно (доверие 9)  [7CF5E4F7]  (AR v2)
Трек  7  : извлечено точно (доверие 9)  [98DE2394]  (AR v2)
Трек  8  : извлечено точно (доверие 9)  [18900A31]  (AR v2)
Трек  9  : извлечено точно (доверие 9)  [79D14BBB]  (AR v2)
Все треки извлечены точно
Конец отчёта
---- CUETools DB Plugin V2.1.6
[CTDB TOCID: .ugtATpujwFGBlA_yVYM3EGTi50-] found
Submit result: .ugtATpujwFGBlA_yVYM3EGTi50- has been confirmed
Track | CTDB Status
  1   | (8/8) Accurately ripped
  2   | (8/8) Accurately ripped
  3   | (8/8) Accurately ripped
  4   | (8/8) Accurately ripped
  5   | (8/8) Accurately ripped
  6   | (8/8) Accurately ripped
  7   | (8/8) Accurately ripped
  8   | (8/8) Accurately ripped
  9   | (8/8) Accurately ripped

содержание индексной карты *cue

REM GENRE Rock
REM DATE 1978
REM DISCID 7E085009
REM COMMENT "ExactAudioCopy v1.0b6"
PERFORMER "Kiss"
TITLE "Paul Stanley (The Remasters)"
FILE "Kiss - Paul Stanley (The Remasters).flac" WAVE
  TRACK 01 AUDIO
    TITLE "Tonight You Belong To Me"
    PERFORMER "Kiss"
    INDEX 01 00:00:00
  TRACK 02 AUDIO
    TITLE "Move On"
    PERFORMER "Kiss"
    INDEX 01 04:40:35
  TRACK 03 AUDIO
    TITLE "Ain't Quite Right"
    PERFORMER "Kiss"
    INDEX 01 07:51:73
  TRACK 04 AUDIO
    TITLE "Wouldn't You Like To Know Me"
    PERFORMER "Kiss"
    INDEX 00 11:28:05
    INDEX 01 11:29:38
  TRACK 05 AUDIO
    TITLE "Take Me Away (Together As One)"
    PERFORMER "Kiss"
    INDEX 00 14:48:42
    INDEX 01 14:50:05
  TRACK 06 AUDIO
    TITLE "It's Alright"
    PERFORMER "Kiss"
    INDEX 01 20:25:43
  TRACK 07 AUDIO
    TITLE "Hold Me, Touch Me (Think Of Me When We're Apart)"
    PERFORMER "Kiss"
    INDEX 00 24:00:62
    INDEX 01 24:03:20
  TRACK 08 AUDIO
    TITLE "Love In Chains"
    PERFORMER "Kiss"
    INDEX 00 27:44:03
    INDEX 01 27:45:23
  TRACK 09 AUDIO
    TITLE "Goodbye"
    PERFORMER "Kiss"
    INDEX 01 31:18:65

Лог Audiochecker:

AUDIOCHECKER v2.0 beta (build 457) - by Dester - opdester@freemail.hu
~~~~~~~~~~~~~~~~~~~~~~~~~~~~~~~~~~
Started at: вторник, 26. 05. 2015. - 11:49.45
1 file found
1 -===- D:\Torrent files\Kiss - Solo Albums 1978\Paul Stanley (Germany, Universal 532 387-2(18))\Kiss - Paul Stanley (The Remasters).flac
  Extracted successfully
  Conclusion: this track is CDDA with probability 100%
  Tempfile successfully deleted.
Finished at: вторник, 26. 05. 2015. - 11:51.32 (operation time: 0:01.47)

Peter Criss (The Remasters 1997) || 00:35:13

Номер по каталогу: 532 386-2

01.I'm Gonna Love You (03:20)
02.You Matter To Me (03:18)
03.Tossin' And Turnin' (04:04)
04.Don't You Let Me Down (03:44)
05.That's The Kind Of Sugar Papa Likes (03:03)
06.Easy Thing (03:56)
07.Rock Me, Baby (02:56)
08.Kiss The Girl Goodbye (02:49)
09.Hooked On Rock 'N' Roll (03:40)
10.I Can't Stop The Rain (04:27)

лог создания рипа

Exact Audio Copy V1.0 beta 3 from 29. August 2011
Отчёт EAC об извлечении, выполненном 23. марта 2015, 19:27
Kiss / Peter Criss (The Remasters)
Дисковод: HL-DT-STDVDRAM GH20NS10   Adapter: 2  ID: 1
Режим чтения                 : Достоверность
Использование точного потока : Да
Отключение кэша аудио        : Да
Использование указателей C2  : Нет
Коррекция смещения при чтении                     : 667
Способность читать области Lead-in и Lead-out     : Нет
Заполнение пропущенных сэмплов тишиной            : Да
Удаление блоков с тишиной в начале и конце        : Нет
При вычислениях CRC использовались нулевые сэмплы : Да
Интерфейс                                         : Встроенный Win32-интерфейс для Win NT/2000
Выходной формат          : Пользовательский кодировщик
Выбранный битрейт        : 128 kBit/s
Качество                 : Высокий
Добавление ID3-тега      : Нет
Утилита сжатия           : C:\Program Files (x86)\Exact Audio Copy\FLAC\FLAC.EXE
Дополнительные параметры : -V -8 -T "Date=%year%" -T "Genre=%genre%" %source%
TOC извлечённого CD
     Трек |   Старт  | Длительность | Начальный сектор | Конечный сектор
    ---------------------------------------------------------------------
       1  |  0:00.00 |    3:19.37   |           0      |      14961
       2  |  3:19.37 |    3:17.58   |       14962      |      29794
       3  |  6:37.20 |    4:03.07   |       29795      |      48026
       4  | 10:40.27 |    3:43.40   |       48027      |      64791
       5  | 14:23.67 |    3:02.53   |       64792      |      78494
       6  | 17:26.45 |    3:55.52   |       78495      |      96171
       7  | 21:22.22 |    2:55.40   |       96172      |     109336
       8  | 24:17.62 |    2:48.45   |      109337      |     121981
       9  | 27:06.32 |    3:39.28   |      121982      |     138434
      10  | 30:45.60 |    4:26.65   |      138435      |     158449
Характеристики диапазона извлечения и сообщения об ошибках
Выбранный диапазон
     Имя файла F:\ЕАС\fan24\Kiss - Peter Criss (The Remasters).wav
     Пиковый уровень 100.0 %
     Скорость извлечения 7.0 X
     Качество диапазона 100.0 %
     CRC теста 79B49534
     CRC копии 79B49534
     Копирование... OK
Ошибок не произошло
AccurateRip: сводка
Трек  1  : извлечено точно (доверие 9)  [35051389]  (AR v2)
Трек  2  : извлечено точно (доверие 9)  [F76A2BC5]  (AR v2)
Трек  3  : извлечено точно (доверие 9)  [7F872FBD]  (AR v2)
Трек  4  : извлечено точно (доверие 9)  [812FEB91]  (AR v2)
Трек  5  : извлечено точно (доверие 9)  [95CB276C]  (AR v2)
Трек  6  : извлечено точно (доверие 9)  [41E2E96D]  (AR v2)
Трек  7  : извлечено точно (доверие 9)  [6D24611F]  (AR v2)
Трек  8  : извлечено точно (доверие 9)  [DC091CF0]  (AR v2)
Трек  9  : извлечено точно (доверие 9)  [2441E0F1]  (AR v2)
Трек 10  : извлечено точно (доверие 9)  [01ADD535]  (AR v2)
Все треки извлечены точно
Конец отчёта
---- CUETools DB Plugin V2.1.5
[CTDB TOCID: _QOtQpAsXaV.PQDq0ROFyZrx3ZM-] found
Submit result: _QOtQpAsXaV.PQDq0ROFyZrx3ZM- has been confirmed
Track | CTDB Status
  1   | (9/9) Accurately ripped
  2   | (9/9) Accurately ripped
  3   | (9/9) Accurately ripped
  4   | (9/9) Accurately ripped
  5   | (9/9) Accurately ripped
  6   | (9/9) Accurately ripped
  7   | (9/9) Accurately ripped
  8   | (9/9) Accurately ripped
  9   | (9/9) Accurately ripped
10   | (9/9) Accurately ripped

содержание индексной карты *cue

REM GENRE Rock
REM DATE 1978
REM DISCID 8D08400A
REM COMMENT "ExactAudioCopy v1.0b3"
PERFORMER "Kiss"
TITLE "Peter Criss (The Remasters)"
FILE "Kiss - Peter Criss (The Remasters).flac" WAVE
  TRACK 01 AUDIO
    TITLE "I'm Gonna Love You"
    PERFORMER "Kiss"
    INDEX 01 00:00:00
  TRACK 02 AUDIO
    TITLE "You Matter To Me"
    PERFORMER "Kiss"
    INDEX 01 03:19:37
  TRACK 03 AUDIO
    TITLE "Tossin' And Turnin'"
    PERFORMER "Kiss"
    INDEX 01 06:37:20
  TRACK 04 AUDIO
    TITLE "Don't You Let Me Down"
    PERFORMER "Kiss"
    INDEX 00 10:39:12
    INDEX 01 10:40:27
  TRACK 05 AUDIO
    TITLE "That's The Kind Of Sugar Papa Likes"
    PERFORMER "Kiss"
    INDEX 01 14:23:67
  TRACK 06 AUDIO
    TITLE "Easy Thing"
    PERFORMER "Kiss"
    INDEX 01 17:26:45
  TRACK 07 AUDIO
    TITLE "Rock Me, Baby"
    PERFORMER "Kiss"
    INDEX 00 21:21:15
    INDEX 01 21:22:22
  TRACK 08 AUDIO
    TITLE "Kiss The Girl Goodbye"
    PERFORMER "Kiss"
    INDEX 00 24:16:10
    INDEX 01 24:17:62
  TRACK 09 AUDIO
    TITLE "Hooked On Rock 'N' Roll"
    PERFORMER "Kiss"
    INDEX 00 27:05:20
    INDEX 01 27:06:32
  TRACK 10 AUDIO
    TITLE "I Can't Stop The Rain"
    PERFORMER "Kiss"
    INDEX 00 30:44:52
    INDEX 01 30:45:60

Лог Audiochecker:

AUDIOCHECKER v2.0 beta (build 457) - by Dester - opdester@freemail.hu
~~~~~~~~~~~~~~~~~~~~~~~~~~~~~~~~~~
Started at: вторник, 26. 05. 2015. - 11:51.54
1 file found
1 -===- D:\Torrent files\Kiss - Solo Albums 1978\Peter Criss (Germany, Universal 532 386-2)\Kiss - Peter Criss (The Remasters).flac
  Extracted successfully
  Conclusion: this track is CDDA with probability 100%
  Tempfile successfully deleted.
Finished at: вторник, 26. 05. 2015. - 11:53.42 (operation time: 0:01.47)
--Не забываем говорить
[Профиль] [ЛС]
Показать сообщения:    

Текущее время: Сегодня 08:19

Часовой пояс: GMT



Вы не можете начинать темы
Вы не можете отвечать на сообщения
Вы не можете редактировать свои сообщения
Вы не можете удалять свои сообщения
Вы не можете голосовать в опросах
Вы не можете прикреплять файлы к сообщениям
Вы не можете скачивать файлы