(Hard Rock, Glam Rock)Kiss - Rocks Vegas - 2016 [FLAC, tracks +.cue, lossless]

 
Автор Сообщение

sergej644 ®

Пол:

Стаж: 4 года 11 месяцев

Сообщений: 6040

Откуда: Soviet Union



Награды: Нет

Торрент-статистика

Создавать темы 29-Авг-2016 14:25

[Цитировать]

-Kiss - Rocks Vegas - 2016--
Год издания: 2016
Страна: USA
Жанр: Hard Rock, Glam Rock
Продолжительность: 01:19:33-Лейбл издания: Eagle Vision, Universal Music
Страна-выпуска диска: USA
Номер по каталогу: EV307609-Формат: FLAC
Битрейт аудио: Lossless
Тип рипа: tracks +.cue
Наличие сканов в содержимом раздачи: да
-

Трэклист


01.Detroit Rock City(05:16)
02.Creatures Of The Night(04:21)
03.Psycho Circus(05:38)
04.Parasite(03:32)
05.War Machine(04:44)
06.Tears Are Falling(04:19)
07.Deuce(03:35)
08.Lick It Up(06:24)
09.I Love It Loud(03:30)
10.Hell Or Hallelujah(04:42)
11.God Of Thunder(05:09)
12.Do You Love Me?(03:57)
13.Love Gun(04:40)
14.Black Diamond(09:05)
15.Shout It Out Loud(02:45)
16.Rock And Roll All Nite(07:54)
-

Лог создания рипа

Exact Audio Copy V1.2 from 12. August 2016
EAC extraction logfile from 28. August 2016, 2:06
KISS / KISS Rocks Vegas
Used drive  : HL-DT-STBDDVDRW UH12NS30   Adapter: 1  ID: 0
Read mode               : Secure
Utilize accurate stream : Yes
Defeat audio cache      : Yes
Make use of C2 pointers : No
Read offset correction                      : 6
Overread into Lead-In and Lead-Out          : No
Fill up missing offset samples with silence : Yes
Delete leading and trailing silent blocks   : No
Null samples used in CRC calculations       : Yes
Used interface                              : Native Win32 interface for Win NT & 2000
Gap handling                                : Appended to previous track
Used output format              : User Defined Encoder
Selected bitrate                : 128 kBit/s
Quality                         : High
Add ID3 tag                     : No
Command line compressor         : C:\Program Files (x86)\Exact Audio Copy\Flac\flac.exe
Additional command line options : -8 -V -T "ARTIST=%artist%" -T "TITLE=%title%" -T "ALBUM=%albumtitle%" -T "DATE=%year%" -T "TRACKNUMBER=%tracknr%" -T "TOTALTRACKS=%numtracks%" -T "GENRE=%genre%" -T "ALBUMARTIST=%albumartist%" -T "ALBUM ARTIST=%albumartist%" -T "COMMENT=EAC Secure Mode, Test & Copy, AccurateRip, FLAC -8" %source%
TOC of the extracted CD
     Track |   Start  |  Length  | Start sector | End sector
    ---------------------------------------------------------
        1  |  0:00.00 |  5:16.30 |         0    |    23729
        2  |  5:16.30 |  4:20.60 |     23730    |    43289
        3  |  9:37.15 |  5:38.30 |     43290    |    68669
        4  | 15:15.45 |  3:32.14 |     68670    |    84583
        5  | 18:47.59 |  4:44.03 |     84584    |   105886
        6  | 23:31.62 |  4:18.55 |    105887    |   125291
        7  | 27:50.42 |  3:35.15 |    125292    |   141431
        8  | 31:25.57 |  6:23.60 |    141432    |   170216
        9  | 37:49.42 |  3:29.52 |    170217    |   185943
       10  | 41:19.19 |  4:42.29 |    185944    |   207122
       11  | 46:01.48 |  5:09.36 |    207123    |   230333
       12  | 51:11.09 |  3:57.04 |    230334    |   248112
       13  | 55:08.13 |  4:39.59 |    248113    |   269096
       14  | 59:47.72 |  9:05.03 |    269097    |   309974
       15  | 68:53.00 |  2:45.22 |    309975    |   322371
       16  | 71:38.22 |  7:54.33 |    322372    |   357954
Track  1
     Filename D:\EAC Rips\KISS - KISS Rocks Vegas (2016) [FLAC] {EV307609}\01 - Detroit Rock City.wav
     Pre-gap length  0:00:02.00
     Peak level 96.9 %
     Extraction speed 3.5 X
     Track quality 99.9 %
     Test CRC 180C0FC8
     Copy CRC 180C0FC8
     Track not present in AccurateRip database
     Copy OK
Track  2
     Filename D:\EAC Rips\KISS - KISS Rocks Vegas (2016) [FLAC] {EV307609}\02 - Creatures Of The Night.wav
     Peak level 95.0 %
     Extraction speed 1.3 X
     Track quality 100.0 %
     Test CRC A734735A
     Copy CRC A734735A
     Track not present in AccurateRip database
     Copy OK
Track  3
     Filename D:\EAC Rips\KISS - KISS Rocks Vegas (2016) [FLAC] {EV307609}\03 - Psycho Circus.wav
     Peak level 95.9 %
     Extraction speed 1.5 X
     Track quality 100.0 %
     Test CRC 87D6EB37
     Copy CRC 87D6EB37
     Track not present in AccurateRip database
     Copy OK
Track  4
     Filename D:\EAC Rips\KISS - KISS Rocks Vegas (2016) [FLAC] {EV307609}\04 - Parasite.wav
     Peak level 95.8 %
     Extraction speed 1.5 X
     Track quality 100.0 %
     Test CRC 30E34F45
     Copy CRC 30E34F45
     Track not present in AccurateRip database
     Copy OK
Track  5
     Filename D:\EAC Rips\KISS - KISS Rocks Vegas (2016) [FLAC] {EV307609}\05 - War Machine.wav
     Peak level 95.0 %
     Extraction speed 1.7 X
     Track quality 100.0 %
     Test CRC 6B0E5A89
     Copy CRC 6B0E5A89
     Track not present in AccurateRip database
     Copy OK
Track  6
     Filename D:\EAC Rips\KISS - KISS Rocks Vegas (2016) [FLAC] {EV307609}\06 - Tears Are Falling.wav
     Peak level 95.4 %
     Extraction speed 1.7 X
     Track quality 100.0 %
     Test CRC E54B9B96
     Copy CRC E54B9B96
     Track not present in AccurateRip database
     Copy OK
Track  7
     Filename D:\EAC Rips\KISS - KISS Rocks Vegas (2016) [FLAC] {EV307609}\07 - Deuce.wav
     Peak level 95.7 %
     Extraction speed 1.8 X
     Track quality 100.0 %
     Test CRC A9184E9A
     Copy CRC A9184E9A
     Track not present in AccurateRip database
     Copy OK
Track  8
     Filename D:\EAC Rips\KISS - KISS Rocks Vegas (2016) [FLAC] {EV307609}\08 - Lick It Up.wav
     Peak level 95.0 %
     Extraction speed 1.8 X
     Track quality 99.9 %
     Test CRC 159A87D9
     Copy CRC 159A87D9
     Track not present in AccurateRip database
     Copy OK
Track  9
     Filename D:\EAC Rips\KISS - KISS Rocks Vegas (2016) [FLAC] {EV307609}\09 - I Love It Loud.wav
     Peak level 94.9 %
     Extraction speed 1.9 X
     Track quality 100.0 %
     Test CRC F467E128
     Copy CRC F467E128
     Track not present in AccurateRip database
     Copy OK
Track 10
     Filename D:\EAC Rips\KISS - KISS Rocks Vegas (2016) [FLAC] {EV307609}\10 - Hell Or Hallelujah.wav
     Peak level 96.6 %
     Extraction speed 2.1 X
     Track quality 100.0 %
     Test CRC 11CE3313
     Copy CRC 11CE3313
     Track not present in AccurateRip database
     Copy OK
Track 11
     Filename D:\EAC Rips\KISS - KISS Rocks Vegas (2016) [FLAC] {EV307609}\11 - God Of Thunder.wav
     Peak level 94.7 %
     Extraction speed 2.2 X
     Track quality 100.0 %
     Test CRC BC72D393
     Copy CRC BC72D393
     Track not present in AccurateRip database
     Copy OK
Track 12
     Filename D:\EAC Rips\KISS - KISS Rocks Vegas (2016) [FLAC] {EV307609}\12 - Do You Love Me.wav
     Peak level 94.8 %
     Extraction speed 1.9 X
     Track quality 99.9 %
     Test CRC 780C6D75
     Copy CRC 780C6D75
     Track not present in AccurateRip database
     Copy OK
Track 13
     Filename D:\EAC Rips\KISS - KISS Rocks Vegas (2016) [FLAC] {EV307609}\13 - Love Gun.wav
     Peak level 94.9 %
     Extraction speed 2.3 X
     Track quality 100.0 %
     Test CRC 5F6CB289
     Copy CRC 5F6CB289
     Track not present in AccurateRip database
     Copy OK
Track 14
     Filename D:\EAC Rips\KISS - KISS Rocks Vegas (2016) [FLAC] {EV307609}\14 - Black Diamond.wav
     Peak level 94.7 %
     Extraction speed 2.5 X
     Track quality 100.0 %
     Test CRC F4C9FC4E
     Copy CRC F4C9FC4E
     Track not present in AccurateRip database
     Copy OK
Track 15
     Filename D:\EAC Rips\KISS - KISS Rocks Vegas (2016) [FLAC] {EV307609}\15 - Shout It Out Loud.wav
     Peak level 95.8 %
     Extraction speed 2.3 X
     Track quality 100.0 %
     Test CRC AB7C63B0
     Copy CRC AB7C63B0
     Track not present in AccurateRip database
     Copy OK
Track 16
     Filename D:\EAC Rips\KISS - KISS Rocks Vegas (2016) [FLAC] {EV307609}\16 - Rock And Roll All Nite.wav
     Peak level 95.6 %
     Extraction speed 2.5 X
     Track quality 99.9 %
     Test CRC 1CB4199E
     Copy CRC 1CB4199E
     Track not present in AccurateRip database
     Copy OK
None of the tracks are present in the AccurateRip database
No errors occurred
End of status report
---- CUETools DB Plugin V2.1.6
[CTDB TOCID: DHoy5N6H1IqXQsyqhYLQkpjXnvw-] found
Submit result: DHoy5N6H1IqXQsyqhYLQkpjXnvw- has been confirmed
Track | CTDB Status
  1   | (3/3) Accurately ripped
  2   | (3/3) Accurately ripped
  3   | (3/3) Accurately ripped
  4   | (3/3) Accurately ripped
  5   | (3/3) Accurately ripped
  6   | (3/3) Accurately ripped
  7   | (3/3) Accurately ripped
  8   | (3/3) Accurately ripped
  9   | (3/3) Accurately ripped
10   | (3/3) Accurately ripped
11   | (3/3) Accurately ripped
12   | (3/3) Accurately ripped
13   | (3/3) Accurately ripped
14   | (3/3) Accurately ripped
15   | (3/3) Accurately ripped
16   | (3/3) Accurately ripped

Индексная карта (non-compilant .cue)

REM GENRE "Hard Rock"
REM DATE 2016
REM DISCID E012A410
REM COMMENT "ExactAudioCopy v1.2"
PERFORMER "KISS"
TITLE "KISS Rocks Vegas"
REM COMPOSER ""
FILE "01 - Detroit Rock City.wav" WAVE
  TRACK 01 AUDIO
    TITLE "Detroit Rock City"
    PERFORMER "KISS"
    REM COMPOSER ""
    INDEX 01 00:00:00
FILE "02 - Creatures Of The Night.wav" WAVE
  TRACK 02 AUDIO
    TITLE "Creatures Of The Night"
    PERFORMER "KISS"
    REM COMPOSER ""
    INDEX 01 00:00:00
FILE "03 - Psycho Circus.wav" WAVE
  TRACK 03 AUDIO
    TITLE "Psycho Circus"
    PERFORMER "KISS"
    REM COMPOSER ""
    INDEX 01 00:00:00
FILE "04 - Parasite.wav" WAVE
  TRACK 04 AUDIO
    TITLE "Parasite"
    PERFORMER "KISS"
    REM COMPOSER ""
    INDEX 01 00:00:00
FILE "05 - War Machine.wav" WAVE
  TRACK 05 AUDIO
    TITLE "War Machine"
    PERFORMER "KISS"
    REM COMPOSER ""
    INDEX 01 00:00:00
FILE "06 - Tears Are Falling.wav" WAVE
  TRACK 06 AUDIO
    TITLE "Tears Are Falling"
    PERFORMER "KISS"
    REM COMPOSER ""
    INDEX 01 00:00:00
FILE "07 - Deuce.wav" WAVE
  TRACK 07 AUDIO
    TITLE "Deuce"
    PERFORMER "KISS"
    REM COMPOSER ""
    INDEX 01 00:00:00
FILE "08 - Lick It Up.wav" WAVE
  TRACK 08 AUDIO
    TITLE "Lick It Up"
    PERFORMER "KISS"
    REM COMPOSER ""
    INDEX 01 00:00:00
FILE "09 - I Love It Loud.wav" WAVE
  TRACK 09 AUDIO
    TITLE "I Love It Loud"
    PERFORMER "KISS"
    REM COMPOSER ""
    INDEX 01 00:00:00
FILE "10 - Hell Or Hallelujah.wav" WAVE
  TRACK 10 AUDIO
    TITLE "Hell Or Hallelujah"
    PERFORMER "KISS"
    REM COMPOSER ""
    INDEX 01 00:00:00
FILE "11 - God Of Thunder.wav" WAVE
  TRACK 11 AUDIO
    TITLE "God Of Thunder"
    PERFORMER "KISS"
    REM COMPOSER ""
    INDEX 01 00:00:00
FILE "12 - Do You Love Me.wav" WAVE
  TRACK 12 AUDIO
    TITLE "Do You Love Me"
    PERFORMER "KISS"
    REM COMPOSER ""
    INDEX 01 00:00:00
FILE "13 - Love Gun.wav" WAVE
  TRACK 13 AUDIO
    TITLE "Love Gun"
    PERFORMER "KISS"
    REM COMPOSER ""
    INDEX 01 00:00:00
FILE "14 - Black Diamond.wav" WAVE
  TRACK 14 AUDIO
    TITLE "Black Diamond"
    PERFORMER "KISS"
    REM COMPOSER ""
    INDEX 01 00:00:00
FILE "15 - Shout It Out Loud.wav" WAVE
  TRACK 15 AUDIO
    TITLE "Shout It Out Loud"
    PERFORMER "KISS"
    REM COMPOSER ""
    INDEX 01 00:00:00
FILE "16 - Rock And Roll All Nite.wav" WAVE
  TRACK 16 AUDIO
    TITLE "Rock And Roll All Nite"
    PERFORMER "KISS"
    REM COMPOSER ""
    INDEX 01 00:00:00
--
[Профиль] [ЛС]
Показать сообщения:    

Текущее время: Сегодня 22:34

Часовой пояс: GMT



Вы не можете начинать темы
Вы не можете отвечать на сообщения
Вы не можете редактировать свои сообщения
Вы не можете удалять свои сообщения
Вы не можете голосовать в опросах
Вы не можете прикреплять файлы к сообщениям
Вы не можете скачивать файлы