(Rock)Kiss - Dynasty - 1979 (1997) [Ape, image +.cue, lossless]

 
Автор Сообщение

sergej644 ®

Пол:

Стаж: 4 года 11 месяцев

Сообщений: 6042

Откуда: Soviet Union



Награды: Нет

Торрент-статистика

Создавать темы 25-Июл-2016 15:46

[Цитировать]

-Kiss - Dynasty--
Год издания: 1979
Год переиздания: 1997
Страна: USA
Жанр: Rock
Продолжительность: 00:39:06-Лейбл издания: Mercury Company
Страна-выпуска диска: USA
Номер по каталогу: 532 388-2-Формат: Ape
Битрейт аудио: Lossless
Тип рипа: image +.cue
Наличие сканов в содержимом раздачи: да
-

Трэклист


01. I Was Made For Lovin' You (4:33)
02. 2000 Man (4:57)
03. Sure Know Something (4:01)
04. Dirty Livin' (4:28)
05. Charisma (4:26)
06. Magic Touch (4:42)
07. Hard Times (3:31)
08. X-Ray Eyes (3:46)
09. Save Your Love (4:41)
-

Лог создания рипа

Exact Audio Copy V0.99 prebeta 5 from 4. May 2009
EAC extraction logfile from 6. April 2016, 20:30
Kiss / Dynasty
Used drive  : ASUS    DRW-20B1ST   Adapter: 3  ID: 0
Read mode               : Secure
Utilize accurate stream : Yes
Defeat audio cache      : Yes
Make use of C2 pointers : No
Read offset correction                      : 6
Overread into Lead-In and Lead-Out          : No
Fill up missing offset samples with silence : Yes
Delete leading and trailing silent blocks   : No
Null samples used in CRC calculations       : Yes
Used interface                              : Native Win32 interface for Win NT & 2000
Used output format              : Monkey's Audio Lossless Encoder
Selected bitrate                : High Lossless Compression
Quality                         : High
Add ID3 tag                     : No
Command line compressor         : C:\Program Files (x86)\Monkey's Audio\MAC.exe
Additional command line options :  %source% %dest% -c3000
Use compression offset          : 0
TOC of the extracted CD
     Track |   Start  |  Length  | Start sector | End sector
    ---------------------------------------------------------
        1  |  0:00.00 |  4:33.37 |         0    |    20511
        2  |  4:33.37 |  4:56.68 |     20512    |    42779
        3  |  9:30.30 |  4:01.37 |     42780    |    60891
        4  | 13:31.67 |  4:27.70 |     60892    |    80986
        5  | 17:59.62 |  4:25.70 |     80987    |   100931
        6  | 22:25.57 |  4:42.18 |    100932    |   122099
        7  | 27:08.00 |  3:31.17 |    122100    |   137941
        8  | 30:39.17 |  3:46.25 |    137942    |   154916
        9  | 34:25.42 |  4:40.50 |    154917    |   175966
Range status and errors
Selected range
     Filename E:\Kiss - Dynasty.wav
     Peak level 100.0 %
     Range quality 100.0 %
     Copy CRC AF6F5B71
     Copy OK
No errors occurred
AccurateRip summary
Track  1  accurately ripped (confidence 30)  [61251800]
Track  2  accurately ripped (confidence 29)  [E5477AA6]
Track  3  accurately ripped (confidence 29)  [B2FAB24B]
Track  4  accurately ripped (confidence 29)  [6A4F4586]
Track  5  accurately ripped (confidence 30)  [904A9971]
Track  6  accurately ripped (confidence 29)  [BA3B528B]
Track  7  accurately ripped (confidence 29)  [19974536]
Track  8  accurately ripped (confidence 29)  [3E600380]
Track  9  accurately ripped (confidence 28)  [8ED2F657]
All tracks accurately ripped
End of status report

Индексная карта (non-compilant .cue)

REM GENRE Rock
REM DATE 1979
REM DISCID 6A092A09
REM COMMENT "ExactAudioCopy v0.99pb5"
PERFORMER "Kiss"
TITLE "Dynasty"
FILE "Kiss - Dynasty.ape" WAVE
  TRACK 01 AUDIO
    TITLE "I Was Made For Lovin' You"
    PERFORMER Kiss
    INDEX 01 00:00:00
  TRACK 02 AUDIO
    TITLE "2000 Man"
    PERFORMER Kiss
    INDEX 00 04:31:17
    INDEX 01 04:33:37
  TRACK 03 AUDIO
    TITLE "Sure Know Something"
    PERFORMER Kiss
    INDEX 00 09:28:67
    INDEX 01 09:30:30
  TRACK 04 AUDIO
    TITLE "Dirty Livin'"
    PERFORMER Kiss
    INDEX 01 13:31:67
  TRACK 05 AUDIO
    TITLE Charisma
    PERFORMER Kiss
    INDEX 01 17:59:62
  TRACK 06 AUDIO
    TITLE "Magic Touch"
    PERFORMER Kiss
    INDEX 01 22:25:57
  TRACK 07 AUDIO
    TITLE "Hard Times"
    PERFORMER Kiss
    INDEX 01 27:08:00
  TRACK 08 AUDIO
    TITLE "X-Ray Eyes"
    PERFORMER Kiss
    INDEX 01 30:39:17
  TRACK 09 AUDIO
    TITLE "Save Your Love"
    PERFORMER Kiss
    INDEX 01 34:25:42
--
[Профиль] [ЛС]
Кто просматривает тему:

Форум Тема Автор Размер
Rock (Rock)Kiss - Дискография (1974-2014) MP3 BOSS 9.87 GB
Показать сообщения:    

Текущее время: Сегодня 18:15

Часовой пояс: GMT



Вы не можете начинать темы
Вы не можете отвечать на сообщения
Вы не можете редактировать свои сообщения
Вы не можете удалять свои сообщения
Вы не можете голосовать в опросах
Вы не можете прикреплять файлы к сообщениям
Вы не можете скачивать файлы