Kings of Leon - Live At Rock Am Ring 2014 [Rock, HDTV 720p]

 
Автор Сообщение

reversefile ®

Пол:

Стаж: 4 года 5 месяцев

Сообщений: 842

Откуда: ReverseFile.org



Награды: Нет

Торрент-статистика

Создавать темы 11-Авг-2014 19:02

[Цитировать]

Kings of Leon - Live At Rock Am Ring 2014
Жанр: Rock
Продолжительность: 1 ч 27 мин
Год выпуска: 2014
Описание: Самое свежее выступление на фестивале Rock Am Ring 6-го июня 2014.
Треклист:
01. Supersoaker
02. Taper Jean Girl
03. Family Tree
04. My Party
05. Razz
06. Closer
07. On Call
08. The Immortals
09. Wait for Me
10. The Bucket
11. Temple
12. Pyro
13. Tonight
14. Radioactive
15. Don't Matter
16. Molly's Chambers
17. Four Kicks
18. Be Somebody
19. Use Somebody
20. Crawl
21. Black Thumbnail
22. Sex on Fire
Качество: HDTV 720p
Контейнер: TS
Видео кодек: H.264
Аудио кодек: AC3
Видео: Codec: V_MPEG4/ISO/AVC, 1280x720p 16:9, 10,9 Mbps, 50 fps
Аудио: AC3, Chann. 2: Sample rate:48 KHz, Bitrate: 448 Кb/s

МедиаИнфо/СкриншотыОтчёт MediaInfo

General
Complete name : Kings of Leon - RaR 2014 - LIVE.tsFormat : MPEG-TSFile size : 7.28 GiBDuration : 1h 27mnOverall bit rate : 12.0 Mbps
VideoFormat : AVCFormat/Info : Advanced Video CodecFormat profile : High@L4.0Format settings, CABAC : YesFormat settings, ReFrames : 4 framesCodec ID : 27Duration : 1h 27mnBit rate : 10.9 MbpsWidth : 1 280 pixelsHeight : 720 pixelsDisplay aspect ratio : 16:9Frame rate : 50.000 fpsColor space : YUVChroma subsampling : 4:2:0Bit depth : 8 bitsScan type : ProgressiveBits/(Pixel*Frame) : 0.237Stream size : 6.64 GiB (91%)
AudioFormat : AC-3Format/Info : Audio Coding 3Mode extension : CM (complete main)Codec ID : 6Duration : 1h 27mnBit rate mode : ConstantBit rate : 448 KbpsChannel(s) : 2 channelsChannel positions : Front: L RSampling rate : 48.0 KHzBit depth : 16 bitsCompression mode : LossyStream size : 279 MiB (4%)



[Профиль] [ЛС]
Кто просматривает тему:

Показать сообщения:    

Текущее время: Сегодня 17:40

Часовой пояс: GMT



Вы не можете начинать темы
Вы не можете отвечать на сообщения
Вы не можете редактировать свои сообщения
Вы не можете удалять свои сообщения
Вы не можете голосовать в опросах
Вы не можете прикреплять файлы к сообщениям
Вы не можете скачивать файлы