(Hard Rock)Kingdom Come - Kingdom Come (1988) SHM-CD / Universal Music/ 2013, [FLAC(image+cue), Lossless]

 
Автор Сообщение

sergej644 ®

Пол:

Стаж: 4 года 11 месяцев

Сообщений: 6043

Откуда: Soviet Union



Награды: Нет

Торрент-статистика

Создавать темы 13-Окт-2014 08:05

[Цитировать]

-Kingdom Come - Kingdom Come (1988)-Год: 1988/2013
Жанр: Hard Rock
Лейбл: Polydor, Universal Music
Каталог #: UICY-76002
Продолжительность: 00:47:40-Кодек: FLAC
Тип рипа: image + .cue
Битрейт: Lossless-Треклист:
01. Living Out Of Touch (4:17)
02. Pushin' Hard (4:58)
03. What Love Can Be (5:14)
04. 17 (5:30)
05. The Shuffle (3:40)
06. Get It On (4:21)
07. Now Forever After (5:36)
08. Hideaway (5:38)
09. Loving You (4:46)
10. Shout It Out (3:38)
-

Отчёт ЕАС:

Exact Audio Copy V1.0 beta 3 from 29. August 2011
EAC extraction logfile from 19. January 2014, 22:51
Kingdom Come / Kingdom Come
Used drive  : SlimtypeDVD A  DS8A5SH   Adapter: 0  ID: 1
Read mode               : Secure
Utilize accurate stream : Yes
Defeat audio cache      : Yes
Make use of C2 pointers : No
Read offset correction                      : 6
Overread into Lead-In and Lead-Out          : No
Fill up missing offset samples with silence : Yes
Delete leading and trailing silent blocks   : No
Null samples used in CRC calculations       : Yes
Used interface                              : Native Win32 interface for Win NT & 2000
Used output format              : User Defined Encoder
Selected bitrate                : 320 kBit/s
Quality                         : High
Add ID3 tag                     : No
Command line compressor         : C:\Program Files (x86)\Exact Audio Copy\Flac\flac.exe
Additional command line options : -V -8 -T "Date=%year%" -T "Genre=%genre%" %source%
TOC of the extracted CD
     Track |   Start  |  Length  | Start sector | End sector
    ---------------------------------------------------------
        1  |  0:00.00 |  4:17.12 |         0    |    19286
        2  |  4:17.12 |  4:58.20 |     19287    |    41656
        3  |  9:15.32 |  5:14.00 |     41657    |    65206
        4  | 14:29.32 |  5:30.35 |     65207    |    89991
        5  | 19:59.67 |  3:40.33 |     89992    |   106524
        6  | 23:40.25 |  4:21.04 |    106525    |   126103
        7  | 28:01.29 |  5:36.08 |    126104    |   151311
        8  | 33:37.37 |  5:37.69 |    151312    |   176655
        9  | 39:15.31 |  4:46.37 |    176656    |   198142
       10  | 44:01.68 |  3:37.58 |    198143    |   214475
Range status and errors
Selected range
     Filename D:\My Music\Kingdom Come - 1988 Kingdom Come (Japanese SHMCD Mini-LP 2013)\Kingdom Come - Kingdom Come.wav
     Peak level 100.0 %
     Extraction speed 1.7 X
     Range quality 100.0 %
     Test CRC 5814F922
     Copy CRC 5814F922
     Copy OK
No errors occurred
AccurateRip summary
Track  1  not present in database
Track  2  not present in database
Track  3  not present in database
Track  4  not present in database
Track  5  not present in database
Track  6  not present in database
Track  7  not present in database
Track  8  not present in database
Track  9  not present in database
Track 10  not present in database
None of the tracks are present in the AccurateRip database
End of status report
==== Log checksum BFD1432CB7BA32AAE9E1A1F89CDD82804860CB1F9A97D00FF8BF0EA6010E3C05 ====

Отчёт auCDtect Task manager:

-----------------------
DON'T MODIFY THIS FILE
-----------------------
PERFORMER: auCDtect Task Manager, ver. 1.6.0 RC1 build 1.6.0.1
Copyright (c) 2008-2010 y-soft. All rights reserved
http://y-soft.org
ANALYZER: auCDtect: CD records authenticity detector, version 0.8.2
Copyright (c) 2004 Oleg Berngardt. All rights reserved.
Copyright (c) 2004 Alexander Djourik. All rights reserved.
FILE: Kingdom Come - Kingdom Come.flac
  Size: 346901204 Hash: 51A5B5D9F1878454A45C5039BC587CD4 Accuracy: -m0
  Conclusion: CDDA 100%
  Signature: F150468F4C30E6266539A9A9E5110A2EDEEFF96E

Содержание индексной карты (.CUE)

REM GENRE "Hard Rock"
REM DATE 1988
REM DISCID 7E0B2B0A
REM COMMENT "ExactAudioCopy v1.0b3"
CATALOG 0042283536821
PERFORMER "Kingdom Come"
TITLE "Kingdom Come"
FILE "Kingdom Come - Kingdom Come.flac" WAVE
  TRACK 01 AUDIO
    TITLE "Living Out Of Touch"
    PERFORMER "Kingdom Come"
    ISRC USF068825310
    INDEX 01 00:00:00
  TRACK 02 AUDIO
    TITLE "Pushin' Hard"
    PERFORMER "Kingdom Come"
    ISRC USF068825320
    INDEX 01 04:17:12
  TRACK 03 AUDIO
    TITLE "What Love Can Be"
    PERFORMER "Kingdom Come"
    ISRC USF068825330
    INDEX 01 09:15:32
  TRACK 04 AUDIO
    TITLE "17"
    PERFORMER "Kingdom Come"
    ISRC USF068825340
    INDEX 01 14:29:32
  TRACK 05 AUDIO
    TITLE "The Shuffle"
    PERFORMER "Kingdom Come"
    ISRC USF068825350
    INDEX 01 19:59:67
  TRACK 06 AUDIO
    TITLE "Get It On"
    PERFORMER "Kingdom Come"
    ISRC USF068925250
    INDEX 01 23:40:25
  TRACK 07 AUDIO
    TITLE "Now Forever After"
    PERFORMER "Kingdom Come"
    ISRC USF068825370
    INDEX 01 28:01:29
  TRACK 08 AUDIO
    TITLE "Hideaway"
    PERFORMER "Kingdom Come"
    ISRC USF068825380
    INDEX 01 33:37:37
  TRACK 09 AUDIO
    TITLE "Loving You"
    PERFORMER "Kingdom Come"
    ISRC USF068825390
    INDEX 01 39:15:31
  TRACK 10 AUDIO
    TITLE "Shout It Out"
    PERFORMER "Kingdom Come"
    ISRC USF068825400
    INDEX 01 44:01:68

Сверка с АккуратРип

[CUETools log; Date: 04.02.2014 20:11:17; Version: 2.1.4]
[CTDB TOCID: oXR7Va4ERSTLRf_Fuk9x00bWgHo-] disk not present in database.
CUETools DB: oXR7Va4ERSTLRf_Fuk9x00bWgHo- has been uploaded.
[AccurateRip ID: 001225ef-009186fe-7e0b2b0a] found.
Track   [  CRC   |   V2   ] Status
01     [4eb5f6c9|dce362dc] (0+2/2) Accurately ripped
02     [f7d73e26|c1d07279] (0+2/2) Accurately ripped
03     [2c70d25f|eed5fe53] (0+2/2) Accurately ripped
04     [c207821a|cbd37f15] (0+2/2) Accurately ripped
05     [f453c76e|e4d7836c] (0+2/2) Accurately ripped
06     [49dfe09c|dc461e28] (0+2/2) Accurately ripped
07     [0dc07605|e5a2a635] (0+2/2) Accurately ripped
08     [eaf506a4|7478df7b] (0+2/2) Accurately ripped
09     [ac4fbfb7|64ded6b2] (0+2/2) Accurately ripped
10     [66844e9d|7fc799e6] (0+2/2) Accurately ripped
Track Peak [ CRC32  ] [W/O NULL] [  LOG   ]
--  100,0 [5814F922] [9E8D0410]   CRC32
01  100,0 [008B9640] [921A1AD7]
02  100,0 [EB60FCCC] [9F6E3F85]
03  100,0 [CF3E1597] [B72DAA97]
04  100,0 [610D5B59] [447ADED3]
05  100,0 [1422CCAE] [87BD76F0]
06  100,0 [000CC4ED] [7B6EF45A]
07  100,0 [09BB612F] [72E1DD95]
08  100,0 [092D2170] [4018FA42]
09   73,5 [9E7452DD] [4E1DBE73]
10  100,0 [88DB459B] [B703803A]
Время раздачи: 24/7 (круглосуточно)-
[Профиль] [ЛС]
Показать сообщения:    

Текущее время: Сегодня 02:26

Часовой пояс: GMT



Вы не можете начинать темы
Вы не можете отвечать на сообщения
Вы не можете редактировать свои сообщения
Вы не можете удалять свои сообщения
Вы не можете голосовать в опросах
Вы не можете прикреплять файлы к сообщениям
Вы не можете скачивать файлы