King Kong & The D. Jungle Girls - King Kong Greatest Hits (2000) [FLAC|Lossless]<Italo-Disco>

 
Автор Сообщение

sergej644 ®

Пол:

Стаж: 4 года 11 месяцев

Сообщений: 6045

Откуда: Soviet Union



Награды: Нет

Торрент-статистика

Создавать темы 24-Дек-2014 22:25

[Цитировать]

-King Kong & The D. Jungle Girls - King Kong Greatest Hits (2000)- Год: 2000
Лейбл: Intercord Japan
Каталог #: TOCP-64076
Жанр: Italo-Disco
Продолжительность: 01:18:14
Кодек: FLAC
Битрейт: Lossless
Тип битрейта: image +.cue
Треклист:
01. Boom Boom Dollar (Red Monster Mix) 5:54
02. Walkie Talkie 3:59
03. Love & American Dollars 5:27
04. Lies 4:15
05. Bingo 6:34
06. Love Of The Angel 5:41
07. Gimme Gimme Gimme 6:04
08. Panic In New York 6:29
09. It's So Funny 2:53
10. Don't Let Me Be Misunderstood 3:00
11. King Kong 5:39
12. Bad Man 6:04
13. Boom Boom Dollar (Red Monster 2000 Mix) 4:13
14. King Kong Hits Mega-Mix 12:01
- 14.01. Boom Boom Dollar (Red Monster Mix)
- 14.02. Walkie Talkie
- 14.03. Lies
- 14.04. Love & American Dollars
- 14.05. Gimme Gimme Gimme
- 14.06. Bingo
- 14.07. King Kong
- 14.08. Boom Boom Dollar (K.O.G. G3 Mix)

Отчёт ЕАС&#58;

Exact Audio Copy V0.99 prebeta 5 from 4. May 2009
Отчёт EAC об извлечении, выполненном 3. октября 2009, 23:25
King Kong & The D.Jungle Girls / Boom Boom Dollar - King Kong Greatest Hits
Дисковод: Optiarc DVD RW AD-5200A Adapter: 0 ID: 0
Режим чтения : Достоверность
Использование точного потока : Да
Отключение кэша аудио : Да
Использование указателей C2 : Нет
Коррекция смещения при чтении : 48
Способность читать области Lead-in и Lead-out : Нет
Заполнение пропущенных сэмплов тишиной : Да
Удаление блоков с тишиной в начале и конце : Нет
При вычислениях CRC использовались нулевые сэмплы : Да
Интерфейс : Установленный внешний ASPI-интерфейс
Выходной формат : Внутренние WAV-операции
Формат сэмплов : 44.100 Гц; 16 бит; стерео
TOC извлечённого CD
Трек | Старт | Длительность | Начальный сектор | Конечный сектор
---------------------------------------------------------------------
1 | 0:00.00 | 5:54.12 | 0 | 26561
2 | 5:54.12 | 3:58.60 | 26562 | 44471
3 | 9:52.72 | 5:26.73 | 44472 | 68994
4 | 15:19.70 | 4:15.00 | 68995 | 88119
5 | 19:34.70 | 6:34.35 | 88120 | 117704
6 | 26:09.30 | 5:40.47 | 117705 | 143251
7 | 31:50.02 | 6:04.03 | 143252 | 170554
8 | 37:54.05 | 6:29.25 | 170555 | 199754
9 | 44:23.30 | 2:53.17 | 199755 | 212746
10 | 47:16.47 | 3:00.35 | 212747 | 226281
11 | 50:17.07 | 5:38.38 | 226282 | 251669
12 | 55:55.45 | 6:04.07 | 251670 | 278976
13 | 61:59.52 | 4:13.30 | 278977 | 297981
14 | 66:13.07 | 12:01.18 | 297982 | 352074
Характеристики диапазона извлечения и сообщения об ошибках
Выбранный диапазон
Имя файла E:\King Kong & The D.Jungle Girls - Boom Boom Dollar - King Kong Greatest Hits\King Kong & The D.Jungle Girls - Boom Boom Dollar - King Kong Greatest Hits.wav
Пиковый уровень 99.9 %
Качество диапазона 100.0 %
CRC теста 3C7C465D
CRC копии 3C7C465D
Копирование... OK
Ошибок не произошло
AccurateRip: сводка
Трек 1 нет в базе данных
Трек 2 нет в базе данных
Трек 3 нет в базе данных
Трек 4 нет в базе данных
Трек 5 нет в базе данных
Трек 6 нет в базе данных
Трек 7 нет в базе данных
Трек 8 нет в базе данных
Трек 9 нет в базе данных
Трек 10 нет в базе данных
Трек 11 нет в базе данных
Трек 12 нет в базе данных
Трек 13 нет в базе данных
Трек 14 нет в базе данных
Ни одного трека нет в базе AccurateRip
Конец отчёта

Отчёт auCDtect Task manager&#58;

-----------------------
DON'T MODIFY THIS FILE
-----------------------
PERFORMER: auCDtect Task Manager, ver. 1.5.1RC4 build 1.5.1.5
Copyright (c) 2008-2010 y-soft. All rights reserved
http://y-soft.org
ANALYZER: auCDtect: CD records authenticity detector, version 0.8.2
Copyright (c) 2004 Oleg Berngardt. All rights reserved.
Copyright (c) 2004 Alexander Djourik. All rights reserved.
FILE: King Kong & The D.Jungle Girls - Boom Boom Dollar - King Kong Greatest Hits.flac
  Size: 618146858 Hash: ED7629FD6C8516157D561A5445CEB91F Accuracy: -m0
  Conclusion: CDDA 100%
  Signature: B906867FD61261A06E4F06EB8D71412E2A9E7C72

Содержание индексной карты (.CUE&#41;&#58;

REM GENRE Euro-Beat
REM DATE 2000
REM DISCID D512560E
REM COMMENT "ExactAudioCopy v0.99pb5"
PERFORMER "King Kong & The D.Jungle Girls"
TITLE "Boom Boom Dollar - King Kong Greatest Hits"
FILE "King Kong & The D.Jungle Girls - Boom Boom Dollar - King Kong Greatest Hits.flac" WAVE
  TRACK 01 AUDIO
    TITLE "Boom Boom Dollar (Red Monster Mix)"
    PERFORMER "King Kong & The D.Jungle Girls"
    INDEX 01 00:00:00
  TRACK 02 AUDIO
    TITLE "Walkie Talkie"
    PERFORMER "King Kong & The D.Jungle Girls"
    INDEX 01 05:54:12
  TRACK 03 AUDIO
    TITLE "Love & American Dollars"
    PERFORMER "King Kong & The D.Jungle Girls"
    INDEX 01 09:52:72
  TRACK 04 AUDIO
    TITLE "Lies"
    PERFORMER "King Kong & The D.Jungle Girls"
    INDEX 01 15:19:70
  TRACK 05 AUDIO
    TITLE "Bingo"
    PERFORMER "King Kong & The D.Jungle Girls"
    INDEX 01 19:34:70
  TRACK 06 AUDIO
    TITLE "Love Of The Angel"
    PERFORMER "King Kong & The D.Jungle Girls"
    INDEX 01 26:09:30
  TRACK 07 AUDIO
    TITLE "Gimme Gimme Gimme"
    PERFORMER "King Kong & The D.Jungle Girls"
    INDEX 01 31:50:02
  TRACK 08 AUDIO
    TITLE "Panic In New York"
    PERFORMER "King Kong & The D.Jungle Girls"
    INDEX 01 37:54:05
  TRACK 09 AUDIO
    TITLE "It's So Funny"
    PERFORMER "King Kong & The D.Jungle Girls"
    INDEX 01 44:23:30
  TRACK 10 AUDIO
    TITLE "Don't Let Me Be Misunderstood"
    PERFORMER "King Kong & The D.Jungle Girls"
    INDEX 01 47:16:47
  TRACK 11 AUDIO
    TITLE "King Kong"
    PERFORMER "King Kong & The D.Jungle Girls"
    INDEX 01 50:17:07
  TRACK 12 AUDIO
    TITLE "Bad Man"
    PERFORMER "King Kong & The D.Jungle Girls"
    INDEX 01 55:55:45
  TRACK 13 AUDIO
    TITLE "Boom Boom Dollar (Red Monster 2000 Mix)"
    PERFORMER "King Kong & The D.Jungle Girls"
    INDEX 01 61:59:52
  TRACK 14 AUDIO
    TITLE "King Kong Hits Mega-Mix"
    PERFORMER "King Kong & The D.Jungle Girls"
    INDEX 01 66:13:07
[Профиль] [ЛС]

Создавать темы 13-Авг-2015 10:44 (спустя 7 месяцев 20 дней)

Топик был перенесен из форума Зарубежная в форум Technopop, Eurodance, Disco
sergej644
 
Показать сообщения:    

Текущее время: Сегодня 02:08

Часовой пояс: GMT



Вы не можете начинать темы
Вы не можете отвечать на сообщения
Вы не можете редактировать свои сообщения
Вы не можете удалять свои сообщения
Вы не можете голосовать в опросах
Вы не можете прикреплять файлы к сообщениям
Вы не можете скачивать файлы