(Rock, Hard Rock) Ken Hensley - The Last Dance - 2003 [APE, image +.cue, lossless]

 
Автор Сообщение

sergej644 ®

Пол:

Стаж: 4 года 11 месяцев

Сообщений: 6046

Откуда: Soviet Union



Награды: Нет

Торрент-статистика

Создавать темы 29-Янв-2016 17:06

[Цитировать]

-Ken Hensley - The Last Dance--
Год издания: 2003
Страна: UK
Жанр: Rock, Hard Rock
Продолжительность: 00:54:34-Лейбл издания: Sacramento
Страна-выпуска диска: EU
Номер по каталогу: 8437004856005-Формат: APE
Битрейт аудио: Lossless
Тип рипа: image +.cue
Наличие сканов в содержимом раздачи: да
-

Трэклист


01. Crying (04:47)
02. Letting Go (04:46)
03. Give Me A Reason (04:19)
04. Second Chance(A New Beginning) (05:26)
05. I Know Who You Are (03:56)
06. The Voice Of Love (04:05)
07. Give Em What They Want (03:46)
08. Who Knows (05:25)
09. Dancing (04:12)
10. Did You Know (05:29)
11. The Last Dance(El Gitano Viejo) (08:28)
-

Лог создания рипа

Exact Audio Copy V0.99 prebeta 5 from 4. May 2009
EAC extraction logfile from 26. October 2012, 12:14
Ken Hensley / The Last Dance
Used drive  : ASUS    DRW-20B1ST   Adapter: 2  ID: 1
Read mode               : Secure
Utilize accurate stream : Yes
Defeat audio cache      : Yes
Make use of C2 pointers : No
Read offset correction                      : 6
Overread into Lead-In and Lead-Out          : No
Fill up missing offset samples with silence : Yes
Delete leading and trailing silent blocks   : No
Null samples used in CRC calculations       : Yes
Used interface                              : Native Win32 interface for Win NT & 2000
Used output format              : Monkey's Audio Lossless Encoder
Selected bitrate                : High Lossless Compression
Quality                         : High
Add ID3 tag                     : No
Command line compressor         : C:\Program Files (x86)\Monkey's Audio\MAC.exe
Additional command line options : - V
TOC of the extracted CD
     Track |   Start  |  Length  | Start sector | End sector
    ---------------------------------------------------------
        1  |  0:00.00 |  4:46.11 |         0    |    21460
        2  |  4:46.11 |  4:45.28 |     21461    |    42863
        3  |  9:31.39 |  4:18.68 |     42864    |    62281
        4  | 13:50.32 |  5:25.42 |     62282    |    86698
        5  | 19:15.74 |  3:55.23 |     86699    |   104346
        6  | 23:11.22 |  4:04.26 |    104347    |   122672
        7  | 27:15.48 |  3:45.02 |    122673    |   139549
        8  | 31:00.50 |  5:24.50 |    139550    |   163899
        9  | 36:25.25 |  4:11.52 |    163900    |   182776
       10  | 40:37.02 |  5:28.55 |    182777    |   207431
       11  | 46:05.57 |  8:27.65 |    207432    |   245521
Range status and errors
Selected range
     Filename E:\Ken Hensley - The Last Dance.ape - 2003.wav
     Peak level 100.0 %
     Range quality 100.0 %
     Copy CRC ACBF518B
     Copy OK
No errors occurred
AccurateRip summary
Track  1  accurately ripped (confidence 3)  [D0EEEDAE]
Track  2  accurately ripped (confidence 3)  [360700B1]
Track  3  accurately ripped (confidence 3)  [A47AD0F6]
Track  4  accurately ripped (confidence 3)  [DAF0D05C]
Track  5  accurately ripped (confidence 3)  [D9B4B998]
Track  6  accurately ripped (confidence 3)  [42241D82]
Track  7  accurately ripped (confidence 3)  [0C3EB1A1]
Track  8  accurately ripped (confidence 3)  [BC5627C4]
Track  9  accurately ripped (confidence 3)  [9DAF68ED]
Track 10  accurately ripped (confidence 3)  [166E0A49]
Track 11  accurately ripped (confidence 3)  [39633DC9]
All tracks accurately ripped
End of status report

Индексная карта (non-compilant .cue)

REM GENRE Rock
REM DATE 2003
REM DISCID AA0CC90B
REM COMMENT "ExactAudioCopy v0.99pb5"
PERFORMER "Ken Hensley"
TITLE "The Last Dance"
FILE "Ken Hensley - The Last Dance.ape - 2003.ape" WAVE
  TRACK 01 AUDIO
    TITLE Crying
    PERFORMER "Ken Hensley"
    INDEX 01 00:00:00
  TRACK 02 AUDIO
    TITLE "Letting Go"
    PERFORMER "Ken Hensley"
    INDEX 01 04:46:11
  TRACK 03 AUDIO
    TITLE "Give Me A Reason"
    PERFORMER "Ken Hensley"
    INDEX 00 09:30:31
    INDEX 01 09:31:39
  TRACK 04 AUDIO
    TITLE "Second Chance(A New Beginning)"
    PERFORMER "Ken Hensley"
    INDEX 00 13:49:19
    INDEX 01 13:50:32
  TRACK 05 AUDIO
    TITLE "I Know Who You Are"
    PERFORMER "Ken Hensley"
    INDEX 00 19:14:60
    INDEX 01 19:15:74
  TRACK 06 AUDIO
    TITLE "The Voice Of Love"
    PERFORMER "Ken Hensley"
    INDEX 00 23:10:51
    INDEX 01 23:11:22
  TRACK 07 AUDIO
    TITLE "Give Em What They Want"
    PERFORMER "Ken Hensley"
    INDEX 01 27:15:48
  TRACK 08 AUDIO
    TITLE "Who Knows"
    PERFORMER "Ken Hensley"
    INDEX 00 30:59:06
    INDEX 01 31:00:50
  TRACK 09 AUDIO
    TITLE Dancing
    PERFORMER "Ken Hensley"
    INDEX 00 36:22:49
    INDEX 01 36:25:25
  TRACK 10 AUDIO
    TITLE "Did You Know"
    PERFORMER "Ken Hensley"
    INDEX 00 40:35:46
    INDEX 01 40:37:02
  TRACK 11 AUDIO
    TITLE "The Last Dance(El Gitano Viejo)"
    PERFORMER "Ken Hensley"
    INDEX 01 46:05:57
--
[Профиль] [ЛС]
Показать сообщения:    

Текущее время: Сегодня 03:24

Часовой пояс: GMT



Вы не можете начинать темы
Вы не можете отвечать на сообщения
Вы не можете редактировать свои сообщения
Вы не можете удалять свои сообщения
Вы не можете голосовать в опросах
Вы не можете прикреплять файлы к сообщениям
Вы не можете скачивать файлы