(Acoustic Hard Rock) Ken Hensley - Live Tales - 2013, FLAC (image+.cue), lossless

 
Автор Сообщение

sergej644 ®

Пол:

Стаж: 4 года 11 месяцев

Сообщений: 6035

Откуда: Soviet Union



Награды: Нет

Торрент-статистика

Создавать темы 02-Ноя-2014 21:49

[Цитировать]

--Ken Hensley / Live Tales
Жанр: Acoustic Hard Rock
Страна-производитель диска: EU, EC
Год издания: 2013
Издатель (лейбл): Cerry Red Records
Номер по каталогу: CDBRED568
Страна: England
Аудиокодек: FLAC (*.flac)
Тип рипа: image+.cue
Битрейт аудио: lossless
Продолжительность: 01:01:29
Источник (релизер): gerrV
Наличие сканов в содержимом раздачи: да (JPG, 600dpi, 33Mb)
Треклист:
01. Introduction - 1:44
02. Free Me - 4:18
03. Longer Shadows - 3:45
04. The Wizard - 3:41
05. I Don't Wanna Wait - 3:21
06. Wise Man - 3:46
07. Through The Eyes Of A Child - 2:53
08. Rain - 3:59
09. Come To Me - 3:38
10. There Comes A Time - 4:02
11. July Morning - 5:57
12. Slipping Away - 3:52
13. Tales - 4:39
14. I Close My Eyes - 6:20
15. Lady In Black - 5:34
-Amazon-

Лог создания рипа (EAC)

Exact Audio Copy V1.0 beta 3 from 29. August 2011
EAC extraction logfile from 23. April 2013, 23:08
Ken Hensley / Live Tales
Used drive  : ATAPI   iHAS124   B   Adapter: 2  ID: 0
Read mode               : Secure
Utilize accurate stream : Yes
Defeat audio cache      : Yes
Make use of C2 pointers : No
Read offset correction                      : 6
Overread into Lead-In and Lead-Out          : No
Fill up missing offset samples with silence : Yes
Delete leading and trailing silent blocks   : No
Null samples used in CRC calculations       : Yes
Used interface                              : Native Win32 interface for Win NT & 2000
Used output format              : User Defined Encoder
Selected bitrate                : 1024 kBit/s
Quality                         : High
Add ID3 tag                     : No
Command line compressor         : C:\Program Files (x86)\Exact Audio Copy\FLAC\FLAC.EXE
Additional command line options : -8 -V -T "ARTIST=%artist%" -T "TITLE=%title%" -T "ALBUM=%albumtitle%" -T "DATE=%year%" -T "TRACKNUMBER=%tracknr%" -T "GENRE=%genre%" -T "PERFORMER=%albuminterpret%" -T "COMPOSER=%composer%" %haslyrics%--tag-from-file=LYRICS="%lyricsfile%"%haslyrics% -T "ALBUMARTIST=%albumartist%" -T "DISCNUMBER=%cdnumber%" -T "TOTALDISCS=%totalcds%" -T "TOTALTRACKS=%numtracks%" -T "COMMENT=%comment%" %source% -o %dest%
TOC of the extracted CD
     Track |   Start  |  Length  | Start sector | End sector
    ---------------------------------------------------------
        1  |  0:00.00 |  1:44.36 |         0    |     7835
        2  |  1:44.36 |  4:18.18 |      7836    |    27203
        3  |  6:02.54 |  3:45.25 |     27204    |    44103
        4  |  9:48.04 |  3:41.29 |     44104    |    60707
        5  | 13:29.33 |  3:21.33 |     60708    |    75815
        6  | 16:50.66 |  3:45.66 |     75816    |    92756
        7  | 20:36.57 |  2:53.13 |     92757    |   105744
        8  | 23:29.70 |  3:59.27 |    105745    |   123696
        9  | 27:29.22 |  3:37.51 |    123697    |   140022
       10  | 31:06.73 |  4:01.52 |    140023    |   158149
       11  | 35:08.50 |  5:56.49 |    158150    |   184898
       12  | 41:05.24 |  3:51.38 |    184899    |   202261
       13  | 44:56.62 |  4:38.51 |    202262    |   223162
       14  | 49:35.38 |  6:19.61 |    223163    |   251648
       15  | 55:55.24 |  5:33.38 |    251649    |   276661
Range status and errors
Selected range
     Filename G:\CD\Ken Hensley - Live Tales.wav
     Peak level 99.5 %
     Extraction speed 5.8 X
     Range quality 99.9 %
     Test CRC B253B379
     Copy CRC B253B379
     Copy OK
No errors occurred
AccurateRip summary
Track  1  not present in database
Track  2  not present in database
Track  3  not present in database
Track  4  not present in database
Track  5  not present in database
Track  6  not present in database
Track  7  not present in database
Track  8  not present in database
Track  9  not present in database
Track 10  not present in database
Track 11  not present in database
Track 12  not present in database
Track 13  not present in database
Track 14  not present in database
Track 15  not present in database
None of the tracks are present in the AccurateRip database
End of status report
==== Log checksum 560899E0F39D11914C9841B9186DA85B5FC3F9A8588749708828BC5E6E0901A0 ====

Содержание индексной карты (.CUE)

REM GENRE "Acoustic Hard Rock"
REM DATE 2013
REM DISCID C60E680F
REM COMMENT "ExactAudioCopy v1.0b3"
PERFORMER "Ken Hensley"
TITLE "Live Tales"
FILE "Ken Hensley - Live Tales.flac" WAVE
  TRACK 01 AUDIO
    TITLE "Introduction"
    PERFORMER "Ken Hensley"
    INDEX 01 00:00:00
  TRACK 02 AUDIO
    TITLE "Free Me"
    PERFORMER "Ken Hensley"
    INDEX 01 01:44:36
  TRACK 03 AUDIO
    TITLE "Longer Shadows"
    PERFORMER "Ken Hensley"
    INDEX 01 06:02:54
  TRACK 04 AUDIO
    TITLE "The Wizard"
    PERFORMER "Ken Hensley"
    INDEX 01 09:48:04
  TRACK 05 AUDIO
    TITLE "I Don't Wanna Wait"
    PERFORMER "Ken Hensley"
    INDEX 01 13:29:33
  TRACK 06 AUDIO
    TITLE "Wise Man"
    PERFORMER "Ken Hensley"
    INDEX 01 16:50:66
  TRACK 07 AUDIO
    TITLE "Through The Eyes Of A Child"
    PERFORMER "Ken Hensley"
    INDEX 01 20:36:57
  TRACK 08 AUDIO
    TITLE "Rain"
    PERFORMER "Ken Hensley"
    INDEX 00 23:29:39
    INDEX 01 23:29:70
  TRACK 09 AUDIO
    TITLE "Come To Me"
    PERFORMER "Ken Hensley"
    INDEX 01 27:29:22
  TRACK 10 AUDIO
    TITLE "There Comes A Time"
    PERFORMER "Ken Hensley"
    INDEX 01 31:06:73
  TRACK 11 AUDIO
    TITLE "July Morning"
    PERFORMER "Ken Hensley"
    INDEX 01 35:08:50
  TRACK 12 AUDIO
    TITLE "Slipping Away"
    PERFORMER "Ken Hensley"
    INDEX 01 41:05:24
  TRACK 13 AUDIO
    TITLE "Tales"
    PERFORMER "Ken Hensley"
    INDEX 01 44:56:62
  TRACK 14 AUDIO
    TITLE "I Close My Eyes"
    PERFORMER "Ken Hensley"
    INDEX 01 49:35:38
  TRACK 15 AUDIO
    TITLE "Lady In Black"
    PERFORMER "Ken Hensley"
    INDEX 01 55:55:24

Лог проверки качества (Audiochecker)

AUDIOCHECKER v2.0 beta (build 457) - by Dester - opdester@freemail.hu
~~~~~~~~~~~~~~~~~~~~~~~~~~~~~~~~~~
-=== DO NOT EDIT THIS FILE! ===-
Path: ...\2013 - Ken Hensley - Live Tales (Cherry Red Records, CDBRED568)
1 -=- Ken Hensley - Live Tales.flac -=- CDDA (100%)
64807524

Скриншот спектра частот

Об альбоме (сборнике)

Концертный, сольный, акустический концерт легендарного певца, гитариста и участника группы Uriah Heep. Альбом был записан 20 августа 2012 года в La Caja Negra, Las Cigarreras, Alcante, Spain. В треклист альбома вошли композиции как сольные, так и периода группы Uriah Heep.

Cover – Rear, CD, CD Matrix

--
[Профиль] [ЛС]
Показать сообщения:    

Текущее время: Сегодня 20:08

Часовой пояс: GMT



Вы не можете начинать темы
Вы не можете отвечать на сообщения
Вы не можете редактировать свои сообщения
Вы не можете удалять свои сообщения
Вы не можете голосовать в опросах
Вы не можете прикреплять файлы к сообщениям
Вы не можете скачивать файлы