(Hard Rock) Ken Hensley & Live Fire - Trouble - 2013, FLAC (image+.cue), lossless

 
Автор Сообщение

sergej644 ®

Пол:

Стаж: 4 года 11 месяцев

Сообщений: 6046

Откуда: Soviet Union



Награды: Нет

Торрент-статистика

Создавать темы 02-Ноя-2014 21:31

[Цитировать]

--Ken Hensley & Live Fire / Trouble
Жанр: Hard Rock
Страна-производитель диска: EU, UK
Год издания: 2013
Издатель (лейбл): Hear No Evil
Номер по каталогу: HNECD028
Страна: England
Аудиокодек: FLAC (*.flac)
Тип рипа: image+.cue
Битрейт аудио: lossless
Продолжительность: 00:51:18
Источник (релизер): gerrV
Наличие сканов в содержимом раздачи: да (JPG, 600dpi, 68Mb)-Об альбоме: Trouble – второй студийный альбома клавишника и гитариста Ken Hensley записанный с группой Live Fire.
Состав:
- Roberto Tiranti – Bass Guitar and Lead Vocals
- Tom Arne Fossheim – Drums
- Ken Ingwerser – Guitar and Backing Vocals
- Ken Hensley – Hammond Organ, Guitars and Vocals-Треклист:
01. Ready to Die - 4:25
02. Trouble - 6:03
03. It - 6:56
04. Todo Loco - 6:29
05. I Wanna Go Back - 4:58
06. Please Explain - 5:11
07. You Will Always Be Mine - 4:09
08. I Don't Know - 4:43
09. Dangerous Desire - 3:51
10. The Longest Night - 4:35
-Discogs | Official site-

Лог создания рипа (EAC)

Exact Audio Copy V1.0 beta 3 from 29. August 2011
EAC extraction logfile from 18. October 2013, 0:37
Ken Hensley & Live Fire / Trouble
Used drive  : ATAPI   iHAS124   B   Adapter: 2  ID: 0
Read mode               : Secure
Utilize accurate stream : Yes
Defeat audio cache      : Yes
Make use of C2 pointers : No
Read offset correction                      : 6
Overread into Lead-In and Lead-Out          : No
Fill up missing offset samples with silence : Yes
Delete leading and trailing silent blocks   : No
Null samples used in CRC calculations       : Yes
Used interface                              : Native Win32 interface for Win NT & 2000
Used output format              : User Defined Encoder
Selected bitrate                : 1024 kBit/s
Quality                         : High
Add ID3 tag                     : No
Command line compressor         : C:\Program Files (x86)\Exact Audio Copy\FLAC\FLAC.EXE
Additional command line options : -8 -V -T "ARTIST=%artist%" -T "TITLE=%title%" -T "ALBUM=%albumtitle%" -T "DATE=%year%" -T "TRACKNUMBER=%tracknr%" -T "GENRE=%genre%" -T "PERFORMER=%albuminterpret%" -T "COMPOSER=%composer%" %haslyrics%--tag-from-file=LYRICS="%lyricsfile%"%haslyrics% -T "ALBUMARTIST=%albumartist%" -T "DISCNUMBER=%cdnumber%" -T "TOTALDISCS=%totalcds%" -T "TOTALTRACKS=%numtracks%" -T "COMMENT=%comment%" %source% -o %dest%
TOC of the extracted CD
     Track |   Start  |  Length  | Start sector | End sector
    ---------------------------------------------------------
        1  |  0:00.00 |  4:24.48 |         0    |    19847
        2  |  4:24.48 |  6:02.52 |     19848    |    47049
        3  | 10:27.25 |  6:56.33 |     47050    |    78282
        4  | 17:23.58 |  6:28.41 |     78283    |   107423
        5  | 23:52.24 |  4:57.41 |    107424    |   129739
        6  | 28:49.65 |  5:10.44 |    129740    |   153033
        7  | 34:00.34 |  4:09.19 |    153034    |   171727
        8  | 38:09.53 |  4:43.06 |    171728    |   192958
        9  | 42:52.59 |  3:50.53 |    192959    |   210261
       10  | 46:43.37 |  4:34.45 |    210262    |   230856
Range status and errors
Selected range
     Filename G:\CD\Ken Hensley & Live Fire - Trouble.wav
     Peak level 100.0 %
     Extraction speed 5.7 X
     Range quality 100.0 %
     Test CRC EC4E0602
     Copy CRC EC4E0602
     Copy OK
No errors occurred
AccurateRip summary
Track  1  not present in database
Track  2  not present in database
Track  3  not present in database
Track  4  not present in database
Track  5  not present in database
Track  6  not present in database
Track  7  not present in database
Track  8  not present in database
Track  9  not present in database
Track 10  not present in database
None of the tracks are present in the AccurateRip database
End of status report
==== Log checksum 0DB7A0D560DF6C5109CE5DACC3D904D06924C7181C278ECF86FA6AA654F2CE3D ====

Содержание индексной карты (.CUE)

REM GENRE "Hard Rock"
REM DATE 2013
REM DISCID 7A0C060A
REM COMMENT "ExactAudioCopy v1.0b3"
CATALOG 5013929912427
PERFORMER "Ken Hensley & Live Fire"
TITLE "Trouble"
FILE "Ken Hensley & Live Fire - Trouble.flac" WAVE
  TRACK 01 AUDIO
    TITLE "Ready to Die"
    PERFORMER "Ken Hensley & Live Fire"
    ISRC GBBLY1301796
    INDEX 01 00:00:00
  TRACK 02 AUDIO
    TITLE "Trouble"
    PERFORMER "Ken Hensley & Live Fire"
    ISRC GBBLY1301797
    INDEX 01 04:24:48
  TRACK 03 AUDIO
    TITLE "It"
    PERFORMER "Ken Hensley & Live Fire"
    ISRC GBBLY1301798
    INDEX 01 10:27:25
  TRACK 04 AUDIO
    TITLE "Todo Loco"
    PERFORMER "Ken Hensley & Live Fire"
    ISRC GBBLY1301799
    INDEX 01 17:23:58
  TRACK 05 AUDIO
    TITLE "I Wanna Go Back"
    PERFORMER "Ken Hensley & Live Fire"
    ISRC GBBLY1301800
    INDEX 01 23:52:24
  TRACK 06 AUDIO
    TITLE "Please Explain"
    PERFORMER "Ken Hensley & Live Fire"
    ISRC GBBLY1301801
    INDEX 01 28:49:65
  TRACK 07 AUDIO
    TITLE "You Will Always Be Mine"
    PERFORMER "Ken Hensley & Live Fire"
    ISRC GBBLY1301802
    INDEX 01 34:00:34
  TRACK 08 AUDIO
    TITLE "I Don't Know"
    PERFORMER "Ken Hensley & Live Fire"
    ISRC GBBLY1301803
    INDEX 01 38:09:53
  TRACK 09 AUDIO
    TITLE "Dangerous Desire"
    PERFORMER "Ken Hensley & Live Fire"
    ISRC GBBLY1301804
    INDEX 01 42:52:59
  TRACK 10 AUDIO
    TITLE "The Longest Night"
    PERFORMER "Ken Hensley & Live Fire"
    ISRC GBBLY1301805
    INDEX 01 46:43:37

Tau Analyzer , Back, CDs, CDs Matrix


--
[Профиль] [ЛС]
Показать сообщения:    

Текущее время: Сегодня 21:35

Часовой пояс: GMT



Вы не можете начинать темы
Вы не можете отвечать на сообщения
Вы не можете редактировать свои сообщения
Вы не можете удалять свои сообщения
Вы не можете голосовать в опросах
Вы не можете прикреплять файлы к сообщениям
Вы не можете скачивать файлы