(Rock, Hard Rock) Ken Hensley - Greatest Hits (2CD) - 2012 (ZEBRA Studio/DIGITAL Records AZ 144), FLAC (image+.cue), lossless

 
Автор Сообщение

sergej644 ®

Пол:

Стаж: 4 года 11 месяцев

Сообщений: 6046

Откуда: Soviet Union



Награды: Нет

Торрент-статистика

Создавать темы 02-Ноя-2014 22:06

[Цитировать]

--Ken Hensley - Greatest Hits
Жанр: Rock, Hard Rock
Страна-производитель диска: Russia
Год издания диска: 2012
Издатель (лейбл): ZEBRA Studio/DIGITAL Records
Номер по каталогу: AZ 144
Страна: UK
Аудио кодек: FLAC (*.flac)
Тип рипа: image+.cue
Битрейт аудио: lossless
Продолжительность: 02:36:15
Источник (релизер): LYNCH MOB
Наличие сканов в содержимом раздачи: да
Треклист:

Disc One | 01:17:38

01. From Time To Time 03:37
02. Prelude:A Minor Life 02:53
03. You've Got It (The American Dream) 03:28
04. I Did It All 08:03
05. The House On The Hill 03:40
06. Romance 04:36
07. Free Spirit 03:42
08. Send Me An Angel 04:40
09. Go Down 03:50
10. There Comes A Time 04:25
11. The Final Solution 03:31
12. Eager To Please 04:52
13. Inside The Mystery 04:35
14. What You Gonna Do 03:25
15. Blood On The Highway 03:52
16. Brown Eyed Boy 04:04
17. Black Hearted Lady 03:34
18. Set Me Free (From Yesterday) 06:41

Лог создания рипа

Exact Audio Copy V0.99 prebeta 5 from 4. May 2009
Отчёт EAC об извлечении, выполненном 19. октября 2012, 23:30
Ken Hensley / Greatest Hits (CD1)
Дисковод: TOSHIBA ODD-DVD SD-M1802 Adapter: 1 ID: 0
Режим чтения : Достоверность
Использование точного потока : Да
Отключение кэша аудио : Да
Использование указателей C2 : Нет
Коррекция смещения при чтении : 691
Способность читать области Lead-in и Lead-out : Нет
Заполнение пропущенных сэмплов тишиной : Да
Удаление блоков с тишиной в начале и конце : Нет
При вычислениях CRC использовались нулевые сэмплы : Да
Интерфейс : Установленный внешний ASPI-интерфейс
Выходной формат : Пользовательский кодировщик
Выбранный битрейт : 1024 kBit/s
Качество : Высокий
Добавление ID3-тэга : Нет
Утилита сжатия : C:\Program Files\Exact Audio Copy\Flac\flac.exe
Дополнительные параметры : -8 -V %s
TOC извлечённого CD
Трек | Старт | Длительность | Начальный сектор | Конечный сектор
---------------------------------------------------------------------
1 | 0:00.00 | 3:37.39 | 0 | 16313
2 | 3:37.39 | 2:53.51 | 16314 | 29339
3 | 6:31.15 | 3:28.04 | 29340 | 44943
4 | 9:59.19 | 8:03.32 | 44944 | 81200
5 | 18:02.51 | 3:40.45 | 81201 | 97745
6 | 21:43.21 | 4:36.46 | 97746 | 118491
7 | 26:19.67 | 3:42.45 | 118492 | 135186
8 | 30:02.37 | 4:40.34 | 135187 | 156220
9 | 34:42.71 | 3:50.66 | 156221 | 173536
10 | 38:33.62 | 4:25.48 | 173537 | 193459
11 | 42:59.35 | 3:31.55 | 193460 | 209339
12 | 46:31.15 | 4:52.53 | 209340 | 231292
13 | 51:23.68 | 4:35.31 | 231293 | 251948
14 | 55:59.24 | 3:25.65 | 251949 | 267388
15 | 59:25.14 | 3:52.22 | 267389 | 284810
16 | 63:17.36 | 4:04.69 | 284811 | 303179
17 | 67:22.30 | 3:34.15 | 303180 | 319244
18 | 70:56.45 | 6:41.66 | 319245 | 349385
Характеристики диапазона извлечения и сообщения об ошибках
Выбранный диапазон
Имя файла C:\Documents and Settings\Admin\Рабочий стол\Новая папка\Ken Hensley - Greatest Hits (CD1).wav
Пиковый уровень 89.1 %
Качество диапазона 100.0 %
CRC теста 244561FA
CRC копии 244561FA
Копирование... OK
Ошибок не произошло
AccurateRip: сводка
Трек 1 нет в базе данных
Трек 2 нет в базе данных
Трек 3 нет в базе данных
Трек 4 нет в базе данных
Трек 5 нет в базе данных
Трек 6 нет в базе данных
Трек 7 нет в базе данных
Трек 8 нет в базе данных
Трек 9 нет в базе данных
Трек 10 нет в базе данных
Трек 11 нет в базе данных
Трек 12 нет в базе данных
Трек 13 нет в базе данных
Трек 14 нет в базе данных
Трек 15 нет в базе данных
Трек 16 нет в базе данных
Трек 17 нет в базе данных
Трек 18 нет в базе данных
Ни одного трека нет в базе AccurateRip
Конец отчёта

Содержание индексной карты (.CUE)

REM GENRE "Hard Rock"
REM DATE 2012
REM DISCID 02123212
REM COMMENT "ExactAudioCopy v0.99pb5"
PERFORMER "Ken Hensley"
TITLE "Greatest Hits (CD1)"
FILE "Ken Hensley - Greatest Hits (CD1).flac" WAVE
  TRACK 01 AUDIO
    TITLE "From Time To Time"
    PERFORMER "Ken Hensley"
    INDEX 01 00:00:00
  TRACK 02 AUDIO
    TITLE "Prelude:A Minor Life"
    PERFORMER "Ken Hensley"
    INDEX 01 03:37:39
  TRACK 03 AUDIO
    TITLE "You've Got It (The American Dream) "
    PERFORMER "Ken Hensley"
    INDEX 01 06:31:15
  TRACK 04 AUDIO
    TITLE "I Did It All"
    PERFORMER "Ken Hensley"
    INDEX 01 09:59:19
  TRACK 05 AUDIO
    TITLE "The House On The Hill"
    PERFORMER "Ken Hensley"
    INDEX 01 18:02:51
  TRACK 06 AUDIO
    TITLE "Romance"
    PERFORMER "Ken Hensley"
    INDEX 01 21:43:21
  TRACK 07 AUDIO
    TITLE "Free Spirit"
    PERFORMER "Ken Hensley"
    INDEX 01 26:19:67
  TRACK 08 AUDIO
    TITLE "Send Me An Angel"
    PERFORMER "Ken Hensley"
    INDEX 01 30:02:37
  TRACK 09 AUDIO
    TITLE "Go Down"
    PERFORMER "Ken Hensley"
    INDEX 01 34:42:71
  TRACK 10 AUDIO
    TITLE "There Comes A Time"
    PERFORMER "Ken Hensley"
    INDEX 01 38:33:62
  TRACK 11 AUDIO
    TITLE "The Final Solution"
    PERFORMER "Ken Hensley"
    INDEX 01 42:59:35
  TRACK 12 AUDIO
    TITLE "Eager To Please"
    PERFORMER "Ken Hensley"
    INDEX 01 46:31:15
  TRACK 13 AUDIO
    TITLE "Inside The Mystery"
    PERFORMER "Ken Hensley"
    INDEX 01 51:23:68
  TRACK 14 AUDIO
    TITLE "What You Gonna Do"
    PERFORMER "Ken Hensley"
    INDEX 01 55:59:24
  TRACK 15 AUDIO
    TITLE "Blood On The Highway"
    PERFORMER "Ken Hensley"
    INDEX 01 59:25:14
  TRACK 16 AUDIO
    TITLE "Brown Eyed Boy"
    PERFORMER "Ken Hensley"
    INDEX 01 63:17:36
  TRACK 17 AUDIO
    TITLE "Black Hearted Lady"
    PERFORMER "Ken Hensley"
    INDEX 01 67:22:30
  TRACK 18 AUDIO
    TITLE "Set Me Free (From Yesterday)"
    PERFORMER "Ken Hensley"
    INDEX 01 70:56:45

Лог проверки качества

-----------------------
DON'T MODIFY THIS FILE
-----------------------
PERFORMER: auCDtect Task Manager, ver. 1.5.1RC4 build 1.5.1.5
Copyright (c) 2008-2010 y-soft. All rights reserved
http://y-soft.org
ANALYZER: auCDtect: CD records authenticity detector, version 0.8.2
Copyright (c) 2004 Oleg Berngardt. All rights reserved.
Copyright (c) 2004 Alexander Djourik. All rights reserved.
FILE: Ken Hensley - Greatest Hits (CD1).flac
  Size: 491257319 Hash: FDAF4CCE3FDEE82BDAFD735D699635A7 Accuracy: -m8
  Conclusion: CDDA 100%
  Signature: B5D0CAB55C20E23CD0EE4D7B06C643856B7CF1EE

Disc Two | 01:18:36

01. I Don't Wanna Wait 05:15
02. The System 02:34
03. Rain 03:12
04. Okay (This House Is Down) 03:46
05. (This Is) Just The Beginning 04:38
06. It Won't Last 05:21
07. Proud Words On A Dusty Shelf 03:14
08. Think Twice 05:11
09. Part Three 03:46
10. When Evening Comes 04:35
11. Out Of My Control 04:56
12. Woman 03:20
13. A King Without A Throne 03:49
14. Through The Eyes Of A Child 02:16
15. The Last Dance (El Gitano Viejo) 08:08
16. Cold Autumn Sunday 05:27
17. We're On Our Way 04:48
18. Lady In Black (Original '03 Remix) 04:11

Лог создания рипа

Exact Audio Copy V0.99 prebeta 5 from 4. May 2009
Отчёт EAC об извлечении, выполненном 20. октября 2012, 0:22
Ken Hensley / Greatest Hits (CD2)
Дисковод: TOSHIBA ODD-DVD SD-M1802 Adapter: 1 ID: 0
Режим чтения : Достоверность
Использование точного потока : Да
Отключение кэша аудио : Да
Использование указателей C2 : Нет
Коррекция смещения при чтении : 691
Способность читать области Lead-in и Lead-out : Нет
Заполнение пропущенных сэмплов тишиной : Да
Удаление блоков с тишиной в начале и конце : Нет
При вычислениях CRC использовались нулевые сэмплы : Да
Интерфейс : Установленный внешний ASPI-интерфейс
Выходной формат : Пользовательский кодировщик
Выбранный битрейт : 1024 kBit/s
Качество : Высокий
Добавление ID3-тэга : Нет
Утилита сжатия : C:\Program Files\Exact Audio Copy\Flac\flac.exe
Дополнительные параметры : -8 -V %s
TOC извлечённого CD
Трек | Старт | Длительность | Начальный сектор | Конечный сектор
---------------------------------------------------------------------
1 | 0:00.00 | 5:15.17 | 0 | 23641
2 | 5:15.17 | 2:34.55 | 23642 | 35246
3 | 7:49.72 | 3:12.74 | 35247 | 49720
4 | 11:02.71 | 3:46.40 | 49721 | 66710
5 | 14:49.36 | 4:38.22 | 66711 | 87582
6 | 19:27.58 | 5:21.65 | 87583 | 111722
7 | 24:49.48 | 3:14.52 | 111723 | 126324
8 | 28:04.25 | 5:11.02 | 126325 | 149651
9 | 33:15.27 | 3:46.33 | 149652 | 166634
10 | 37:01.60 | 4:35.33 | 166635 | 187292
11 | 41:37.18 | 4:56.02 | 187293 | 209494
12 | 46:33.20 | 3:20.25 | 209495 | 224519
13 | 49:53.45 | 3:49.63 | 224520 | 241757
14 | 53:43.33 | 2:16.51 | 241758 | 252008
15 | 56:00.09 | 8:08.24 | 252009 | 288632
16 | 64:08.33 | 5:27.44 | 288633 | 313201
17 | 69:36.02 | 4:48.66 | 313202 | 334867
18 | 74:24.68 | 4:11.70 | 334868 | 353762
Характеристики диапазона извлечения и сообщения об ошибках
Выбранный диапазон
Имя файла C:\Documents and Settings\Admin\Рабочий стол\Новая папка\Ken Hensley - Greatest Hits (CD2).wav
Пиковый уровень 89.1 %
Качество диапазона 100.0 %
CRC теста 16DB5F3B
CRC копии 16DB5F3B
Копирование... OK
Ошибок не произошло
AccurateRip: сводка
Трек 1 нет в базе данных
Трек 2 нет в базе данных
Трек 3 нет в базе данных
Трек 4 нет в базе данных
Трек 5 нет в базе данных
Трек 6 нет в базе данных
Трек 7 нет в базе данных
Трек 8 нет в базе данных
Трек 9 нет в базе данных
Трек 10 нет в базе данных
Трек 11 нет в базе данных
Трек 12 нет в базе данных
Трек 13 нет в базе данных
Трек 14 нет в базе данных
Трек 15 нет в базе данных
Трек 16 нет в базе данных
Трек 17 нет в базе данных
Трек 18 нет в базе данных
Ни одного трека нет в базе AccurateRip
Конец отчёта

Содержание индексной карты (.CUE)

REM GENRE "Hard Rock"
REM DATE 2012
REM DISCID 2E126C12
REM COMMENT "ExactAudioCopy v0.99pb5"
PERFORMER "Ken Hensley"
TITLE "Greatest Hits (CD2)"
FILE "Ken Hensley - Greatest Hits (CD2).flac" WAVE
  TRACK 01 AUDIO
    TITLE "I Don't Wanna Wait"
    PERFORMER "Ken Hensley"
    INDEX 01 00:00:00
  TRACK 02 AUDIO
    TITLE "The System"
    PERFORMER "Ken Hensley"
    INDEX 01 05:15:17
  TRACK 03 AUDIO
    TITLE "Rain"
    PERFORMER "Ken Hensley"
    INDEX 01 07:49:72
  TRACK 04 AUDIO
    TITLE "Okay (This House Is Down)"
    PERFORMER "Ken Hensley"
    INDEX 01 11:02:71
  TRACK 05 AUDIO
    TITLE "(This Is) Just The Beginning"
    PERFORMER "Ken Hensley"
    INDEX 01 14:49:36
  TRACK 06 AUDIO
    TITLE "It Won't Last "
    PERFORMER "Ken Hensley"
    INDEX 01 19:27:58
  TRACK 07 AUDIO
    TITLE "Proud Words On A Dusty Shelf "
    PERFORMER "Ken Hensley"
    INDEX 01 24:49:48
  TRACK 08 AUDIO
    TITLE "Think Twice"
    PERFORMER "Ken Hensley"
    INDEX 01 28:04:25
  TRACK 09 AUDIO
    TITLE "Part Three"
    PERFORMER "Ken Hensley"
    INDEX 01 33:15:27
  TRACK 10 AUDIO
    TITLE "When Evening Comes"
    PERFORMER "Ken Hensley"
    INDEX 01 37:01:60
  TRACK 11 AUDIO
    TITLE "Out Of My Control"
    PERFORMER "Ken Hensley"
    INDEX 01 41:37:18
  TRACK 12 AUDIO
    TITLE "Woman"
    PERFORMER "Ken Hensley"
    INDEX 01 46:33:20
  TRACK 13 AUDIO
    TITLE "A King Without A Throne"
    PERFORMER "Ken Hensley"
    INDEX 01 49:53:45
  TRACK 14 AUDIO
    TITLE "Through The Eyes Of A Child"
    PERFORMER "Ken Hensley"
    INDEX 01 53:43:33
  TRACK 15 AUDIO
    TITLE "The Last Dance (El Gitano Viejo)"
    PERFORMER "Ken Hensley"
    INDEX 01 56:00:09
  TRACK 16 AUDIO
    TITLE "Cold Autumn Sunday"
    PERFORMER "Ken Hensley"
    INDEX 01 64:08:33
  TRACK 17 AUDIO
    TITLE "We're On Our Way"
    PERFORMER "Ken Hensley"
    INDEX 01 69:36:02
  TRACK 18 AUDIO
    TITLE "Lady In Black (Original '03 Remix)"
    PERFORMER "Ken Hensley"
    INDEX 01 74:24:68

Лог проверки качества

-----------------------
DON'T MODIFY THIS FILE
-----------------------
PERFORMER: auCDtect Task Manager, ver. 1.5.1RC4 build 1.5.1.5
Copyright (c) 2008-2010 y-soft. All rights reserved
http://y-soft.org
ANALYZER: auCDtect: CD records authenticity detector, version 0.8.2
Copyright (c) 2004 Oleg Berngardt. All rights reserved.
Copyright (c) 2004 Alexander Djourik. All rights reserved.
FILE: Ken Hensley - Greatest Hits (CD2).flac
  Size: 488601499 Hash: 64B128FB800F35494CCA263D251C5FBC Accuracy: -m8
  Conclusion: CDDA 100%
  Signature: CCFBA06BF42EB74CF7ADC54D8D599755455A3906
-Доп. информация:

Об исполнителе

Кен Хенсли родился в Лондоне 24 августа 1945 года, а спустя 10 лет вместе со своей семьей переехал в Стивенэйдж. Именно там, когда ему стукнуло 12 лет, Кен начал осваивать гитару. В начале 60-х Хенсли уже играл в различных местных командах: "The Blue Notes", "Ken And The Cousins", "Kit And The Saracens", "The Jimmy Brown Sound". Последняя группа сделала даже кое-какие записи, но до нашего времени они не сохранились. В 1965 году Кен, утративший интерес к музыке соул, на которой специализировались "TJBS", обратился к хард-року и вместе с Миком Тэйлором вошел в состав "The Gods". Здесь он впервые развернулся в полную силу: писал основную часть композиций, пел и здорово играл на органе "Hammond B3". Группа выпустила пару альбомов, но вскоре распалась, а часть ее участников (в том числе и Хенсли) ушла к Клиффу Беннетту в "Toe Fat". Параллельно музыкант засветился в проекте "Head Machine", причем в тот период (как и в начале своей карьеры) он в основном играл на гитаре. В конце 1969-го Кен принял предложение Пола Ньютона присоединиться к "Spice", поскольку эта команда искала клавишника, чтобы сделать звучание менее блюзовым и более прогрессивным. Вскоре группа сменила название на "Uriah Heep", а Хенсли получил прекрасную возможность отточить свое мастерство как в роли автора музыки и текстов, так и в роли исполнителя.
В составе легендарной команды Кен провел десять лет, записав с ней за это время 13 студийных альбомов и создав кучу классических хитов вроде "July Morning", "Lady In Black", "Look At Yourself" и "Easy Livin'". За этот период музыкант также успел выпустить пару сольных работ, "Proud Words On A Dusty Shelf" и "Eager To Please". Оба альбома звучали помягче чем пластинки основной группы Хенсли, но тем не менее "хиповые" корни в них чувствовались. Последний момент особенно касался "Proud Words On A Dusty Shelf", да и это было вполне оправданно, ведь при записи диска вместе с Хенсли трудилась ритм-секция из Гэри Тэйна и Ли Керслейка.
После ухода Дэвида Байрона звучание "Uriah Heep" заметно изменилось, волшебная искра в их творчестве стала постепенно угасать, и в 1980-м Хенсли, разочарованный создавшимся положением, покинул команду. В том же году вышел сольник "Free Spirit", существенно отличавшийся от ранних опусов Кена. Нет, конечно там были и рокешники, и фирменные баллады хенслиевские типа "Woman" и "No More", но от многих композиций разило восьмидесятническим синт-попом. После неудачной попытки собрать в Англии собственный проект "Shotgun" Кен перебрался в Америку, где некоторое время выступал под флагом "Ken Hensley Band". Позже, в 1982 году, он присоединился к флоридским рокерам "Blackfoot", с которыми выпустил пару относительно успешных альбомов. Печальное известие о смерти Дэвида Байрона настолько сильно подействовало на Хенсли, что он не только ушел из группы, но и вообще исчез с большой сцены на долгие годы. Последующее десятилетие Кен провел взаперти, лишь изредка завязывая кратковременное сотрудничество с командами типа "W.A.S.P." и "Cinderella".
Только в 1994 году Хенсли выпустил альбом "From Time To Time". Сообразно названию диск включал в себя композиции, написанные музыкантом в период с 1971 по 1982 годы, а также некоторые ранние версии "хиповской" классики. Постепенно активность Хенсли начала возрастать, и в 1999-м он издал прорелигиозный альбом "A Glimpse Of Glory", содержавший эклектичную подборку баллад и хард-роковых номеров. На следующий год Кен скооперировался со своим бывшим коллегой Джоном Лоутоном, с которым не выступал более 20 лет. Под маркой "Hensley / Lawton Band" прошли успешные европейские гастроли, а позже были изданы два диска, "The Return" и "Salisbury Live".
В 2002 году в содружестве с другим бывшим "хипом", Джоном Веттоном, Хенсли также выпустил пару альбомов ("More Than Conquerors", "One Way Or Another"), после чего занялся изданием сольных работ. В 2002 и 2003 годах один за другим вышли диски "Running Blind" и "The Last Dance". На первом превалировал бодрый утяжеленный AOR с ведущим органом, а второй был отдан во власть гитар, но при этом звучал более мягко и ностальгически-меланхолично. В 2004-м Кен в очередной раз обратился к классике "Uriah Heep", записав в компании с российскими музыкантами первую часть "Дневников Волшебника". Следующая пластинка также по сути являлась сборником, но во-первых для "Cold Autumn Sunday" Хенсли переделывал только сольные номера, а во-вторых ему помогали уже не россияне, а испанцы.
Свежий материал появился в 2007-м, причем "Blood On The Highway" являлся не просто студийным альбомом, а рок-оперой, описывающей тернистый путь рок-звезды. По оценкам критиков диск стал лучшей работой музыканта со времен 70-х, а поспособствовали в этом Кену приглашенные вокалисты Йорн Ланде, Гленн Хьюз, Джон Лоутон и Ева Галлахер. Отзывы на альбом, открывший следующую декаду, оказались не такими благожелательными. "Faster" был стилизован под 70-е, но не под "Uriah Heep", а скорее под "Rainbow", и видимо уже этим моментом досадил обозревателям. Тем не менее, маэстро не прислушивался к голосу толпы и вскоре вообще ушел из рока, записав диск романтических поп-баллад "Love & Other Mysteries".
--
[Профиль] [ЛС]
Показать сообщения:    

Текущее время: Сегодня 16:53

Часовой пояс: GMT



Вы не можете начинать темы
Вы не можете отвечать на сообщения
Вы не можете редактировать свои сообщения
Вы не можете удалять свои сообщения
Вы не можете голосовать в опросах
Вы не можете прикреплять файлы к сообщениям
Вы не можете скачивать файлы