(rock) Ken Hensley (Uriah Heep) - From Time To Time - 1994, APE (image + .cue), lossless

 
Автор Сообщение

sergej644 ®

Пол:

Стаж: 4 года 11 месяцев

Сообщений: 6040

Откуда: Soviet Union



Награды: Нет

Торрент-статистика

Создавать темы 11-Ноя-2014 15:54

[Цитировать]

Ken Hensley (ex-Uriah Heep) - From Time To Time
Страна: england
Жанр: rock
Год выпуска: 1994
Формат: APE (image + .cue)
Битрейт аудио: lossless
Продолжительность: 59:25
Трэклист:
01. Inspiration (Hensley) 3.17
02. I Don't Wanna Wait (Hensley) 4.08
03. There Comes A Time (Hensley) 3.56
04. Love At First Sight (Hensley) 3.25
05. You (Hensley) 3.26
06. The Name Of The Game (Hensley) 3.23
07. Guilty (Hensley) 2.57
08. Who Will Sing For You (Hensley) 2.52
09. Maybe You Can Tell Me (Hensley) 3.25
10. Free Spirit (Hensley) 3.24
11. Cold Autumn Sunday (Hensley) 6.54
12. Longer Shadows (Hensley) 3.16
13. Black-Hearted Lady (Hensley) 3.30
14. Take Care (Hensley) 2.54
15. Does Anything Matter (Hensley) 3.54
16. If I Had The Time (Hensley) 5.15

Отчёт ЕАС

Exact Audio Copy V0.99 prebeta 3 from 28. July 2007
Отчёт EAC об извлечении, выполненном 9. декабря 2007, 9:45
Ken Hensley / From Time to Time
Дисковод: _NEC DVD_RW ND-4550A Adapter: 1 ID: 1
Режим чтения : Достоверность
Использование точного потока : Да
Отключение кэша аудио : Да
Использование указателей C2 : Нет
Коррекция смещения при чтении : 48
Способность читать области Lead-in и Lead-out : Нет
Заполнение пропущенных сэмплов тишиной : Да
Удаление блоков с тишиной в начале и конце : Нет
При вычислениях CRC использовались нулевые сэмплы : Да
Интерфейс : Установленный внешний ASPI-интерфейс
Выходной формат : Monkey's Audio (без потерь)
Выбранный битрейт : Extra High Lossless Compression
Качество : Высокий
Добавление ID3-тэга : Нет
Утилита сжатия : C:\Program Files\Monkey's Audio\MAC.exe
TOC извлечённого CD
Трек | Старт | Длительность | Начальный сектор | Конечный сектор
---------------------------------------------------------------------
1 | 0:00.32 | 3:16.63 | 32 | 14794
2 | 3:17.20 | 4:08.27 | 14795 | 33421
3 | 7:25.47 | 3:56.05 | 33422 | 51126
4 | 11:21.52 | 3:25.38 | 51127 | 66539
5 | 14:47.15 | 3:26.30 | 66540 | 82019
6 | 18:13.45 | 3:23.20 | 82020 | 97264
7 | 21:36.65 | 2:57.55 | 97265 | 110594
8 | 24:34.45 | 2:52.40 | 110595 | 123534
9 | 27:27.10 | 3:25.17 | 123535 | 138926
10 | 30:52.27 | 3:24.48 | 138927 | 154274
11 | 34:17.00 | 6:54.45 | 154275 | 185369
12 | 41:11.45 | 3:16.37 | 185370 | 200106
13 | 44:28.07 | 3:30.30 | 200107 | 215886
14 | 47:58.37 | 2:54.48 | 215887 | 228984
15 | 50:53.10 | 3:17.42 | 228985 | 243801
16 | 54:10.52 | 5:14.23 | 243802 | 267374
Характеристики диапазона извлечения и сообщения об ошибках
Выбранный диапазон
Имя файла C:\Новая папка\Ken Hensley\Ken Hensley - From Time to Time.wav
Пиковый уровень 99.5 %
Качество диапазона 100.0 %
CRC копии ECE287D0
Копирование... OK
Ошибок не произошло
Конец отчёта
Доп. информация:
Альбом включает в себя песни записанные в период с 1971 по 1982 годы не входившие ни в один альбом (окромя If I Had The Time - в оригинале пел Байрон). Например четыре песни с сессии 1971 года на Студии Люксембург в Лондоне где играли Simon Kirke (Free, Bad Company) и Paul Kossoff (Free, Black Street Crawlers). В записях других песен принимали участие Ian Paice (Deep Purple, Whitesnake), Kenny Jones (The Who), Mick Ralphs (Mott The Hoople, Bad Company) и даже Clare Torry, которая надрывалась на альбоме The Dark Side Of The Moon в композиции The Great Gig In The Sky
Звучание Юрайа Хиповское (ИМХО Хенсли и есть Uriah Heep какой мы любим). Все лучшие песни Хипов написаны им. Кто знает, что песни Look At Yourself, Lady In Black и The Magician's Bithday (вдвоем с Байроном) поёт именно он в оригинале?
[Профиль] [ЛС]
Кто просматривает тему:

Показать сообщения:    

Текущее время: Сегодня 10:43

Часовой пояс: GMT



Вы не можете начинать темы
Вы не можете отвечать на сообщения
Вы не можете редактировать свои сообщения
Вы не можете удалять свои сообщения
Вы не можете голосовать в опросах
Вы не можете прикреплять файлы к сообщениям
Вы не можете скачивать файлы