(Classic Rock & Hard Rock) Ken Hensley - Elements - Anthology (1968 to 2005) - 2006, FLAC (image+.cue), lossless

 
Автор Сообщение

sergej644 ®

Пол:

Стаж: 4 года 11 месяцев

Сообщений: 6046

Откуда: Soviet Union



Награды: Нет

Торрент-статистика

Создавать темы 02-Ноя-2014 21:55

[Цитировать]

--Ken Hensley / Elements - Anthology (1968 to 2005)
Жанр: Classic Rock & Hard Rock
Страна-производитель диска: EU
Год издания: 2006
Издатель (лейбл): Sanctuary Records Group Ltd
Номер по каталогу: CMQDD1162
Страна: UK
Аудиокодек: FLAC (*.flac)
Тип рипа: image+.cue
Битрейт аудио: lossless
Продолжительность: 02:33:41
Источник (релизер): собственный диск
Наличие сканов в содержимом раздачи: да
Треклист:

CD 1 | 01:17:19

01. Looking Glass (The Gods) - 1968
02. Climax — You Tried To Take It All (Head Machine) - 1970
03. Working Nights (Toe Fat) - 1970
04. The Park (Uriah Heep) - 1971
05. Lady In Black (Uriah Heep) - 1971
06. Look At Yourself (Uriah Heep) - 1971
07. Tears In My Eyes (Uriah Heep) - 1971
08. The Wizard (Uriah Heep) - 1972
09. Rainbow Demon (Uriah Heep) - 1972
10. Sunrise (Uriah Heep) - 1972
11. Blind Eye (Uriah Heep) - 1972
12. If I Had Time (Uriah Heep) - 1973
13. The Easy Road (Uriah Heep) - 1974
14. A Year Or A Day (Uriah Heep) - 1975
15. Can't Keep A Good Band Down (Uriah Heep) - 1976
16. Wise Man (Uriah Heep) - 1977
17. Free Me (Uriah Heep) - 1977
18. Falling In Love (Uriah Heep) - 1978

Лог создания рипа

Exact Audio Copy V1.0 beta 3 from 29. August 2011
Отчёт EAC об извлечении, выполненном 9. апреля 2013, 11:49
Ken Hensley / Elements: Anthology 1968-2005 (Disc 1)
Дисковод: PIONEER DVD-RW  DVR-219L   Adapter: 3  ID: 1
Режим чтения                 : Достоверность
Использование точного потока : Да
Отключение кэша аудио        : Да
Использование указателей C2  : Нет
Коррекция смещения при чтении                     : 6
Способность читать области Lead-in и Lead-out     : Нет
Заполнение пропущенных сэмплов тишиной            : Да
Удаление блоков с тишиной в начале и конце        : Нет
При вычислениях CRC использовались нулевые сэмплы : Да
Интерфейс                                         : Встроенный Win32-интерфейс для Win NT/2000
Выходной формат          : Пользовательский кодировщик
Выбранный битрейт        : 768 kBit/s
Качество                 : Высокий
Добавление ID3-тега      : Нет
Утилита сжатия           : C:\Program Files\Exact Audio Copy\FLAC\FLAC.EXE
Дополнительные параметры : -6 -V -T "ARTIST=%artist%" -T "TITLE=%title%" -T "ALBUM=%albumtitle%" -T "DATE=%year%" -T "TRACKNUMBER=%tracknr%" -T "GENRE=%genre%" -T "COMMENT=%comment%" -T "BAND=%albuminterpret%" -T "ALBUMARTIST=%albuminterpret%" -T "COMPOSER=%composer%" %haslyrics%--tag-from-file=LYRICS="%lyricsfile%"%haslyrics% -T "DISCNUMBER=%cdnumber%" -T "TOTALDISCS=%totalcds%" -T "TOTALTRACKS=%numtracks%" %hascover%--picture="%coverfile%"%hascover% %source% -o %dest%
TOC извлечённого CD
     Трек |   Старт  | Длительность | Начальный сектор | Конечный сектор
    ---------------------------------------------------------------------
       1  |  0:00.29 |    4:11.57   |          29      |      18910
       2  |  4:12.11 |    6:50.06   |       18911      |      49666
       3  | 11:02.17 |    2:32.28   |       49667      |      61094
       4  | 13:34.45 |    5:41.25   |       61095      |      86694
       5  | 19:15.70 |    4:43.19   |       86695      |     107938
       6  | 23:59.14 |    5:08.58   |      107939      |     131096
       7  | 29:07.72 |    4:59.63   |      131097      |     153584
       8  | 34:07.60 |    2:58.08   |      153585      |     166942
       9  | 37:05.68 |    4:24.62   |      166943      |     186804
      10  | 41:30.55 |    4:04.16   |      186805      |     205120
      11  | 45:34.71 |    3:33.05   |      205121      |     221100
      12  | 49:08.01 |    6:17.10   |      221101      |     249385
      13  | 55:25.11 |    2:42.27   |      249386      |     261562
      14  | 58:07.38 |    4:26.11   |      261563      |     281523
      15  | 62:33.49 |    3:37.45   |      281524      |     297843
      16  | 66:11.19 |    4:41.01   |      297844      |     318919
      17  | 70:52.20 |    3:33.15   |      318920      |     334909
      18  | 74:25.35 |    2:53.49   |      334910      |     347933
Характеристики диапазона извлечения и сообщения об ошибках
Выбранный диапазон
     Имя файла E:\My Torrent\кен 1\Ken Hensley - Elements- Anthology 1968-2005 (Disc 1).wav
     Пиковый уровень 100.0 %
     Скорость извлечения 3.4 X
     Качество диапазона 100.0 %
     CRC теста A6BF5979
     CRC копии A6BF5979
     Копирование... OK
Ошибок не произошло
AccurateRip: сводка
Трек  1  : извлечено точно (доверие 1)  [422B0ABD]  (AR v2)
Трек  2  : извлечено точно (доверие 1)  [622FD5F2]  (AR v2)
Трек  3  : извлечено точно (доверие 1)  [BC109C67]  (AR v2)
Трек  4  : извлечено точно (доверие 1)  [501B3A69]  (AR v2)
Трек  5  : извлечено точно (доверие 1)  [322A0A81]  (AR v2)
Трек  6  : извлечено точно (доверие 1)  [F6254F1D]  (AR v2)
Трек  7  : извлечено точно (доверие 1)  [569627EF]  (AR v2)
Трек  8  : извлечено точно (доверие 1)  [3B75B1AA]  (AR v2)
Трек  9  : извлечено точно (доверие 1)  [960FA3E5]  (AR v2)
Трек 10  : извлечено точно (доверие 1)  [6A8DE526]  (AR v2)
Трек 11  отсутствует в базе данных
Трек 12  отсутствует в базе данных
Трек 13  отсутствует в базе данных
Трек 14  отсутствует в базе данных
Трек 15  отсутствует в базе данных
Трек 16  отсутствует в базе данных
Трек 17  отсутствует в базе данных
Трек 18  отсутствует в базе данных
Конец отчёта
==== Контрольная сумма отчёта 3F10502BAD23B822A792399AEFF907A32DC634B6C1A0F517DE5ED8F29B3B2760 ====

CD 2 | 01:16:22

01. When The Evening Comes (Ken Hensley) - 1973
02. From Time To Time (Ken Hensley) - 1973
03. Rain (Ken Hensley) - 1973
04. Proud Words (Ken Hensley) - 1973
05. Fortune Ken (Hensley) - 1973
06. Cold Autumn Sunday (Ken Hensley) - 1975
07. Eager To Please (Ken Hensley) - 1975
08. Secret (Ken Hensley) - 1975
09. Through The Eyes Of A Child (Ken Hensley) - 1975
10. In The Morning (Ken Hensley) - 1975
11. How Shall I Know (Ken Hensley) - 1975
12. The System (Ken Hensley) - 1980
13. No More Ken (Hensley) - 1980
14. New Routine (Ken Hensley) - 1980
15. Send Me An Angel (Blackfoot) (Ken Hensley) - 1983
16. The Return (Ken Hensley) - 1999
17. I Close My Eyes (Ken Hensley / Lawton Band) - 2001
18. Romance (Ken Hensley) - 2005

Лог создания рипа

Exact Audio Copy V1.0 beta 3 from 29. August 2011
Отчёт EAC об извлечении, выполненном 8. апреля 2013, 22:08
Ken Hensley / Elements: Anthology 1968-2005 (Disc 2)
Дисковод: PIONEER DVD-RW  DVR-219L   Adapter: 3  ID: 1
Режим чтения                 : Достоверность
Использование точного потока : Да
Отключение кэша аудио        : Да
Использование указателей C2  : Нет
Коррекция смещения при чтении                     : 6
Способность читать области Lead-in и Lead-out     : Нет
Заполнение пропущенных сэмплов тишиной            : Да
Удаление блоков с тишиной в начале и конце        : Нет
При вычислениях CRC использовались нулевые сэмплы : Да
Интерфейс                                         : Встроенный Win32-интерфейс для Win NT/2000
Выходной формат          : Пользовательский кодировщик
Выбранный битрейт        : 768 kBit/s
Качество                 : Высокий
Добавление ID3-тега      : Нет
Утилита сжатия           : C:\Program Files\Exact Audio Copy\FLAC\FLAC.EXE
Дополнительные параметры : -6 -V -T "ARTIST=%artist%" -T "TITLE=%title%" -T "ALBUM=%albumtitle%" -T "DATE=%year%" -T "TRACKNUMBER=%tracknr%" -T "GENRE=%genre%" -T "COMMENT=%comment%" -T "BAND=%albuminterpret%" -T "ALBUMARTIST=%albuminterpret%" -T "COMPOSER=%composer%" %haslyrics%--tag-from-file=LYRICS="%lyricsfile%"%haslyrics% -T "DISCNUMBER=%cdnumber%" -T "TOTALDISCS=%totalcds%" -T "TOTALTRACKS=%numtracks%" %hascover%--picture="%coverfile%"%hascover% %source% -o %dest%
TOC извлечённого CD
     Трек |   Старт  | Длительность | Начальный сектор | Конечный сектор
    ---------------------------------------------------------------------
       1  |  0:00.29 |    4:37.01   |          29      |      20804
       2  |  4:37.30 |    3:37.06   |       20805      |      37085
       3  |  8:14.36 |    3:14.17   |       37086      |      51652
       4  | 11:28.53 |    3:14.17   |       51653      |      66219
       5  | 14:42.70 |    5:16.53   |       66220      |      89972
       6  | 19:59.48 |    5:28.20   |       89973      |     114592
       7  | 25:27.68 |    4:53.50   |      114593      |     136617
       8  | 30:21.43 |    4:03.07   |      136618      |     154849
       9  | 34:24.50 |    2:19.09   |      154850      |     165283
      10  | 36:43.59 |    2:35.28   |      165284      |     176936
      11  | 39:19.12 |    4:04.39   |      176937      |     195275
      12  | 43:23.51 |    2:35.19   |      195276      |     206919
      13  | 45:58.70 |    4:34.71   |      206920      |     227540
      14  | 50:33.66 |    3:28.73   |      227541      |     243213
      15  | 54:02.64 |    4:39.47   |      243214      |     264185
      16  | 58:42.36 |    8:25.43   |      264186      |     302103
      17  | 67:08.04 |    4:34.33   |      302104      |     322686
      18  | 71:42.37 |    4:40.27   |      322687      |     343713
Характеристики диапазона извлечения и сообщения об ошибках
Выбранный диапазон
     Имя файла E:\My Torrent\кен 2\Ken Hensley - Elements- Anthology 1968-2005 (Disc 2).wav
     Пиковый уровень 100.0 %
     Скорость извлечения 1.9 X
     Качество диапазона 100.0 %
     CRC теста 08B9A943
     CRC копии 08B9A943
     Копирование... OK
Ошибок не произошло
AccurateRip: сводка
Трек  1  отсутствует в базе данных
Трек  2  отсутствует в базе данных
Трек  3  отсутствует в базе данных
Трек  4  отсутствует в базе данных
Трек  5  отсутствует в базе данных
Трек  6  отсутствует в базе данных
Трек  7  отсутствует в базе данных
Трек  8  отсутствует в базе данных
Трек  9  отсутствует в базе данных
Трек 10  отсутствует в базе данных
Трек 11  отсутствует в базе данных
Трек 12  отсутствует в базе данных
Трек 13  отсутствует в базе данных
Трек 14  отсутствует в базе данных
Трек 15  отсутствует в базе данных
Трек 16  отсутствует в базе данных
Трек 17  отсутствует в базе данных
Трек 18  отсутствует в базе данных
Ни одного трека нет в базе AccurateRip
Конец отчёта
==== Контрольная сумма отчёта 1D9576D9C6983FF8F0150E8DA13ED5F0665A95FAD713E87702C8AD7AA58F0C3E ====
--
[Профиль] [ЛС]
Показать сообщения:    

Текущее время: Сегодня 17:35

Часовой пояс: GMT



Вы не можете начинать темы
Вы не можете отвечать на сообщения
Вы не можете редактировать свои сообщения
Вы не можете удалять свои сообщения
Вы не можете голосовать в опросах
Вы не можете прикреплять файлы к сообщениям
Вы не можете скачивать файлы