(Hard Rock) Ken Hensley - Blood On The Highway - 2007, FLAC (image+.cue) lossless

 
Автор Сообщение

sergej644 ®

Пол:

Стаж: 4 года 11 месяцев

Сообщений: 6035

Откуда: Soviet Union



Награды: Нет

Торрент-статистика

Создавать темы 02-Ноя-2014 22:24

[Цитировать]

--Ken Hensley / Blood On The Highway
Жанр: Hard Rock
Страна-производитель диска: Россия
Год издания диска: 2007
Издатель (лейбл): Концерн "Группа СОЮЗ"
Номер по каталогу: 231695
Страна: Великобритания
Аудио кодек: FLAC (*.flac)
Тип рипа: image+.cue
Битрейт аудио: 958 kbps
Продолжительность: 52:45
Источник (релизер): xXxxXx91
Наличие сканов в содержимом раздачи: да
Треклист:
01. (This is) just the beginning (04:39)
02. We're on our way (04:49)
03. Blood on the highway (03:53)
04. You've got it (03:14)
05. Doom (scene 1) (00:17)
06. It won't last (05:21)
07. Think twice (04:43)
08. Doom (scene 2) (00:16)
09. There comes a time (04:26)
10. Okay (this house is down) (03:54)
11. What you gonna do (03:29)
12. Postscript (00:21)
13. Idid it all (04:51)
14. The last dance (08:25)

Лог создания рипа

Exact Audio Copy V1.0 beta 1 from 15. November 2010
EAC extraction logfile from 21. February 2011, 8:15
Ken Hensley / Blood On The Highway
Used drive  : TSSTcorpCDDVDW SH-S223F   Adapter: 7  ID: 0
Read mode               : Secure
Utilize accurate stream : Yes
Defeat audio cache      : Yes
Make use of C2 pointers : No
Read offset correction                      : 6
Overread into Lead-In and Lead-Out          : No
Fill up missing offset samples with silence : Yes
Delete leading and trailing silent blocks   : No
Null samples used in CRC calculations       : Yes
Used interface                              : Installed external ASPI interface
Used output format : Internal WAV Routines
Sample format      : 44.100 Hz; 16 Bit; Stereo
TOC of the extracted CD
     Track |   Start  |  Length  | Start sector | End sector
    ---------------------------------------------------------
        1  |  0:00.00 |  4:39.43 |         0    |    20967
        2  |  4:39.43 |  4:49.18 |     20968    |    42660
        3  |  9:28.61 |  3:53.38 |     42661    |    60173
        4  | 13:22.24 |  3:14.48 |     60174    |    74771
        5  | 16:36.72 |  0:17.66 |     74772    |    76112
        6  | 16:54.63 |  5:21.65 |     76113    |   100252
        7  | 22:16.53 |  4:43.58 |    100253    |   121535
        8  | 27:00.36 |  0:16.55 |    121536    |   122790
        9  | 27:17.16 |  4:26.37 |    122791    |   142777
       10  | 31:43.53 |  3:54.38 |    142778    |   160365
       11  | 35:38.16 |  3:29.15 |    160366    |   176055
       12  | 39:07.31 |  0:21.46 |    176056    |   177676
       13  | 39:29.02 |  4:51.26 |    177677    |   199527
       14  | 44:20.28 |  8:25.10 |    199528    |   237412
Range status and errors
Selected range
     Filename D:\Загрузки\Torrents\Ken Hensley - Inside The Mystery 2006\CD 2 (original Cold Autumn Sunday album)\Ken Hensley - Blood On The Highway.wav
     Peak level 100.0 %
     Extraction speed 0.3 X
     Range quality 100.0 %
     Copy CRC 6A7DA90B
     Copy OK
No errors occurred
AccurateRip summary
Track  1  accurately ripped (confidence 3)  [0985DD2C]
Track  2  accurately ripped (confidence 3)  [340C589C]
Track  3  accurately ripped (confidence 3)  [E170405D]
Track  4  accurately ripped (confidence 3)  [63DA8935]
Track  5  accurately ripped (confidence 3)  [17EB048E]
Track  6  accurately ripped (confidence 3)  [BDE60547]
Track  7  accurately ripped (confidence 3)  [0FB58C31]
Track  8  accurately ripped (confidence 3)  [5A457196]
Track  9  accurately ripped (confidence 3)  [00B7EE43]
Track 10  accurately ripped (confidence 3)  [22352B35]
Track 11  accurately ripped (confidence 3)  [99086CBF]
Track 12  accurately ripped (confidence 3)  [4D5FB583]
Track 13  accurately ripped (confidence 3)  [B828768D]
Track 14  accurately ripped (confidence 3)  [C43DB8F4]
All tracks accurately ripped
End of status report

Содержание индексной карты (.CUE)

REM GENRE Rock
REM DATE 2007
REM DISCID B90C5D0E
REM COMMENT "ExactAudioCopy v1.0b1"
PERFORMER "Ken Hensley"
TITLE "Blood On The Highway"
FILE "Ken Hensley - Blood On The Highway.wav" WAVE
  TRACK 01 AUDIO
    TITLE "(This is) just the beginning"
    PERFORMER "Ken Hensley"
    FLAGS DCP
    INDEX 01 00:00:00
  TRACK 02 AUDIO
    TITLE "We're on our way"
    PERFORMER "Ken Hensley"
    FLAGS DCP
    INDEX 01 04:39:43
  TRACK 03 AUDIO
    TITLE "Blood on the highway"
    PERFORMER "Ken Hensley"
    FLAGS DCP
    INDEX 01 09:28:61
  TRACK 04 AUDIO
    TITLE "You've got it"
    PERFORMER "Ken Hensley"
    FLAGS DCP
    INDEX 01 13:22:24
  TRACK 05 AUDIO
    TITLE "Doom (scene 1)"
    PERFORMER "Ken Hensley"
    FLAGS DCP
    INDEX 01 16:36:72
  TRACK 06 AUDIO
    TITLE "It won't last"
    PERFORMER "Ken Hensley"
    FLAGS DCP
    INDEX 01 16:54:63
  TRACK 07 AUDIO
    TITLE "Think twice"
    PERFORMER "Ken Hensley"
    FLAGS DCP
    INDEX 01 22:16:53
  TRACK 08 AUDIO
    TITLE "Doom (scene 2)"
    PERFORMER "Ken Hensley"
    FLAGS DCP
    INDEX 01 27:00:36
  TRACK 09 AUDIO
    TITLE "There comes a time"
    PERFORMER "Ken Hensley"
    FLAGS DCP
    INDEX 01 27:17:16
  TRACK 10 AUDIO
    TITLE "Okay (this house is down)"
    PERFORMER "Ken Hensley"
    FLAGS DCP
    INDEX 01 31:43:53
  TRACK 11 AUDIO
    TITLE "What you gonna do"
    PERFORMER "Ken Hensley"
    FLAGS DCP
    INDEX 01 35:38:16
  TRACK 12 AUDIO
    TITLE "Postscript"
    PERFORMER "Ken Hensley"
    FLAGS DCP
    INDEX 01 39:07:31
  TRACK 13 AUDIO
    TITLE "Idid it all"
    PERFORMER "Ken Hensley"
    FLAGS DCP
    INDEX 01 39:29:02
  TRACK 14 AUDIO
    TITLE "The last dance"
    PERFORMER "Ken Hensley"
    FLAGS DCP
    INDEX 01 44:20:28
-

Доп. информация:

Ken Hensley - lead (*) and harmony vocals, Hammond B3 organ, synthesizers, electric, slide & acoustic guitars, dobro
Jшrn Lande - lead vocals **
Glenn Hughes - lead vocals ***
John Lawton - lead vocals ****
Eve Gallagher - lead vocals *****
Juan Carlos Garcia, Tommy Lopez - drums
Antonio Fidel, John Smithson - bass guitar
Ovidio Lopez - principle guitars
Rafa Raposo, Dani Saiz - guitars
Vicente Ruiz - piano
Antonio Molto - alto sax
The Alicante Symphony Orchestra

Об исполнителе (группе)

http://www.ken-hensley.com/
http://ru.wikipedia.org/wiki/Ken_Hensley
--
[Профиль] [ЛС]
Показать сообщения:    

Текущее время: Сегодня 18:20

Часовой пояс: GMT



Вы не можете начинать темы
Вы не можете отвечать на сообщения
Вы не можете редактировать свои сообщения
Вы не можете удалять свои сообщения
Вы не можете голосовать в опросах
Вы не можете прикреплять файлы к сообщениям
Вы не можете скачивать файлы