(Melodic Black, Death Metal) Keep of Kalessin - Epistemology (2015) [FLAC, (image+cue), Lossless]

 
Автор Сообщение

sergej644 ®

Пол:

Стаж: 4 года 11 месяцев

Сообщений: 6038

Откуда: Soviet Union



Награды: Нет

Торрент-статистика

Создавать темы 16-Мар-2015 23:50

[Цитировать]

-Keep of Kalessin - Epistemology (2015)-Год: 2015
Жанр: Melodic Black / Death Metal
Продолжительность: 00:52:04
Лейбл: Fono
№ по каталогу: FO1130CD
Страна: Norway
Кодек: FLAC
Тип рипа: image+.cue
Битрейт: Lossless
-Треклист:
1. Cosmic Revelation (Intro) 01:13
2. The Spiritual Relief 09:53
3. Dark Divinity 07:31
4. The Grand Design 07:36
5. Necropolis 07:18
6. Universal Core 03:52
7. Introspection 05:03
8. Epistemology 09:38
9. Anima Mund (Bonus Track) 02:04
--

Отчёт ЕАС:

Exact Audio Copy V1.0 beta 3 from 29. August 2011
EAC extraction logfile from 14. March 2015, 8:58
Keep Of Kalessin / Epistemology (FO1130CD)
Used drive  : PLEXTOR BD-R   PX-B940SA   Adapter: 5  ID: 0
Read mode               : Secure
Utilize accurate stream : Yes
Defeat audio cache      : Yes
Make use of C2 pointers : No
Read offset correction                      : 667
Overread into Lead-In and Lead-Out          : No
Fill up missing offset samples with silence : Yes
Delete leading and trailing silent blocks   : No
Null samples used in CRC calculations       : Yes
Used interface                              : Installed external ASPI interface
Used output format              : User Defined Encoder
Selected bitrate                : 128 kBit/s
Quality                         : High
Add ID3 tag                     : Yes
Command line compressor         : G:\Program Files (x86)\Exact Audio Copy\Flac\flac.exe
Additional command line options : -V -8 -T "Date=%year%" -T "Genre=%genre%" %source%
TOC of the extracted CD
     Track |   Start  |  Length  | Start sector | End sector
    ---------------------------------------------------------
        1  |  0:00.00 |  1:12.43 |         0    |     5442
        2  |  1:12.43 |  9:52.18 |      5443    |    49860
        3  | 11:04.61 |  7:32.05 |     49861    |    83765
        4  | 18:36.66 |  7:36.22 |     83766    |   117987
        5  | 26:13.13 |  7:16.68 |    117988    |   150755
        6  | 33:30.06 |  3:52.01 |    150756    |   168156
        7  | 37:22.07 |  5:03.03 |    168157    |   190884
        8  | 42:25.10 |  9:37.67 |    190885    |   234226
Range status and errors
Selected range
     Filename D:\MUSIC\Keep Of Kalessin - Epistemology (FO1130CD).wav
     Peak level 99.9 %
     Extraction speed 4.8 X
     Range quality 100.0 %
     Test CRC 903D84EF
     Copy CRC 903D84EF
     Copy OK
No errors occurred
AccurateRip summary
Track  1  not present in database
Track  2  not present in database
Track  3  not present in database
Track  4  not present in database
Track  5  not present in database
Track  6  not present in database
Track  7  not present in database
Track  8  not present in database
None of the tracks are present in the AccurateRip database
End of status report
==== Log checksum 35C40499C2F11CADF897F71920337E465A495B7436BFCD62DB889025A9E978F3 ====

Отчёт auCDtect Task manager:

-----------------------
DON'T MODIFY THIS FILE
-----------------------
PERFORMER: auCDtect Task Manager, ver. 1.6.0 RC1 build 1.6.0.1
Copyright (c) 2008-2010 y-soft. All rights reserved
http://y-soft.org
ANALYZER: auCDtect: CD records authenticity detector, version 0.8.2
Copyright (c) 2004 Oleg Berngardt. All rights reserved.
Copyright (c) 2004 Alexander Djourik. All rights reserved.
FILE: Keep Of Kalessin - Epistemology (FO1130CD).flac
  Size: 403892565 Hash: 51EEE517D8670713CA0E6F6CE39B34EF Accuracy: -m0
  Conclusion: CDDA 100%
  Signature: 3A2F0C7B8A5CDE7AD8D8DA1C91C590ACF3964FD1
--
[Профиль] [ЛС]
Кто просматривает тему:

Форум Тема Автор Размер
Metal (Melodic Black Metal) Christ Agony - Legacy - 2016, MP3, 320 kbps достали все 121 MB
Показать сообщения:    

Текущее время: Сегодня 06:29

Часовой пояс: GMT



Вы не можете начинать темы
Вы не можете отвечать на сообщения
Вы не можете редактировать свои сообщения
Вы не можете удалять свои сообщения
Вы не можете голосовать в опросах
Вы не можете прикреплять файлы к сообщениям
Вы не можете скачивать файлы