K.B. Caps - Catch Me Now I'm Falling (2005) [APE|Lossless]<Italo-Disco>

 
Автор Сообщение

sergej644 ®

Пол:

Стаж: 4 года 11 месяцев

Сообщений: 6046

Откуда: Soviet Union



Награды: Нет

Торрент-статистика

Создавать темы 24-Дек-2014 22:39

[Цитировать]

-K.B. Caps - Catch Me Now I'm Falling (2005)- Год: 2005
Лейбл: ESonCD
Каталог #: 20053-2
Жанр: Italo-Disco
Продолжительность: 01:19:22
Кодек: APE
Битрейт: Lossless
Тип битрейта: image +.cue
Треклист:
01. Do You Really Need Me? (maxi mix)
02. Catch Me Now I'm Falling
03. Julia (maxi mix)
04. Dancing In The Dark
05. Angel Of The Dreamland (extended version)
06. Wait, Baby, Wait
07. Do You Really Need Me? (original version)
08. Julia (funk b-mix)
09. Catch Me Now I'm Falling (instrumental)
10. Dancing In The Dark (crazy version)
11. Angel Of The Dreamland (dub mix)
12. Wait, Baby, Wait (power version)
13. Do You Really Need Me? (panic dub)

Отчёт ЕАС&#58;

EAC extraction logfile from 9. July 2006, 2:12 for CD
K.B. Caps / Catch Me Now I'm Falling
Used drive : PIONEER DVD-RW DVR-110D Adapter: 1 ID: 1
Read mode : Secure with NO C2, accurate stream, disable cache
Read offset correction : 48
Overread into Lead-In and Lead-Out : Yes
Used output format : Internal WAV Routines
44.100 Hz; 16 Bit; Stereo
Other options :
Fill up missing offset samples with silence : Yes
Delete leading and trailing silent blocks : No
Installed external ASPI interface
Range status and errors
Selected range
Filename H:\K.B. Caps - Catch Me Now I'm Falling\CDImage.wav
Peak level 100.0 %
Range quality 100.0 %
CRC EE512BC1
Copy OK
No errors occured
End of status report

Отчёт auCDtect Task manager&#58;

-----------------------
DON'T MODIFY THIS FILE
-----------------------
PERFORMER: auCDtect Task Manager, ver. 1.5.1RC4 build 1.5.1.5
Copyright (c) 2008-2010 y-soft. All rights reserved
http://y-soft.org
ANALYZER: auCDtect: CD records authenticity detector, version 0.8.2
Copyright (c) 2004 Oleg Berngardt. All rights reserved.
Copyright (c) 2004 Alexander Djourik. All rights reserved.
FILE: CDImage.ape
  Size: 579434172 Hash: 1469F8C02917E5852922184C7B0DCD77 Accuracy: -m0
  Conclusion: CDDA 100%
  Signature: FF8FD72137428502D604512D2B8F4296F4AB7920

Содержание индексной карты (.CUE&#41;&#58;

PERFORMER "K.B. Caps"
TITLE "Catch Me Now I'm Falling"
FILE "CDImage.ape" WAVE
  TRACK 01 AUDIO
    TITLE "Do You Really Need Me? [maxi mix]"
    PERFORMER "K.B. Caps"
    INDEX 01 00:00:00
  TRACK 02 AUDIO
    TITLE "Catch Me Now I'm Falling"
    PERFORMER "K.B. Caps"
    INDEX 01 07:27:12
  TRACK 03 AUDIO
    TITLE "Julia [maxi mix]"
    PERFORMER "K.B. Caps"
    INDEX 01 14:03:52
  TRACK 04 AUDIO
    TITLE "Dancing In The Dark"
    PERFORMER "K.B. Caps"
    INDEX 01 21:14:00
  TRACK 05 AUDIO
    TITLE "Angel Of The Dreamland [extended version]"
    PERFORMER "K.B. Caps"
    INDEX 01 26:39:36
  TRACK 06 AUDIO
    TITLE "Wait, Baby, Wait"
    PERFORMER "K.B. Caps"
    INDEX 01 33:03:65
  TRACK 07 AUDIO
    TITLE "Do You Really Need Me? [original version]"
    PERFORMER "K.B. Caps"
    INDEX 01 39:13:25
  TRACK 08 AUDIO
    TITLE "Julia [funk b-mix]"
    PERFORMER "K.B. Caps"
    INDEX 01 45:53:47
  TRACK 09 AUDIO
    TITLE "Catch Me Now I'm Falling [instrumental]"
    PERFORMER "K.B. Caps"
    INDEX 01 52:56:33
  TRACK 10 AUDIO
    TITLE "Dancing In The Dark [crazy version]"
    PERFORMER "K.B. Caps"
    INDEX 01 58:58:50
  TRACK 11 AUDIO
    TITLE "Angel Of The Dreamland [dub mix]"
    PERFORMER "K.B. Caps"
    INDEX 01 63:12:41
  TRACK 12 AUDIO
    TITLE "Wait, Baby, Wait [power version]"
    PERFORMER "K.B. Caps"
    INDEX 01 68:22:10
  TRACK 13 AUDIO
    TITLE "Do You Really Need Me? [panic dub]"
    PERFORMER "K.B. Caps"
    INDEX 01 74:24:47
Время раздачи: 24/7
[Профиль] [ЛС]

Создавать темы 13-Авг-2015 10:44 (спустя 7 месяцев 20 дней)

Топик был перенесен из форума Зарубежная в форум Technopop, Eurodance, Disco
sergej644
 
Кто просматривает тему:

Показать сообщения:    

Текущее время: Сегодня 08:14

Часовой пояс: GMT



Вы не можете начинать темы
Вы не можете отвечать на сообщения
Вы не можете редактировать свои сообщения
Вы не можете удалять свои сообщения
Вы не можете голосовать в опросах
Вы не можете прикреплять файлы к сообщениям
Вы не можете скачивать файлы