(Pop,Dance) Kate Ryan - French Connection (Limited Edition) (2CD) - 2009 [FLAC, image+.cue, lossless]

 
Автор Сообщение

sergej644 ®

Пол:

Стаж: 4 года 11 месяцев

Сообщений: 6046

Откуда: Soviet Union



Награды: Нет

Торрент-статистика

Создавать темы 16-Июл-2015 12:48

[Цитировать]

-Kate Ryan / French Connection (Limited Edition) (2CD)-- Год издания: 2009
Страна: Belgium
Жанр: Pop,Dance
Продолжительность: 01:30:07-Лейбл издания: Rodeo Media
Страна-выпуска диска: Belgium
Номер по каталогу: RDM097
Формат: FLAC
Битрейт аудио: lossless
Тип рипа: image+.cue
Наличие сканов в содержимом раздачи: да
-

Трэклист

CD 1 | 00:55:47

01.Ella Elle L'A (03:08)
02.Babacar (03:14)
03.Desenchantee (Original Version) (03:39)
04.Libertine (Original Version) (03:16)
05.Evidemment (03:11)
06.Mon Coeur Resiste Encore (04:11)
07.La Promesse (03:27)
08.Tes Yeux (03:49)
09.Toute Premiere Fois (04:10)
10.Les Divas Du Dancing (03:27)
11.Sage Comme Une Image (03:06)
12.Caminare / Je M'En Irai (Duet With Soraya) (03:31)
13.Voyage, Voyage (03:10)
14.Desenchantee (New Version) (04:10)
15.Libertine (New Version) (03:06)
16.Evidemment (2N Remix) (03:19)

CD2 (Bonus CD) | 00:34:20

01.Ella Elle L'A (UK Extended) (06:09)
02.Babacar (X-Team Remix) (06:35)
03.I Surrender (Pumping Radio Edit) (03:00)
04.Lily (Extended) (06:01)
05.Kate Ryan Mega Mix (12:36)

Лог создания рипа

CD 1

Exact Audio Copy V1.0 beta 1 from 15. November 2010
EAC extraction logfile from 8. May 2011, 11:10
Kate Ryan / French Connection
Used drive  : Optiarc DVD RW AD-7240S   Adapter: 3  ID: 0
Read mode               : Secure
Utilize accurate stream : Yes
Defeat audio cache      : Yes
Make use of C2 pointers : No
Read offset correction                      : 48
Overread into Lead-In and Lead-Out          : No
Fill up missing offset samples with silence : Yes
Delete leading and trailing silent blocks   : No
Null samples used in CRC calculations       : Yes
Used interface                              : Native Win32 interface for Win NT & 2000
Used output format : Internal WAV Routines
Sample format      : 44.100 Hz; 16 Bit; Stereo
TOC of the extracted CD
     Track |   Start  |  Length  | Start sector | End sector
    ---------------------------------------------------------
        1  |  0:00.00 |  3:07.36 |         0    |    14060
        2  |  3:07.36 |  3:13.42 |     14061    |    28577
        3  |  6:21.03 |  3:38.64 |     28578    |    44991
        4  |  9:59.67 |  3:15.74 |     44992    |    59690
        5  | 13:15.66 |  3:10.21 |     59691    |    73961
        6  | 16:26.12 |  4:10.28 |     73962    |    92739
        7  | 20:36.40 |  3:26.72 |     92740    |   108261
        8  | 24:03.37 |  3:48.66 |    108262    |   125427
        9  | 27:52.28 |  4:09.54 |    125428    |   144156
       10  | 32:02.07 |  3:26.39 |    144157    |   159645
       11  | 35:28.46 |  3:05.09 |    159646    |   173529
       12  | 38:33.55 |  3:30.41 |    173530    |   189320
       13  | 42:04.21 |  3:09.34 |    189321    |   203529
       14  | 45:13.55 |  4:09.02 |    203530    |   222206
       15  | 49:22.57 |  3:05.28 |    222207    |   236109
       16  | 52:28.10 |  3:18.39 |    236110    |   250998
Range status and errors
Selected range
     Filename I:\Lossless Music\Kate Ryan – French Connection (Limited Edition)\French Connection\Kate Ryan - French Connection.wav
     Peak level 100.0 %
     Extraction speed 0.0 X
     Range quality 100.0 %
     Test CRC 491F4EF4
     Copy CRC 491F4EF4
     Copy OK
No errors occurred
AccurateRip summary
Track  1  cannot be verified as accurate (confidence 4)  [2FFA5F2A], AccurateRip returned [897F8A13]
Track  2  cannot be verified as accurate (confidence 3)  [4043C971], AccurateRip returned [F6B45B23]
Track  3  cannot be verified as accurate (confidence 4)  [F00B0D24], AccurateRip returned [6F1BD2A7]
Track  4  cannot be verified as accurate (confidence 4)  [4C75F47A], AccurateRip returned [30C88BEC]
Track  5  cannot be verified as accurate (confidence 4)  [74888821], AccurateRip returned [00BFB10D]
Track  6  cannot be verified as accurate (confidence 4)  [3C93327C], AccurateRip returned [3EA46FA0]
Track  7  cannot be verified as accurate (confidence 4)  [B052E75B], AccurateRip returned [DAEF4F4A]
Track  8  cannot be verified as accurate (confidence 4)  [821C60CB], AccurateRip returned [BDA04029]
Track  9  cannot be verified as accurate (confidence 4)  [F9C3C096], AccurateRip returned [FA9F7FE6]
Track 10  cannot be verified as accurate (confidence 4)  [34B093BF], AccurateRip returned [65752D4A]
Track 11  cannot be verified as accurate (confidence 4)  [1FC8250D], AccurateRip returned [EF7A9EEA]
Track 12  cannot be verified as accurate (confidence 4)  [B60074B9], AccurateRip returned [AE206330]
Track 13  cannot be verified as accurate (confidence 4)  [52E8CB4A], AccurateRip returned [B6304A01]
Track 14  cannot be verified as accurate (confidence 4)  [748ABDDF], AccurateRip returned [EBC0FA52]
Track 15  cannot be verified as accurate (confidence 4)  [3042CE52], AccurateRip returned [06DA0A19]
Track 16  cannot be verified as accurate (confidence 4)  [39A99000], AccurateRip returned [0B790D9A]
No tracks could be verified as accurate
You may have a different pressing from the one(s) in the database
End of status report

CD 2

Exact Audio Copy V1.0 beta 1 from 15. November 2010
EAC extraction logfile from 7. May 2011, 16:55
Kate Ryan / French Connection (Bonus CD)
Used drive  : Optiarc DVD RW AD-7240S   Adapter: 3  ID: 0
Read mode               : Secure
Utilize accurate stream : Yes
Defeat audio cache      : Yes
Make use of C2 pointers : No
Read offset correction                      : 48
Overread into Lead-In and Lead-Out          : No
Fill up missing offset samples with silence : Yes
Delete leading and trailing silent blocks   : No
Null samples used in CRC calculations       : Yes
Used interface                              : Native Win32 interface for Win NT & 2000
Used output format : Internal WAV Routines
Sample format      : 44.100 Hz; 16 Bit; Stereo
TOC of the extracted CD
     Track |   Start  |  Length  | Start sector | End sector
    ---------------------------------------------------------
        1  |  0:00.00 |  6:08.40 |         0    |    27639
        2  |  6:08.40 |  6:34.53 |     27640    |    57242
        3  | 12:43.18 |  2:59.59 |     57243    |    70726
        4  | 15:43.02 |  6:00.70 |     70727    |    97796
        5  | 21:43.72 | 12:35.41 |     97797    |   154462
Range status and errors
Selected range
     Filename I:\Lossless Music\Kate Ryan – French Connection (Limited Edition)\Bonus CD\Kate Ryan - French Connection (Bonus CD).wav
     Peak level 98.9 %
     Extraction speed 0.4 X
     Range quality 100.0 %
     Test CRC F297525B
     Copy CRC F297525B
     Copy OK
No errors occurred
AccurateRip summary
Track  1  accurately ripped (confidence 1)  [64578FAC]
Track  2  accurately ripped (confidence 1)  [E280B2B8]
Track  3  accurately ripped (confidence 1)  [9AC0A5C7]
Track  4  accurately ripped (confidence 1)  [0D150A72]
Track  5  accurately ripped (confidence 1)  [96170644]
All tracks accurately ripped
End of status report

Индексная карта (non-compilant .cue)

CD 1

REM GENRE Pop
REM DATE 2009
REM DISCID E40D1210
REM COMMENT "ExactAudioCopy v1.0b1"
PERFORMER "Kate Ryan"
TITLE "French Connection "
FILE "Kate Ryan - French Connection.flac" WAVE
  TRACK 01 AUDIO
    TITLE "Ella Elle L'A"
    PERFORMER "Kate Ryan"
    INDEX 01 00:00:00
  TRACK 02 AUDIO
    TITLE "Babacar"
    PERFORMER "Kate Ryan"
    INDEX 01 03:07:36
  TRACK 03 AUDIO
    TITLE "Desenchantee (Original Version)"
    PERFORMER "Kate Ryan"
    INDEX 01 06:21:03
  TRACK 04 AUDIO
    TITLE "Libertine (Original Version)"
    PERFORMER "Kate Ryan"
    INDEX 01 09:59:67
  TRACK 05 AUDIO
    TITLE "Evidemment"
    PERFORMER "Kate Ryan"
    INDEX 01 13:15:66
  TRACK 06 AUDIO
    TITLE "Mon Coeur Resiste Encore"
    PERFORMER "Kate Ryan"
    INDEX 01 16:26:12
  TRACK 07 AUDIO
    TITLE "La Promesse"
    PERFORMER "Kate Ryan"
    INDEX 01 20:36:40
  TRACK 08 AUDIO
    TITLE "Tes Yeux"
    PERFORMER "Kate Ryan"
    INDEX 01 24:03:37
  TRACK 09 AUDIO
    TITLE "Toute Premiere Fois"
    PERFORMER "Kate Ryan"
    INDEX 01 27:52:28
  TRACK 10 AUDIO
    TITLE "Les Divas Du Dancing"
    PERFORMER "Kate Ryan"
    INDEX 01 32:02:07
  TRACK 11 AUDIO
    TITLE "Sage Comme Une Image"
    PERFORMER "Kate Ryan"
    INDEX 01 35:28:46
  TRACK 12 AUDIO
    TITLE "Caminare / Je M'En Irai (Duet With Soraya)"
    PERFORMER "Kate Ryan"
    INDEX 01 38:33:55
  TRACK 13 AUDIO
    TITLE "Voyage, Voyage"
    PERFORMER "Kate Ryan"
    INDEX 01 42:04:21
  TRACK 14 AUDIO
    TITLE "Desenchantee (New Version)"
    PERFORMER "Kate Ryan"
    INDEX 01 45:13:55
  TRACK 15 AUDIO
    TITLE "Libertine (New Version)"
    PERFORMER "Kate Ryan"
    INDEX 01 49:22:57
  TRACK 16 AUDIO
    TITLE "Evidemment (2N Remix)"
    PERFORMER "Kate Ryan"
    INDEX 01 52:28:10

CD 2

REM GENRE Electronic
REM DATE 2009
REM DISCID 39080B05
REM COMMENT "ExactAudioCopy v1.0b1"
PERFORMER "Kate Ryan"
TITLE "French Connection (Bonus CD)"
FILE "Kate Ryan - French Connection (Bonus CD).flac" WAVE
  TRACK 01 AUDIO
    TITLE "Ella Elle L'A (UK Extended)"
    PERFORMER "Kate Ryan"
    INDEX 01 00:00:00
  TRACK 02 AUDIO
    TITLE "Babacar (X-Team Remix)"
    PERFORMER "Kate Ryan"
    INDEX 01 06:08:40
  TRACK 03 AUDIO
    TITLE "I Surrender (Pumping Radio Edit)"
    PERFORMER "Kate Ryan"
    INDEX 01 12:43:18
  TRACK 04 AUDIO
    TITLE "Lily (Extended)"
    PERFORMER "Kate Ryan"
    INDEX 01 15:43:02
  TRACK 05 AUDIO
    TITLE "Kate Ryan Mega Mix"
    PERFORMER "Kate Ryan"
    INDEX 01 21:43:72

Скриншот спектра частот

--Не забываем говорить
[Профиль] [ЛС]

Создавать темы 13-Авг-2015 10:42 (спустя 27 дней)

Топик был перенесен из форума Зарубежная в форум World Pop
sergej644
 
Показать сообщения:    

Текущее время: Сегодня 17:43

Часовой пояс: GMT



Вы не можете начинать темы
Вы не можете отвечать на сообщения
Вы не можете редактировать свои сообщения
Вы не можете удалять свои сообщения
Вы не можете голосовать в опросах
Вы не можете прикреплять файлы к сообщениям
Вы не можете скачивать файлы