(Heavy Metal)Judas Priest - Battle Cry (Live) - 2016 [FLAC, tracks +.cue, lossless]

 
Автор Сообщение

sergej644 ®

Пол:

Стаж: 4 года 11 месяцев

Сообщений: 6045

Откуда: Soviet Union



Награды: Нет

Торрент-статистика

Создавать темы 17-Авг-2016 14:37

[Цитировать]

-Judas Priest - Battle Cry--
Год издания: 2016
Страна: UK
Жанр: Heavy Metal
Продолжительность: 01:15:34-Лейбл издания: Epic
Страна-выпуска диска: USA
Номер по каталогу: 88985302262-Формат: FLAC
Битрейт аудио: Lossless
Тип рипа: tracks +.cue
Наличие сканов в содержимом раздачи: да
-

Трэклист


01. Battle Cry (0:32)
02. Dragonaut (4:12)
03. Metal Gods (4:14)
04. Devil's Child (5:18)
05. Victim Of Changes (8:59)
06. Halls Of Valhalla (6:08)
07. Redeemer Of Souls (4:10)
08. Beyond The Realms Of Death (7:01)
09. Jawbreaker (4:05)
10. Breaking The Law (2:48)
11. Hell Bent For Leather (4:26)
12. The Hellion (0:37)
13. Electric Eye (4:36)
14. You've Got Another Thing Coming (11:02)
15. Painkiller (7:25)
-

Лог создания рипа

Exact Audio Copy V1.1 from 23. June 2015
EAC extraction logfile from 25. March 2016, 20:25
Judas Priest / Battle Cry
Used drive  : HL-DT-STDVDRAM GH22NS90   Adapter: 1  ID: 0
Read mode               : Secure
Utilize accurate stream : Yes
Defeat audio cache      : Yes
Make use of C2 pointers : No
Read offset correction                      : 6
Overread into Lead-In and Lead-Out          : No
Fill up missing offset samples with silence : Yes
Delete leading and trailing silent blocks   : No
Null samples used in CRC calculations       : Yes
Used interface                              : Native Win32 interface for Win NT & 2000
Gap handling                                : Appended to previous track
Used output format              : User Defined Encoder
Selected bitrate                : 128 kBit/s
Quality                         : High
Add ID3 tag                     : No
Command line compressor         : C:\Program Files (x86)\FLAC Frontend\tools\flac.exe
Additional command line options : -8 -V -T "ARTIST=%artist%" -T "TITLE=%title%" -T "ALBUM=%albumtitle%" -T "DATE=%year%" -T "TRACKNUMBER=%tracknr%" -T "TOTALTRACKS=%numtracks%" -T "GENRE=%genre%" -T "ALBUMARTIST=%albumartist%" -T "ALBUM ARTIST=%albumartist%" -T "COMMENT=EAC Secure Mode, Test & Copy, AccurateRip, FLAC -8" %source%
TOC of the extracted CD
     Track |   Start  |  Length  | Start sector | End sector
    ---------------------------------------------------------
        1  |  0:00.00 |  0:32.07 |         0    |     2406
        2  |  0:32.07 |  4:12.10 |      2407    |    21316
        3  |  4:44.17 |  4:13.65 |     21317    |    40356
        4  |  8:58.07 |  5:18.21 |     40357    |    64227
        5  | 14:16.28 |  8:58.54 |     64228    |   104631
        6  | 23:15.07 |  6:07.71 |    104632    |   132227
        7  | 29:23.03 |  4:10.04 |    132228    |   150981
        8  | 33:33.07 |  7:01.11 |    150982    |   182567
        9  | 40:34.18 |  4:05.26 |    182568    |   200968
       10  | 44:39.44 |  2:47.38 |    200969    |   213531
       11  | 47:27.07 |  4:26.08 |    213532    |   233489
       12  | 51:53.15 |  0:36.64 |    233490    |   236253
       13  | 52:30.04 |  4:36.03 |    236254    |   256956
       14  | 57:06.07 | 11:02.25 |    256957    |   306631
       15  | 68:08.32 |  7:25.15 |    306632    |   340021
Track  1
     Filename D:\EAC Rips\Judas Priest - Battle Cry (2016) [FLAC] {CD + DVD5}\01 - Battle Cry.wav
     Pre-gap length  0:00:02.00
     Peak level 96.3 %
     Extraction speed 0.5 X
     Track quality 100.0 %
     Test CRC 9609F9F5
     Copy CRC 9609F9F5
     Track not present in AccurateRip database
     Copy OK
Track  2
     Filename D:\EAC Rips\Judas Priest - Battle Cry (2016) [FLAC] {CD + DVD5}\02 - Dragonaut.wav
     Peak level 100.0 %
     Extraction speed 1.2 X
     Track quality 100.0 %
     Test CRC BF97B205
     Copy CRC BF97B205
     Track not present in AccurateRip database
     Copy OK
Track  3
     Filename D:\EAC Rips\Judas Priest - Battle Cry (2016) [FLAC] {CD + DVD5}\03 - Metal Gods.wav
     Peak level 100.0 %
     Extraction speed 1.3 X
     Track quality 100.0 %
     Test CRC EAF74B2D
     Copy CRC EAF74B2D
     Track not present in AccurateRip database
     Copy OK
Track  4
     Filename D:\EAC Rips\Judas Priest - Battle Cry (2016) [FLAC] {CD + DVD5}\04 - Devil's Child.wav
     Peak level 100.0 %
     Extraction speed 1.5 X
     Track quality 100.0 %
     Test CRC 19F0D838
     Copy CRC 19F0D838
     Track not present in AccurateRip database
     Copy OK
Track  5
     Filename D:\EAC Rips\Judas Priest - Battle Cry (2016) [FLAC] {CD + DVD5}\05 - Victim Of Changes.wav
     Peak level 100.0 %
     Extraction speed 1.7 X
     Track quality 100.0 %
     Test CRC F6F29363
     Copy CRC F6F29363
     Track not present in AccurateRip database
     Copy OK
Track  6
     Filename D:\EAC Rips\Judas Priest - Battle Cry (2016) [FLAC] {CD + DVD5}\06 - Halls Of Valhalla.wav
     Peak level 100.0 %
     Extraction speed 1.8 X
     Track quality 100.0 %
     Test CRC 162D96E5
     Copy CRC 162D96E5
     Track not present in AccurateRip database
     Copy OK
Track  7
     Filename D:\EAC Rips\Judas Priest - Battle Cry (2016) [FLAC] {CD + DVD5}\07 - Redeemer Of Souls.wav
     Peak level 100.0 %
     Extraction speed 1.8 X
     Track quality 100.0 %
     Test CRC 2642B23B
     Copy CRC 2642B23B
     Track not present in AccurateRip database
     Copy OK
Track  8
     Filename D:\EAC Rips\Judas Priest - Battle Cry (2016) [FLAC] {CD + DVD5}\08 - Beyond The Realms Of Death.wav
     Peak level 100.0 %
     Extraction speed 2.0 X
     Track quality 100.0 %
     Test CRC BFADC475
     Copy CRC BFADC475
     Track not present in AccurateRip database
     Copy OK
Track  9
     Filename D:\EAC Rips\Judas Priest - Battle Cry (2016) [FLAC] {CD + DVD5}\09 - Jawbreaker.wav
     Peak level 100.0 %
     Extraction speed 1.8 X
     Track quality 99.9 %
     Test CRC 772B9DA5
     Copy CRC 772B9DA5
     Track not present in AccurateRip database
     Copy OK
Track 10
     Filename D:\EAC Rips\Judas Priest - Battle Cry (2016) [FLAC] {CD + DVD5}\10 - Breaking The Law.wav
     Peak level 100.0 %
     Extraction speed 1.9 X
     Track quality 100.0 %
     Test CRC 09F54539
     Copy CRC 09F54539
     Track not present in AccurateRip database
     Copy OK
Track 11
     Filename D:\EAC Rips\Judas Priest - Battle Cry (2016) [FLAC] {CD + DVD5}\11 - Hell Bent For Leather.wav
     Peak level 100.0 %
     Extraction speed 2.1 X
     Track quality 100.0 %
     Test CRC 48858789
     Copy CRC 48858789
     Track not present in AccurateRip database
     Copy OK
Track 12
     Filename D:\EAC Rips\Judas Priest - Battle Cry (2016) [FLAC] {CD + DVD5}\12 - The Hellion.wav
     Peak level 96.4 %
     Extraction speed 0.8 X
     Track quality 99.7 %
     Test CRC 036E6D1E
     Copy CRC 036E6D1E
     Track not present in AccurateRip database
     Copy OK
Track 13
     Filename D:\EAC Rips\Judas Priest - Battle Cry (2016) [FLAC] {CD + DVD5}\13 - Electric Eye.wav
     Peak level 100.0 %
     Extraction speed 2.2 X
     Track quality 100.0 %
     Test CRC E96C065C
     Copy CRC E96C065C
     Track not present in AccurateRip database
     Copy OK
Track 14
     Filename D:\EAC Rips\Judas Priest - Battle Cry (2016) [FLAC] {CD + DVD5}\14 - You've Got Another Thing Coming.wav
     Peak level 100.0 %
     Extraction speed 2.4 X
     Track quality 99.9 %
     Test CRC 467F27BD
     Copy CRC 467F27BD
     Track not present in AccurateRip database
     Copy OK
Track 15
     Filename D:\EAC Rips\Judas Priest - Battle Cry (2016) [FLAC] {CD + DVD5}\15 - Painkiller.wav
     Peak level 100.0 %
     Extraction speed 2.4 X
     Track quality 99.9 %
     Test CRC B2564184
     Copy CRC B2564184
     Track not present in AccurateRip database
     Copy OK
None of the tracks are present in the AccurateRip database
No errors occurred
End of status report
---- CUETools DB Plugin V2.1.6
[CTDB TOCID: _7HIj5YGdnXpXX8hdQMX.VfbgMo-] found
Submit result: _7HIj5YGdnXpXX8hdQMX.VfbgMo- has been confirmed
Track | CTDB Status
  1   | (1/1) Accurately ripped
  2   | (1/1) Accurately ripped
  3   | (1/1) Accurately ripped
  4   | (1/1) Accurately ripped
  5   | (1/1) Accurately ripped
  6   | (1/1) Accurately ripped
  7   | (1/1) Accurately ripped
  8   | (1/1) Accurately ripped
  9   | (1/1) Accurately ripped
10   | (1/1) Accurately ripped
11   | (1/1) Accurately ripped
12   | (1/1) Accurately ripped
13   | (1/1) Accurately ripped
14   | (1/1) Accurately ripped
15   | (1/1) Accurately ripped

Индексная карта (non-compilant .cue)

REM GENRE "Heavy Metal"
REM DATE 2016
REM DISCID D011B50F
REM COMMENT "ExactAudioCopy v1.1"
PERFORMER "Judas Priest"
TITLE "Battle Cry"
FILE "01 - Battle Cry.wav" WAVE
  TRACK 01 AUDIO
    TITLE "Battle Cry"
    PERFORMER "Judas Priest"
    FLAGS DCP
    INDEX 01 00:00:00
FILE "02 - Dragonaut.wav" WAVE
  TRACK 02 AUDIO
    TITLE "Dragonaut"
    PERFORMER "Judas Priest"
    FLAGS DCP
    INDEX 01 00:00:00
FILE "03 - Metal Gods.wav" WAVE
  TRACK 03 AUDIO
    TITLE "Metal Gods"
    PERFORMER "Judas Priest"
    FLAGS DCP
    INDEX 01 00:00:00
FILE "04 - Devil's Child.wav" WAVE
  TRACK 04 AUDIO
    TITLE "Devil's Child"
    PERFORMER "Judas Priest"
    FLAGS DCP
    INDEX 01 00:00:00
FILE "05 - Victim Of Changes.wav" WAVE
  TRACK 05 AUDIO
    TITLE "Victim Of Changes"
    PERFORMER "Judas Priest"
    FLAGS DCP
    INDEX 01 00:00:00
FILE "06 - Halls Of Valhalla.wav" WAVE
  TRACK 06 AUDIO
    TITLE "Halls Of Valhalla"
    PERFORMER "Judas Priest"
    FLAGS DCP
    INDEX 01 00:00:00
FILE "07 - Redeemer Of Souls.wav" WAVE
  TRACK 07 AUDIO
    TITLE "Redeemer Of Souls"
    PERFORMER "Judas Priest"
    FLAGS DCP
    INDEX 01 00:00:00
FILE "08 - Beyond The Realms Of Death.wav" WAVE
  TRACK 08 AUDIO
    TITLE "Beyond The Realms Of Death"
    PERFORMER "Judas Priest"
    FLAGS DCP
    INDEX 01 00:00:00
FILE "09 - Jawbreaker.wav" WAVE
  TRACK 09 AUDIO
    TITLE "Jawbreaker"
    PERFORMER "Judas Priest"
    FLAGS DCP
    INDEX 01 00:00:00
FILE "10 - Breaking The Law.wav" WAVE
  TRACK 10 AUDIO
    TITLE "Breaking The Law"
    PERFORMER "Judas Priest"
    FLAGS DCP
    INDEX 01 00:00:00
FILE "11 - Hell Bent For Leather.wav" WAVE
  TRACK 11 AUDIO
    TITLE "Hell Bent For Leather"
    PERFORMER "Judas Priest"
    FLAGS DCP
    INDEX 01 00:00:00
FILE "12 - The Hellion.wav" WAVE
  TRACK 12 AUDIO
    TITLE "The Hellion"
    PERFORMER "Judas Priest"
    FLAGS DCP
    INDEX 01 00:00:00
FILE "13 - Electric Eye.wav" WAVE
  TRACK 13 AUDIO
    TITLE "Electric Eye"
    PERFORMER "Judas Priest"
    FLAGS DCP
    INDEX 01 00:00:00
FILE "14 - You've Got Another Thing Coming.wav" WAVE
  TRACK 14 AUDIO
    TITLE "You've Got Another Thing Coming"
    PERFORMER "Judas Priest"
    FLAGS DCP
    INDEX 01 00:00:00
FILE "15 - Painkiller.wav" WAVE
  TRACK 15 AUDIO
    TITLE "Painkiller"
    PERFORMER "Judas Priest"
    FLAGS DCP
    INDEX 01 00:00:00
--
[Профиль] [ЛС]
Показать сообщения:    

Текущее время: Сегодня 22:22

Часовой пояс: GMT



Вы не можете начинать темы
Вы не можете отвечать на сообщения
Вы не можете редактировать свои сообщения
Вы не можете удалять свои сообщения
Вы не можете голосовать в опросах
Вы не можете прикреплять файлы к сообщениям
Вы не можете скачивать файлы