(Instrumental Rock, Progressive Rock) Joe Satriani - Studio Discography (15 albums) - 1986 - 2013 [FLAC, image+.cue, lossless]

 
Автор Сообщение

sergej644 ®

Пол:

Стаж: 4 года 11 месяцев

Сообщений: 6038

Откуда: Soviet Union



Награды: Нет

Торрент-статистика

Создавать темы 19-Фев-2015 13:15

[Цитировать]

-Joe Satriani / Studio Discography (15 albums)-- Год издания: 1986 - 2013
Страна: USA
Жанр: Instrumental Rock, Progressive Rock
Продолжительность: 14:24:36-Тип альбома: Studio
Страна-выпуска диска: Austria, USA, EU, Japan
Формат: FLAC
Битрейт аудио: lossless
Тип рипа: image+.cue
Наличие сканов в содержимом раздачи: да
Джозеф «Джо» Сатриани (Joe Satriani)— американский гитарист-виртуоз итальянского происхождения. Учитель таких гитаристов, как Стив Вай, Кирк Хэммет, Алекс Сколник, Дэвид Брайсон, Чарли Хантер, Ларри ЛаЛондэ и многих других.

Трэклист

1986 - Not Of This Earth ('1988 Re-issue, Relativity Records, 462972 2, Austria) | 00:38:46

01. Not Of This Earth (04:05)
02. The Snake (04:44)
03. Rubina (05:57)
04. Memories (04:07)
05. Brother John (02:11)
06. The Enigmatic (03:27)
07. Driving At Night (03:34)
08. Hordes Of Locusts (05:00)
09. New Day (03:53)
10. The Headless Horseman (01:54)

лог создания рипа

Exact Audio Copy V1.0 beta 3 from 29. August 2011
EAC extraction logfile from 14. February 2014, 11:12
Joe Satriani / Not Of This Earth
Used drive  : Optiarc DVD-ROM DDU1675S   Adapter: 3  ID: 0
Read mode               : Secure
Utilize accurate stream : Yes
Defeat audio cache      : Yes
Make use of C2 pointers : No
Read offset correction                      : 6
Overread into Lead-In and Lead-Out          : No
Fill up missing offset samples with silence : Yes
Delete leading and trailing silent blocks   : No
Null samples used in CRC calculations       : Yes
Used interface                              : Native Win32 interface for Win NT & 2000
Used output format              : User Defined Encoder
Selected bitrate                : 1024 kBit/s
Quality                         : High
Add ID3 tag                     : No
Command line compressor         : C:\Program Files (x86)\Exact Audio Copy\Flac\flac.exe
Additional command line options : -V -8 -T "Date=%year%" -T "Genre=%genre%" %source%
TOC of the extracted CD
     Track |   Start  |  Length  | Start sector | End sector
    ---------------------------------------------------------
        1  |  0:00.00 |  4:04.15 |         0    |    18314
        2  |  4:04.15 |  4:43.25 |     18315    |    39564
        3  |  8:47.40 |  5:56.47 |     39565    |    66311
        4  | 14:44.12 |  4:06.03 |     66312    |    84764
        5  | 18:50.15 |  2:10.57 |     84765    |    94571
        6  | 21:00.72 |  3:26.38 |     94572    |   110059
        7  | 24:27.35 |  3:33.40 |    110060    |   126074
        8  | 28:01.00 |  4:59.17 |    126075    |   148516
        9  | 33:00.17 |  3:52.28 |    148517    |   165944
       10  | 36:52.45 |  1:53.30 |    165945    |   174449
Range status and errors
Selected range
     Filename F:\Torrent\# MY\# Подготовка раздач\Joe Satriani - Studio Discography\1986 - Not Of This Earth ('1988 Re-issue, Relativity Records, 462972 2, Austria)\Joe Satriani - Not Of This Earth.wav
     Peak level 100.0 %
     Extraction speed 7.3 X
     Range quality 99.9 %
     Test CRC F03AF7A7
     Copy CRC F03AF7A7
     Copy OK
No errors occurred
AccurateRip summary
Track  1  accurately ripped (confidence 36)  [9C0F5C70]  (AR v2)
Track  2  accurately ripped (confidence 36)  [35914A43]  (AR v2)
Track  3  accurately ripped (confidence 36)  [96D25C8C]  (AR v2)
Track  4  accurately ripped (confidence 36)  [1272BBA6]  (AR v2)
Track  5  accurately ripped (confidence 36)  [50FFBE02]  (AR v2)
Track  6  accurately ripped (confidence 36)  [16B8B259]  (AR v2)
Track  7  accurately ripped (confidence 36)  [0B35B1FB]  (AR v2)
Track  8  accurately ripped (confidence 36)  [773D7079]  (AR v2)
Track  9  accurately ripped (confidence 36)  [74D3FF55]  (AR v2)
Track 10  accurately ripped (confidence 36)  [F8AE0B74]  (AR v2)
All tracks accurately ripped
End of status report
---- CUETools DB Plugin V2.1.4
[CTDB TOCID: gh7hp7UIgWi8daZtKAV6m7qX.eA-] found
Submit result: gh7hp7UIgWi8daZtKAV6m7qX.eA- has been confirmed
Track | CTDB Status
  1   | (85/85) Accurately ripped
  2   | (85/85) Accurately ripped
  3   | (85/85) Accurately ripped
  4   | (85/85) Accurately ripped
  5   | (85/85) Accurately ripped
  6   | (85/85) Accurately ripped
  7   | (85/85) Accurately ripped
  8   | (85/85) Accurately ripped
  9   | (85/85) Accurately ripped
10   | (85/85) Accurately ripped

содержание индексной карты *cue

REM GENRE Rock
REM DATE 1986
REM DISCID 8909160A
REM COMMENT "ExactAudioCopy v1.0b3"
PERFORMER "Joe Satriani"
TITLE "Not Of This Earth"
FILE "Joe Satriani - Not Of This Earth.flac" WAVE
  TRACK 01 AUDIO
    TITLE "Not Of This Earth"
    PERFORMER "Joe Satriani"
    INDEX 01 00:00:00
  TRACK 02 AUDIO
    TITLE "The Snake"
    PERFORMER "Joe Satriani"
    INDEX 00 04:00:07
    INDEX 01 04:04:15
  TRACK 03 AUDIO
    TITLE "Rubina"
    PERFORMER "Joe Satriani"
    INDEX 00 08:46:15
    INDEX 01 08:47:40
  TRACK 04 AUDIO
    TITLE "Memories"
    PERFORMER "Joe Satriani"
    INDEX 00 14:41:02
    INDEX 01 14:44:12
  TRACK 05 AUDIO
    TITLE "Brother John"
    PERFORMER "Joe Satriani"
    INDEX 00 18:48:22
    INDEX 01 18:50:15
  TRACK 06 AUDIO
    TITLE "The Enigmatic"
    PERFORMER "Joe Satriani"
    INDEX 00 20:58:55
    INDEX 01 21:00:72
  TRACK 07 AUDIO
    TITLE "Driving At Night"
    PERFORMER "Joe Satriani"
    INDEX 01 24:27:35
  TRACK 08 AUDIO
    TITLE "Hordes Of Locusts"
    PERFORMER "Joe Satriani"
    INDEX 00 28:00:22
    INDEX 01 28:01:00
  TRACK 09 AUDIO
    TITLE "New Day"
    PERFORMER "Joe Satriani"
    INDEX 00 32:57:60
    INDEX 01 33:00:17
  TRACK 10 AUDIO
    TITLE "The Headless Horseman"
    PERFORMER "Joe Satriani"
    INDEX 00 36:46:27
    INDEX 01 36:52:45

1987 - Surfing With The Alien ('1999 Remastered, Epic, 462973 2, Austria) | 00:37:43

01. Surfing With The Alien (04:26)
02. Ice 9 (04:00)
03. Crushing Day (05:15)
04. Always With Me, Always With You (03:23)
05. Satch Boogie (03:14)
06. Hill Of The Skull (01:49)
07. Circles (03:29)
08. Lords Of Karma (04:49)
09. Midnight (01:43)
10. Echo (05:38)

лог создания рипа

Exact Audio Copy V1.0 beta 3 from 29. August 2011
EAC extraction logfile from 14. February 2014, 12:17
Joe Satriani / Surfing With The Alien
Used drive  : Optiarc DVD-ROM DDU1675S   Adapter: 3  ID: 0
Read mode               : Secure
Utilize accurate stream : Yes
Defeat audio cache      : Yes
Make use of C2 pointers : No
Read offset correction                      : 6
Overread into Lead-In and Lead-Out          : No
Fill up missing offset samples with silence : Yes
Delete leading and trailing silent blocks   : No
Null samples used in CRC calculations       : Yes
Used interface                              : Native Win32 interface for Win NT & 2000
Used output format              : User Defined Encoder
Selected bitrate                : 1024 kBit/s
Quality                         : High
Add ID3 tag                     : No
Command line compressor         : C:\Program Files (x86)\Exact Audio Copy\Flac\flac.exe
Additional command line options : -V -8 -T "Date=%year%" -T "Genre=%genre%" %source%
TOC of the extracted CD
     Track |   Start  |  Length  | Start sector | End sector
    ---------------------------------------------------------
        1  |  0:00.00 |  4:25.25 |         0    |    19899
        2  |  4:25.25 |  3:59.72 |     19900    |    37896
        3  |  8:25.22 |  5:14.53 |     37897    |    61499
        4  | 13:40.00 |  3:22.05 |     61500    |    76654
        5  | 17:02.05 |  3:13.45 |     76655    |    91174
        6  | 20:15.50 |  1:48.50 |     91175    |    99324
        7  | 22:04.25 |  3:28.72 |     99325    |   114996
        8  | 25:33.22 |  4:48.15 |    114997    |   136611
        9  | 30:21.37 |  1:42.50 |    136612    |   144311
       10  | 32:04.12 |  5:37.65 |    144312    |   169651
Range status and errors
Selected range
     Filename F:\Torrent\# MY\# Подготовка раздач\Joe Satriani - Studio Discography\1987 - Surfing With The Alien ('1999 Remastered, Epic, 462973 2, Austria)\Joe Satriani - Surfing With The Alien.wav
     Peak level 100.0 %
     Extraction speed 7.4 X
     Range quality 100.0 %
     Test CRC 55860841
     Copy CRC 55860841
     Copy OK
No errors occurred
AccurateRip summary
Track  1  accurately ripped (confidence 16)  [F078F234]  (AR v2)
Track  2  accurately ripped (confidence 16)  [B74D8C37]  (AR v2)
Track  3  accurately ripped (confidence 16)  [5B8DD9AF]  (AR v2)
Track  4  accurately ripped (confidence 16)  [0175DB4C]  (AR v2)
Track  5  accurately ripped (confidence 16)  [8C469829]  (AR v2)
Track  6  accurately ripped (confidence 16)  [71CEC364]  (AR v2)
Track  7  accurately ripped (confidence 16)  [200BF415]  (AR v2)
Track  8  accurately ripped (confidence 16)  [6A9AC7C7]  (AR v2)
Track  9  accurately ripped (confidence 16)  [74F353BD]  (AR v2)
Track 10  accurately ripped (confidence 16)  [3C10EDAE]  (AR v2)
All tracks accurately ripped
End of status report
---- CUETools DB Plugin V2.1.4
[CTDB TOCID: IH4WamYdexLY5wfhZ0duHaSIRaY-] found
Submit result: IH4WamYdexLY5wfhZ0duHaSIRaY- has been confirmed
Track | CTDB Status
  1   | (61/61) Accurately ripped
  2   | (61/61) Accurately ripped
  3   | (61/61) Accurately ripped
  4   | (61/61) Accurately ripped
  5   | (61/61) Accurately ripped
  6   | (61/61) Accurately ripped
  7   | (61/61) Accurately ripped
  8   | (61/61) Accurately ripped
  9   | (61/61) Accurately ripped
10   | (60/61) Accurately ripped

содержание индексной карты *cue

REM GENRE Rock
REM DATE 1987
REM DISCID 7508D60A
REM COMMENT "ExactAudioCopy v1.0b3"
PERFORMER "Joe Satriani"
TITLE "Surfing With The Alien"
FILE "Joe Satriani - Surfing With The Alien.flac" WAVE
  TRACK 01 AUDIO
    TITLE "Surfing With The Alien"
    PERFORMER "Joe Satriani"
    INDEX 01 00:00:00
  TRACK 02 AUDIO
    TITLE "Ice 9"
    PERFORMER "Joe Satriani"
    INDEX 00 04:24:22
    INDEX 01 04:25:25
  TRACK 03 AUDIO
    TITLE "Crushing Day"
    PERFORMER "Joe Satriani"
    INDEX 01 08:25:22
  TRACK 04 AUDIO
    TITLE "Always With Me, Always With You"
    PERFORMER "Joe Satriani"
    INDEX 01 13:40:00
  TRACK 05 AUDIO
    TITLE "Satch Boogie"
    PERFORMER "Joe Satriani"
    INDEX 01 17:02:05
  TRACK 06 AUDIO
    TITLE "Hill Of The Skull"
    PERFORMER "Joe Satriani"
    INDEX 01 20:15:50
  TRACK 07 AUDIO
    TITLE "Circles"
    PERFORMER "Joe Satriani"
    INDEX 01 22:04:25
  TRACK 08 AUDIO
    TITLE "Lords Of Karma"
    PERFORMER "Joe Satriani"
    INDEX 01 25:33:22
  TRACK 09 AUDIO
    TITLE "Midnight"
    PERFORMER "Joe Satriani"
    INDEX 01 30:21:37
  TRACK 10 AUDIO
    TITLE "Echo"
    PERFORMER "Joe Satriani"
    INDEX 01 32:04:12

1988 - Dreaming #11 (EP) (Relativity Records, 473604 2, Austria) | 00:23:27

01. The Crush Of Love (04:25)
02. Ice Nine (04:42)
03. Memories (09:09)
04. Hordes Of Locusts (05:12)

лог создания рипа

Exact Audio Copy V1.0 beta 3 from 29. August 2011
EAC extraction logfile from 14. February 2014, 22:45
Joe Satriani / Dreaming #11
Used drive  : Optiarc DVD-ROM DDU1675S   Adapter: 3  ID: 0
Read mode               : Secure
Utilize accurate stream : Yes
Defeat audio cache      : Yes
Make use of C2 pointers : No
Read offset correction                      : 6
Overread into Lead-In and Lead-Out          : No
Fill up missing offset samples with silence : Yes
Delete leading and trailing silent blocks   : No
Null samples used in CRC calculations       : Yes
Used interface                              : Native Win32 interface for Win NT & 2000
Used output format              : User Defined Encoder
Selected bitrate                : 1024 kBit/s
Quality                         : High
Add ID3 tag                     : No
Command line compressor         : C:\Program Files (x86)\Exact Audio Copy\Flac\flac.exe
Additional command line options : -V -8 -T "Date=%year%" -T "Genre=%genre%" %source%
TOC of the extracted CD
     Track |   Start  |  Length  | Start sector | End sector
    ---------------------------------------------------------
        1  |  0:00.00 |  4:24.27 |         0    |    19826
        2  |  4:24.27 |  4:41.40 |     19827    |    40941
        3  |  9:05.67 |  9:08.60 |     40942    |    82101
        4  | 18:14.52 |  5:11.63 |     82102    |   105489
Range status and errors
Selected range
     Filename F:\Torrent\# MY\# Подготовка раздач\Joe Satriani - Studio Discography\1988 - Dreaming #11 (EP) (Relativity, 473604 2, Austria)\Joe Satriani - Dreaming #11.wav
     Peak level 94.7 %
     Extraction speed 6.7 X
     Range quality 100.0 %
     Test CRC BCC9C74B
     Copy CRC BCC9C74B
     Copy OK
No errors occurred
AccurateRip summary
Track  1  accurately ripped (confidence 5)  [43D56F54]  (AR v2)
Track  2  accurately ripped (confidence 5)  [8A9868D8]  (AR v2)
Track  3  accurately ripped (confidence 5)  [BB4540E1]  (AR v2)
Track  4  accurately ripped (confidence 5)  [433A978D]  (AR v2)
All tracks accurately ripped
End of status report
---- CUETools DB Plugin V2.1.4
[CTDB TOCID: Xa4l1.eeGyDzigPzVooT05bowPA-] found
Submit result: Xa4l1.eeGyDzigPzVooT05bowPA- has been confirmed
Track | CTDB Status
  1   | (23/23) Accurately ripped
  2   | (23/23) Accurately ripped
  3   | (23/23) Accurately ripped
  4   | (23/23) Accurately ripped

содержание индексной карты *cue

REM GENRE Rock
REM DATE 1988
REM DISCID 30057E04
REM COMMENT "ExactAudioCopy v1.0b3"
PERFORMER "Joe Satriani"
TITLE "Dreaming #11"
FILE "Joe Satriani - Dreaming #11.flac" WAVE
  TRACK 01 AUDIO
    TITLE "The Crush Of Love"
    PERFORMER "Joe Satriani"
    INDEX 01 00:00:00
  TRACK 02 AUDIO
    TITLE "Ice Nine"
    PERFORMER "Joe Satriani"
    INDEX 00 04:21:27
    INDEX 01 04:24:27
  TRACK 03 AUDIO
    TITLE "Memories"
    PERFORMER "Joe Satriani"
    INDEX 01 09:05:67
  TRACK 04 AUDIO
    TITLE "Hordes Of Locusts"
    PERFORMER "Joe Satriani"
    INDEX 01 18:14:52

1989 - Flying In A Blue Dream ('1997 Remastered, Epic, EK 68024, U.S.A.) | 01:04:57

01. Flying In A Blue Dream (05:24)
02. The Mystical Potato Head Groove Thing (05:10)
03. Can't Slow Down (04:50)
04. Headless (01:31)
05. Strange (05:03)
06. I Believe (05:55)
07. One Big Rush (03:27)
08. Big Bad Moon (05:16)
09. The Feeling (00:51)
10. The Phone Call (03:02)
11. Day At The Beach (New Rays From An Ancient Sun) (02:04)
12. Back To Shalla-Bal (03:15)
13. Ride (04:57)
14. The Forgotten (Part One) (01:13)
15. The Forgotten (Part Two) (05:09)
16. The Bells Of Lal (Part One) (01:20)
17. The Bells Of Lal (Part Two) (04:08)
18. Into The Light (02:31)

лог создания рипа

Exact Audio Copy V1.0 beta 3 from 29. August 2011
EAC extraction logfile from 14. February 2014, 23:13
Joe Satriani / Flying In A Blue Dream
Used drive  : Optiarc DVD-ROM DDU1675S   Adapter: 3  ID: 0
Read mode               : Secure
Utilize accurate stream : Yes
Defeat audio cache      : Yes
Make use of C2 pointers : No
Read offset correction                      : 6
Overread into Lead-In and Lead-Out          : No
Fill up missing offset samples with silence : Yes
Delete leading and trailing silent blocks   : No
Null samples used in CRC calculations       : Yes
Used interface                              : Native Win32 interface for Win NT & 2000
Used output format              : User Defined Encoder
Selected bitrate                : 1024 kBit/s
Quality                         : High
Add ID3 tag                     : No
Command line compressor         : C:\Program Files (x86)\Exact Audio Copy\Flac\flac.exe
Additional command line options : -V -8 -T "Date=%year%" -T "Genre=%genre%" %source%
TOC of the extracted CD
     Track |   Start  |  Length  | Start sector | End sector
    ---------------------------------------------------------
        1  |  0:00.00 |  5:23.28 |         0    |    24252
        2  |  5:23.28 |  5:09.62 |     24253    |    47489
        3  | 10:33.15 |  4:49.70 |     47490    |    69234
        4  | 15:23.10 |  1:30.18 |     69235    |    76002
        5  | 16:53.28 |  5:02.27 |     76003    |    98679
        6  | 21:55.55 |  5:54.25 |     98680    |   125254
        7  | 27:50.05 |  3:26.48 |    125255    |   140752
        8  | 31:16.53 |  5:15.65 |    140753    |   164442
        9  | 36:32.43 |  0:50.70 |    164443    |   168262
       10  | 37:23.38 |  3:01.07 |    168263    |   181844
       11  | 40:24.45 |  2:03.70 |    181845    |   191139
       12  | 42:28.40 |  3:14.33 |    191140    |   205722
       13  | 45:42.73 |  4:56.42 |    205723    |   227964
       14  | 50:39.40 |  1:12.13 |    227965    |   233377
       15  | 51:51.53 |  5:08.10 |    233378    |   256487
       16  | 56:59.63 |  1:19.10 |    256488    |   262422
       17  | 58:18.73 |  4:07.35 |    262423    |   280982
       18  | 62:26.33 |  2:30.17 |    280983    |   292249
Range status and errors
Selected range
     Filename F:\Torrent\# MY\# Подготовка раздач\Joe Satriani - Studio Discography\1989 - Flying In A Blue Dream ('1997 Remastered, Epic, EK 68024, U.S.A.)\Joe Satriani - Flying In A Blue Dream.wav
     Peak level 100.0 %
     Extraction speed 9.0 X
     Range quality 99.9 %
     Test CRC 3DCFF794
     Copy CRC 3DCFF794
     Copy OK
No errors occurred
AccurateRip summary
Track  1  accurately ripped (confidence 10)  [512F683F]  (AR v2)
Track  2  accurately ripped (confidence 10)  [0EB9019A]  (AR v2)
Track  3  accurately ripped (confidence 10)  [80C85B4C]  (AR v2)
Track  4  accurately ripped (confidence 10)  [0368324B]  (AR v2)
Track  5  accurately ripped (confidence 10)  [801A8375]  (AR v2)
Track  6  accurately ripped (confidence 9)  [84770020]  (AR v2)
Track  7  accurately ripped (confidence 10)  [19E72F0E]  (AR v2)
Track  8  accurately ripped (confidence 10)  [AEF83A77]  (AR v2)
Track  9  accurately ripped (confidence 10)  [8B884B3A]  (AR v2)
Track 10  accurately ripped (confidence 10)  [CEAD05BC]  (AR v2)
Track 11  accurately ripped (confidence 10)  [B4EF0D24]  (AR v2)
Track 12  accurately ripped (confidence 10)  [B75949A3]  (AR v2)
Track 13  accurately ripped (confidence 10)  [0F3793EB]  (AR v2)
Track 14  accurately ripped (confidence 10)  [CD17E0AE]  (AR v2)
Track 15  accurately ripped (confidence 9)  [03EE664B]  (AR v2)
Track 16  accurately ripped (confidence 10)  [F01F7947]  (AR v2)
Track 17  accurately ripped (confidence 10)  [AD7804C1]  (AR v2)
Track 18  accurately ripped (confidence 10)  [9568CB6B]  (AR v2)
All tracks accurately ripped
End of status report
---- CUETools DB Plugin V2.1.4
[CTDB TOCID: dITs9tugaKn8i.CxxG3WBQMQpVc-] found
Submit result: dITs9tugaKn8i.CxxG3WBQMQpVc- has been confirmed
Track | CTDB Status
  1   | (7/8) Accurately ripped
  2   | (7/8) Accurately ripped
  3   | (7/8) Accurately ripped
  4   | (7/8) Accurately ripped
  5   | (7/8) Accurately ripped
  6   | (7/8) Accurately ripped
  7   | (7/8) Accurately ripped
  8   | (7/8) Accurately ripped
  9   | (7/8) Accurately ripped
10   | (7/8) Accurately ripped
11   | (7/8) Accurately ripped
12   | (7/8) Accurately ripped
13   | (7/8) Accurately ripped
14   | (7/8) Accurately ripped
15   | (7/8) Accurately ripped
16   | (7/8) Accurately ripped
17   | (7/8) Accurately ripped
18   | (7/8) Accurately ripped

содержание индексной карты *cue

REM GENRE Rock
REM DATE 1989
REM DISCID E50F3812
REM COMMENT "ExactAudioCopy v1.0b3"
PERFORMER "Joe Satriani"
TITLE "Flying In A Blue Dream"
FILE "Joe Satriani - Flying In A Blue Dream.flac" WAVE
  TRACK 01 AUDIO
    TITLE "Flying In A Blue Dream"
    PERFORMER "Joe Satriani"
    INDEX 01 00:00:00
  TRACK 02 AUDIO
    TITLE "The Mystical Potato Head Groove Thing"
    PERFORMER "Joe Satriani"
    INDEX 01 05:23:28
  TRACK 03 AUDIO
    TITLE "Can't Slow Down"
    PERFORMER "Joe Satriani"
    INDEX 01 10:33:15
  TRACK 04 AUDIO
    TITLE "Headless"
    PERFORMER "Joe Satriani"
    INDEX 01 15:23:10
  TRACK 05 AUDIO
    TITLE "Strange"
    PERFORMER "Joe Satriani"
    INDEX 01 16:53:28
  TRACK 06 AUDIO
    TITLE "I Believe"
    PERFORMER "Joe Satriani"
    INDEX 01 21:55:55
  TRACK 07 AUDIO
    TITLE "One Big Rush"
    PERFORMER "Joe Satriani"
    INDEX 00 27:48:48
    INDEX 01 27:50:05
  TRACK 08 AUDIO
    TITLE "Big Bad Moon"
    PERFORMER "Joe Satriani"
    INDEX 01 31:16:53
  TRACK 09 AUDIO
    TITLE "The Feeling"
    PERFORMER "Joe Satriani"
    INDEX 01 36:32:43
  TRACK 10 AUDIO
    TITLE "The Phone Call"
    PERFORMER "Joe Satriani"
    INDEX 01 37:23:38
  TRACK 11 AUDIO
    TITLE "Day At The Beach (New Rays From An Ancient Sun)"
    PERFORMER "Joe Satriani"
    INDEX 01 40:24:45
  TRACK 12 AUDIO
    TITLE "Back To Shalla-Bal"
    PERFORMER "Joe Satriani"
    INDEX 01 42:28:40
  TRACK 13 AUDIO
    TITLE "Ride"
    PERFORMER "Joe Satriani"
    INDEX 01 45:42:73
  TRACK 14 AUDIO
    TITLE "The Forgotten (Part One)"
    PERFORMER "Joe Satriani"
    INDEX 01 50:39:40
  TRACK 15 AUDIO
    TITLE "The Forgotten (Part Two)"
    PERFORMER "Joe Satriani"
    INDEX 01 51:51:53
  TRACK 16 AUDIO
    TITLE "The Bells Of Lal (Part One)"
    PERFORMER "Joe Satriani"
    INDEX 01 56:59:63
  TRACK 17 AUDIO
    TITLE "The Bells Of Lal (Part Two)"
    PERFORMER "Joe Satriani"
    INDEX 01 58:18:73
  TRACK 18 AUDIO
    TITLE "Into The Light"
    PERFORMER "Joe Satriani"
    INDEX 00 62:25:23
    INDEX 01 62:26:33

1992 - The Extremist (Relativity Records, CRT-1053, U.S.A.) | 00:47:52

01. Friends (03:29)
02. The Extremist (03:44)
03. War (05:48)
04. Cryin' (05:43)
05. Rubina's Blue Sky Happiness (06:11)
06. Summer Song (05:01)
07. Tears In The Rain (01:19)
08. Why (04:46)
09. Motorcycle Driver (04:58)
10. New Blues (06:57)

лог создания рипа

Exact Audio Copy V1.0 beta 3 from 29. August 2011
EAC extraction logfile from 15. February 2014, 1:11
Joe Satriani / The Extremist
Used drive  : Optiarc DVD-ROM DDU1675S   Adapter: 3  ID: 0
Read mode               : Secure
Utilize accurate stream : Yes
Defeat audio cache      : Yes
Make use of C2 pointers : No
Read offset correction                      : 6
Overread into Lead-In and Lead-Out          : No
Fill up missing offset samples with silence : Yes
Delete leading and trailing silent blocks   : No
Null samples used in CRC calculations       : Yes
Used interface                              : Native Win32 interface for Win NT & 2000
Used output format              : User Defined Encoder
Selected bitrate                : 1024 kBit/s
Quality                         : High
Add ID3 tag                     : No
Command line compressor         : C:\Program Files (x86)\Exact Audio Copy\Flac\flac.exe
Additional command line options : -V -8 -T "Date=%year%" -T "Genre=%genre%" %source%
TOC of the extracted CD
     Track |   Start  |  Length  | Start sector | End sector
    ---------------------------------------------------------
        1  |  0:00.00 |  3:28.58 |         0    |    15657
        2  |  3:28.58 |  3:43.17 |     15658    |    32399
        3  |  7:12.00 |  5:47.53 |     32400    |    58477
        4  | 12:59.53 |  5:42.37 |     58478    |    84164
        5  | 18:42.15 |  6:10.40 |     84165    |   111954
        6  | 24:52.55 |  5:00.05 |    111955    |   134459
        7  | 29:52.60 |  1:18.50 |    134460    |   140359
        8  | 31:11.35 |  4:45.03 |    140360    |   161737
        9  | 35:56.38 |  4:57.65 |    161738    |   184077
       10  | 40:54.28 |  6:57.00 |    184078    |   215352
Range status and errors
Selected range
     Filename F:\Torrent\# MY\# Подготовка раздач\Joe Satriani - Studio Discography\1992 - The Extremist (Relativity, CRT-1053, U.S.A.)\Joe Satriani - The Extremist.wav
     Peak level 97.7 %
     Extraction speed 8.6 X
     Range quality 100.0 %
     Test CRC DF556149
     Copy CRC DF556149
     Copy OK
No errors occurred
AccurateRip summary
Track  1  accurately ripped (confidence 6)  [272D5228]  (AR v2)
Track  2  accurately ripped (confidence 6)  [204649BD]  (AR v2)
Track  3  accurately ripped (confidence 6)  [36373985]  (AR v2)
Track  4  accurately ripped (confidence 6)  [9C85C237]  (AR v2)
Track  5  accurately ripped (confidence 6)  [586CEF08]  (AR v2)
Track  6  accurately ripped (confidence 6)  [D1797B0C]  (AR v2)
Track  7  accurately ripped (confidence 6)  [C2E8E357]  (AR v2)
Track  8  accurately ripped (confidence 6)  [B11EDF07]  (AR v2)
Track  9  accurately ripped (confidence 6)  [11725B38]  (AR v2)
Track 10  accurately ripped (confidence 6)  [E6C4C2C6]  (AR v2)
All tracks accurately ripped
End of status report
---- CUETools DB Plugin V2.1.4
[CTDB TOCID: MM6kUiY4h9sns1GKoOHzNP56e4s-] found
Submit result: MM6kUiY4h9sns1GKoOHzNP56e4s- has been confirmed
Track | CTDB Status
  1   | (7/7) Accurately ripped
  2   | (7/7) Accurately ripped
  3   | (7/7) Accurately ripped
  4   | (7/7) Accurately ripped
  5   | (7/7) Accurately ripped
  6   | (7/7) Accurately ripped
  7   | (7/7) Accurately ripped
  8   | (7/7) Accurately ripped
  9   | (7/7) Accurately ripped
10   | (7/7) Accurately ripped

содержание индексной карты *cue

REM GENRE Rock
REM DATE 1992
REM DISCID 830B370A
REM COMMENT "ExactAudioCopy v1.0b3"
PERFORMER "Joe Satriani"
TITLE "The Extremist"
FILE "Joe Satriani - The Extremist.flac" WAVE
  TRACK 01 AUDIO
    TITLE "Friends"
    PERFORMER "Joe Satriani"
    INDEX 01 00:00:00
  TRACK 02 AUDIO
    TITLE "The Extremist"
    PERFORMER "Joe Satriani"
    INDEX 01 03:28:58
  TRACK 03 AUDIO
    TITLE "War"
    PERFORMER "Joe Satriani"
    INDEX 01 07:12:00
  TRACK 04 AUDIO
    TITLE "Cryin'"
    PERFORMER "Joe Satriani"
    INDEX 00 12:58:33
    INDEX 01 12:59:53
  TRACK 05 AUDIO
    TITLE "Rubina's Blue Sky Happiness"
    PERFORMER "Joe Satriani"
    INDEX 00 18:41:08
    INDEX 01 18:42:15
  TRACK 06 AUDIO
    TITLE "Summer Song"
    PERFORMER "Joe Satriani"
    INDEX 00 24:51:73
    INDEX 01 24:52:55
  TRACK 07 AUDIO
    TITLE "Tears In The Rain"
    PERFORMER "Joe Satriani"
    INDEX 00 29:50:53
    INDEX 01 29:52:60
  TRACK 08 AUDIO
    TITLE "Why"
    PERFORMER "Joe Satriani"
    INDEX 01 31:11:35
  TRACK 09 AUDIO
    TITLE "Motorcycle Driver"
    PERFORMER "Joe Satriani"
    INDEX 01 35:56:38
  TRACK 10 AUDIO
    TITLE "New Blues"
    PERFORMER "Joe Satriani"
    INDEX 00 40:53:65
    INDEX 01 40:54:28

1993 - Time Machine (Relativity Records, 88561-1177-2, U.S.A.) (2CD)

CD 1 - Studio | 01:09:58

01. Time Machine (05:07)
02. The Mighty Turtle Head (05:13)
03. All Alone (also known as Left Alone) (04:23)
04. Banana Mango II (06:06)
05. Thinking Of You (03:58)
06. Crazy (04:06)
07. Speed Of Light (05:15)
08. Baroque (02:17)
09. Dweller On The Threshold (04:16)
10. Banana Mango (02:45)
11. Dreaming #11 (03:38)
12. I Am Become Death (03:56)
13. Saying Goodbye (02:55)
14. Woodstock Jam (16:09)

лог создания рипа

Exact Audio Copy V1.0 beta 3 from 29. August 2011
EAC extraction logfile from 15. February 2014, 19:02
Joe Satriani / Time Machine
Used drive  : Optiarc DVD-ROM DDU1675S   Adapter: 3  ID: 0
Read mode               : Secure
Utilize accurate stream : Yes
Defeat audio cache      : Yes
Make use of C2 pointers : No
Read offset correction                      : 6
Overread into Lead-In and Lead-Out          : No
Fill up missing offset samples with silence : Yes
Delete leading and trailing silent blocks   : No
Null samples used in CRC calculations       : Yes
Used interface                              : Native Win32 interface for Win NT & 2000
Used output format              : User Defined Encoder
Selected bitrate                : 1024 kBit/s
Quality                         : High
Add ID3 tag                     : No
Command line compressor         : C:\Program Files (x86)\Exact Audio Copy\Flac\flac.exe
Additional command line options : -V -8 -T "Date=%year%" -T "Genre=%genre%" %source%
TOC of the extracted CD
     Track |   Start  |  Length  | Start sector | End sector
    ---------------------------------------------------------
        1  |  0:00.00 |  5:06.50 |         0    |    22999
        2  |  5:06.50 |  5:12.30 |     23000    |    46429
        3  | 10:19.05 |  4:22.40 |     46430    |    66119
        4  | 14:41.45 |  6:05.65 |     66120    |    93559
        5  | 20:47.35 |  3:57.72 |     93560    |   111406
        6  | 24:45.32 |  4:06.00 |    111407    |   129856
        7  | 28:51.32 |  5:14.13 |    129857    |   153419
        8  | 34:05.45 |  2:16.55 |    153420    |   163674
        9  | 36:22.25 |  4:15.07 |    163675    |   182806
       10  | 40:37.32 |  2:44.10 |    182807    |   195116
       11  | 43:21.42 |  3:37.38 |    195117    |   211429
       12  | 46:59.05 |  3:56.00 |    211430    |   229129
       13  | 50:55.05 |  2:54.60 |    229130    |   242239
       14  | 53:49.65 | 16:08.02 |    242240    |   314841
Range status and errors
Selected range
     Filename F:\Torrent\# MY\# Подготовка раздач\Joe Satriani - Studio Discography\1993 - Time Machine (Relativity, 88561-1177-2, U.S.A.)\CD-1 - Studio\Joe Satriani - Time Machine (CD-1).wav
     Peak level 98.4 %
     Extraction speed 8.5 X
     Range quality 100.0 %
     Test CRC EA002955
     Copy CRC EA002955
     Copy OK
No errors occurred
AccurateRip summary
Track  1  accurately ripped (confidence 36)  [23AAD34F]  (AR v2)
Track  2  accurately ripped (confidence 36)  [5037EAD5]  (AR v2)
Track  3  accurately ripped (confidence 36)  [CB66C0CB]  (AR v2)
Track  4  accurately ripped (confidence 36)  [CF75B1D6]  (AR v2)
Track  5  accurately ripped (confidence 36)  [EC43C2B0]  (AR v2)
Track  6  accurately ripped (confidence 36)  [36A6F7C1]  (AR v2)
Track  7  accurately ripped (confidence 36)  [4992DEFD]  (AR v2)
Track  8  accurately ripped (confidence 36)  [D3C4B6DF]  (AR v2)
Track  9  accurately ripped (confidence 35)  [2355ADE9]  (AR v2)
Track 10  accurately ripped (confidence 35)  [1BFD2C5E]  (AR v2)
Track 11  accurately ripped (confidence 35)  [033221B6]  (AR v2)
Track 12  accurately ripped (confidence 36)  [5F715AEF]  (AR v2)
Track 13  accurately ripped (confidence 36)  [4DDBD709]  (AR v2)
Track 14  accurately ripped (confidence 34)  [A2CCF076]  (AR v2)
All tracks accurately ripped
End of status report
---- CUETools DB Plugin V2.1.4
[CTDB TOCID: uNJb0bAMbGWw0n2Zu3drmd3HlI8-] found
Submit result: uNJb0bAMbGWw0n2Zu3drmd3HlI8- has been confirmed
Track | CTDB Status
  1   | (28/29) Accurately ripped
  2   | (29/29) Accurately ripped
  3   | (29/29) Accurately ripped
  4   | (29/29) Accurately ripped
  5   | (29/29) Accurately ripped
  6   | (29/29) Accurately ripped
  7   | (29/29) Accurately ripped
  8   | (29/29) Accurately ripped
  9   | (29/29) Accurately ripped
10   | (29/29) Accurately ripped
11   | (29/29) Accurately ripped
12   | (29/29) Accurately ripped
13   | (29/29) Accurately ripped
14   | (28/29) Accurately ripped

содержание индексной карты *cue

REM GENRE Rock
REM DATE 1993
REM DISCID B910650E
REM COMMENT "ExactAudioCopy v1.0b3"
PERFORMER "Joe Satriani"
TITLE "Time Machine"
FILE "Joe Satriani - Time Machine (CD-1).flac" WAVE
  TRACK 01 AUDIO
    TITLE "Time Machine"
    PERFORMER "Joe Satriani"
    INDEX 01 00:00:00
  TRACK 02 AUDIO
    TITLE "The Mighty Turtle Head"
    PERFORMER "Joe Satriani"
    INDEX 01 05:06:50
  TRACK 03 AUDIO
    TITLE "All Alone (also known as Left Alone)"
    PERFORMER "Joe Satriani"
    INDEX 00 10:17:33
    INDEX 01 10:19:05
  TRACK 04 AUDIO
    TITLE "Banana Mango II"
    PERFORMER "Joe Satriani"
    INDEX 00 14:40:38
    INDEX 01 14:41:45
  TRACK 05 AUDIO
    TITLE "Thinking Of You"
    PERFORMER "Joe Satriani"
    INDEX 00 20:43:45
    INDEX 01 20:47:35
  TRACK 06 AUDIO
    TITLE "Crazy"
    PERFORMER "Joe Satriani"
    INDEX 00 24:43:03
    INDEX 01 24:45:32
  TRACK 07 AUDIO
    TITLE "Speed Of Light"
    PERFORMER "Joe Satriani"
    INDEX 00 28:50:45
    INDEX 01 28:51:32
  TRACK 08 AUDIO
    TITLE "Baroque"
    PERFORMER "Joe Satriani"
    INDEX 00 34:04:20
    INDEX 01 34:05:45
  TRACK 09 AUDIO
    TITLE "Dweller On The Threshold"
    PERFORMER "Joe Satriani"
    INDEX 00 36:20:33
    INDEX 01 36:22:25
  TRACK 10 AUDIO
    TITLE "Banana Mango"
    PERFORMER "Joe Satriani"
    INDEX 00 40:34:45
    INDEX 01 40:37:32
  TRACK 11 AUDIO
    TITLE "Dreaming #11"
    PERFORMER "Joe Satriani"
    INDEX 00 43:19:53
    INDEX 01 43:21:42
  TRACK 12 AUDIO
    TITLE "I Am Become Death"
    PERFORMER "Joe Satriani"
    INDEX 00 46:58:23
    INDEX 01 46:59:05
  TRACK 13 AUDIO
    TITLE "Saying Goodbye"
    PERFORMER "Joe Satriani"
    INDEX 00 50:54:03
    INDEX 01 50:55:05
  TRACK 14 AUDIO
    TITLE "Woodstock Jam"
    PERFORMER "Joe Satriani"
    INDEX 00 53:47:58
    INDEX 01 53:49:65

CD 2 - Live | 01:09:57

01. Satch Boogie (03:59)
02. Summer Song (06:01)
03. Flying In A Blue Dream (05:25)
04. Cryin' (06:26)
05. The Crush Of Love (05:48)
06. Tears In The Rain (01:52)
07. Always With Me, Always With You (03:40)
08. Big Bad Moon (05:23)
09. Surfing With The Alien (04:40)
10. Rubina (06:45)
11. Circles (04:15)
12. Drum Solo (02:15)
13. Lords Of Karma (05:44)
14. Echo (07:50)

лог создания рипа

Exact Audio Copy V1.0 beta 3 from 29. August 2011
EAC extraction logfile from 15. February 2014, 19:24
Joe Satriani / Time Machine
Used drive  : Optiarc DVD-ROM DDU1675S   Adapter: 3  ID: 0
Read mode               : Secure
Utilize accurate stream : Yes
Defeat audio cache      : Yes
Make use of C2 pointers : No
Read offset correction                      : 6
Overread into Lead-In and Lead-Out          : No
Fill up missing offset samples with silence : Yes
Delete leading and trailing silent blocks   : No
Null samples used in CRC calculations       : Yes
Used interface                              : Native Win32 interface for Win NT & 2000
Used output format              : User Defined Encoder
Selected bitrate                : 1024 kBit/s
Quality                         : High
Add ID3 tag                     : No
Command line compressor         : C:\Program Files (x86)\Exact Audio Copy\Flac\flac.exe
Additional command line options : -V -8 -T "Date=%year%" -T "Genre=%genre%" %source%
TOC of the extracted CD
     Track |   Start  |  Length  | Start sector | End sector
    ---------------------------------------------------------
        1  |  0:00.52 |  3:58.28 |        52    |    17929
        2  |  3:59.05 |  6:00.72 |     17930    |    45001
        3  | 10:00.02 |  5:24.10 |     45002    |    69311
        4  | 15:24.12 |  6:25.55 |     69312    |    98241
        5  | 21:49.67 |  5:47.33 |     98242    |   124299
        6  | 27:37.25 |  1:51.22 |    124300    |   132646
        7  | 29:28.47 |  3:39.58 |    132647    |   149129
        8  | 33:08.30 |  5:22.52 |    149130    |   173331
        9  | 38:31.07 |  4:39.20 |    173332    |   194276
       10  | 43:10.27 |  6:44.28 |    194277    |   224604
       11  | 49:54.55 |  4:14.15 |    224605    |   243669
       12  | 54:08.70 |  2:14.50 |    243670    |   253769
       13  | 56:23.45 |  5:43.25 |    253770    |   279519
       14  | 62:06.70 |  7:49.72 |    279520    |   314766
Range status and errors
Selected range
     Filename F:\Torrent\# MY\# Подготовка раздач\Joe Satriani - Studio Discography\1993 - Time Machine (Relativity, 88561-1177-2, U.S.A.)\CD-2 - Live\Joe Satriani - Time Machine (CD-2).wav
     Peak level 100.0 %
     Extraction speed 8.2 X
     Range quality 100.0 %
     Test CRC 5422C0E0
     Copy CRC 5422C0E0
     Copy OK
No errors occurred
AccurateRip summary
Track  1  accurately ripped (confidence 21)  [C8F54D92]  (AR v2)
Track  2  accurately ripped (confidence 21)  [1C7AE37E]  (AR v2)
Track  3  accurately ripped (confidence 21)  [1179C7F5]  (AR v2)
Track  4  accurately ripped (confidence 21)  [667417F2]  (AR v2)
Track  5  accurately ripped (confidence 21)  [2143A92E]  (AR v2)
Track  6  accurately ripped (confidence 21)  [7FB7BD98]  (AR v2)
Track  7  accurately ripped (confidence 21)  [7285072F]  (AR v2)
Track  8  accurately ripped (confidence 21)  [09425FF5]  (AR v2)
Track  9  accurately ripped (confidence 20)  [F94CD829]  (AR v2)
Track 10  accurately ripped (confidence 20)  [37B6910C]  (AR v2)
Track 11  accurately ripped (confidence 20)  [AE0F2A44]  (AR v2)
Track 12  accurately ripped (confidence 21)  [538D454F]  (AR v2)
Track 13  accurately ripped (confidence 21)  [F8038571]  (AR v2)
Track 14  accurately ripped (confidence 20)  [0A4F3661]  (AR v2)
All tracks accurately ripped
End of status report
---- CUETools DB Plugin V2.1.4
[CTDB TOCID: lrTrVfK1vAac_fxv3M_Lsee4Ufs-] found
Submit result: lrTrVfK1vAac_fxv3M_Lsee4Ufs- has been confirmed
Track | CTDB Status
  1   | (2/2) Accurately ripped
  2   | (2/2) Accurately ripped
  3   | (2/2) Accurately ripped
  4   | (2/2) Accurately ripped
  5   | (2/2) Accurately ripped
  6   | (2/2) Accurately ripped
  7   | (2/2) Accurately ripped
  8   | (2/2) Accurately ripped
  9   | (2/2) Accurately ripped
10   | (2/2) Accurately ripped
11   | (2/2) Accurately ripped
12   | (2/2) Accurately ripped
13   | (2/2) Accurately ripped
14   | (2/2) Accurately ripped

содержание индексной карты *cue

REM GENRE Rock
REM DATE 1993
REM DISCID C510640E
REM COMMENT "ExactAudioCopy v1.0b3"
PERFORMER "Joe Satriani"
TITLE "Time Machine"
FILE "Joe Satriani - Time Machine (CD-2).flac" WAVE
  TRACK 01 AUDIO
    TITLE "Satch Boogie"
    PERFORMER "Joe Satriani"
    INDEX 00 00:00:00
    INDEX 01 00:00:52
  TRACK 02 AUDIO
    TITLE "Summer Song"
    PERFORMER "Joe Satriani"
    INDEX 01 03:59:05
  TRACK 03 AUDIO
    TITLE "Flying In A Blue Dream"
    PERFORMER "Joe Satriani"
    INDEX 01 10:00:02
  TRACK 04 AUDIO
    TITLE "Cryin'"
    PERFORMER "Joe Satriani"
    INDEX 01 15:24:12
  TRACK 05 AUDIO
    TITLE "The Crush Of Love"
    PERFORMER "Joe Satriani"
    INDEX 01 21:49:67
  TRACK 06 AUDIO
    TITLE "Tears In The Rain"
    PERFORMER "Joe Satriani"
    INDEX 01 27:37:25
  TRACK 07 AUDIO
    TITLE "Always With Me, Always With You"
    PERFORMER "Joe Satriani"
    INDEX 01 29:28:47
  TRACK 08 AUDIO
    TITLE "Big Bad Moon"
    PERFORMER "Joe Satriani"
    INDEX 01 33:08:30
  TRACK 09 AUDIO
    TITLE "Surfing With The Alien"
    PERFORMER "Joe Satriani"
    INDEX 01 38:31:07
  TRACK 10 AUDIO
    TITLE "Rubina"
    PERFORMER "Joe Satriani"
    INDEX 01 43:10:27
  TRACK 11 AUDIO
    TITLE "Circles"
    PERFORMER "Joe Satriani"
    INDEX 00 49:52:05
    INDEX 01 49:54:55
  TRACK 12 AUDIO
    TITLE "Drum Solo"
    PERFORMER "Joe Satriani"
    INDEX 01 54:08:70
  TRACK 13 AUDIO
    TITLE "Lords Of Karma"
    PERFORMER "Joe Satriani"
    INDEX 01 56:23:45
  TRACK 14 AUDIO
    TITLE "Echo"
    PERFORMER "Joe Satriani"
    INDEX 01 62:06:70

1995 - Joe Satriani (Relativity Records, 481102 2, Austria) | 01:00:24

01. Cool #9 (06:01)
02. If (04:50)
03. Down, Down, Down (06:14)
04. Luminous Flesh Giants (05:56)
05. S.M.F. (06:44)
06. Look My Way (04:02)
07. Home (03:28)
08. Moroccan Sunset (04:24)
09. Killer Bee Bop (03:49)
10. Slow Down Blues (07:26)
11. (You're) My World (03:57)
12. Sittin' 'Round (03:39)

лог создания рипа

Exact Audio Copy V1.0 beta 3 from 29. August 2011
EAC extraction logfile from 16. February 2014, 1:02
Joe Satriani / Joe Satriani
Used drive  : Optiarc DVD-ROM DDU1675S   Adapter: 3  ID: 0
Read mode               : Secure
Utilize accurate stream : Yes
Defeat audio cache      : Yes
Make use of C2 pointers : No
Read offset correction                      : 6
Overread into Lead-In and Lead-Out          : No
Fill up missing offset samples with silence : Yes
Delete leading and trailing silent blocks   : No
Null samples used in CRC calculations       : Yes
Used interface                              : Native Win32 interface for Win NT & 2000
Used output format              : User Defined Encoder
Selected bitrate                : 1024 kBit/s
Quality                         : High
Add ID3 tag                     : No
Command line compressor         : C:\Program Files (x86)\Exact Audio Copy\Flac\flac.exe
Additional command line options : -V -8 -T "Date=%year%" -T "Genre=%genre%" %source%
TOC of the extracted CD
     Track |   Start  |  Length  | Start sector | End sector
    ---------------------------------------------------------
        1  |  0:00.00 |  6:00.30 |         0    |    27029
        2  |  6:00.30 |  4:49.17 |     27030    |    48721
        3  | 10:49.47 |  6:13.03 |     48722    |    76699
        4  | 17:02.50 |  5:55.40 |     76700    |   103364
        5  | 22:58.15 |  6:43.60 |    103365    |   133649
        6  | 29:42.00 |  4:01.45 |    133650    |   151769
        7  | 33:43.45 |  3:27.47 |    151770    |   167341
        8  | 37:11.17 |  4:23.28 |    167342    |   187094
        9  | 41:34.45 |  3:48.67 |    187095    |   204261
       10  | 45:23.37 |  7:25.05 |    204262    |   237641
       11  | 52:48.42 |  3:56.25 |    237642    |   255366
       12  | 56:44.67 |  3:38.38 |    255367    |   271754
Range status and errors
Selected range
     Filename F:\Torrent\# MY\# Подготовка раздач\Joe Satriani - Studio Discography\1995 - Joe Satriani (Relativity, 481102 2, Austria)\Joe Satriani - Joe Satriani.wav
     Peak level 100.0 %
     Extraction speed 4.5 X
     Range quality 100.0 %
     Test CRC 7C7A55CF
     Copy CRC 7C7A55CF
     Copy OK
No errors occurred
AccurateRip summary
Track  1  accurately ripped (confidence 2)  [3E63F653]  (AR v2)
Track  2  accurately ripped (confidence 2)  [4D5FB7F2]  (AR v2)
Track  3  accurately ripped (confidence 2)  [56882A6B]  (AR v2)
Track  4  accurately ripped (confidence 2)  [109F583D]  (AR v2)
Track  5  accurately ripped (confidence 2)  [1B7585A9]  (AR v2)
Track  6  accurately ripped (confidence 2)  [EAEA6B23]  (AR v2)
Track  7  accurately ripped (confidence 2)  [1C988FB6]  (AR v2)
Track  8  accurately ripped (confidence 2)  [A69E46E3]  (AR v2)
Track  9  accurately ripped (confidence 2)  [D3C1BD0D]  (AR v2)
Track 10  accurately ripped (confidence 2)  [66018D60]  (AR v2)
Track 11  accurately ripped (confidence 2)  [082D1B8F]  (AR v2)
Track 12  accurately ripped (confidence 2)  [3B3FFE2B]  (AR v2)
All tracks accurately ripped
End of status report
---- CUETools DB Plugin V2.1.4
[CTDB TOCID: wxGY6u9Keyc0YlwmiVwNhZN5liY-] found
Submit result: wxGY6u9Keyc0YlwmiVwNhZN5liY- has been confirmed
Track | CTDB Status
  1   | (108/109) Accurately ripped
  2   | (109/109) Accurately ripped
  3   | (109/109) Accurately ripped
  4   | (109/109) Accurately ripped
  5   | (109/109) Accurately ripped
  6   | (109/109) Accurately ripped
  7   | (109/109) Accurately ripped
  8   | (107/109) Accurately ripped
  9   | (108/109) Accurately ripped
10   | (108/109) Accurately ripped
11   | (108/109) Accurately ripped
12   | (109/109) Accurately ripped

содержание индексной карты *cue

REM GENRE Rock
REM DATE 1995
REM DISCID 900E270C
REM COMMENT "ExactAudioCopy v1.0b3"
PERFORMER "Joe Satriani"
TITLE "Joe Satriani"
FILE "Joe Satriani - Joe Satriani.flac" WAVE
  TRACK 01 AUDIO
    TITLE "Cool #9"
    PERFORMER "Joe Satriani"
    INDEX 01 00:00:00
  TRACK 02 AUDIO
    TITLE "If"
    PERFORMER "Joe Satriani"
    INDEX 01 06:00:30
  TRACK 03 AUDIO
    TITLE "Down, Down, Down"
    PERFORMER "Joe Satriani"
    INDEX 01 10:49:47
  TRACK 04 AUDIO
    TITLE "Luminous Flesh Giants"
    PERFORMER "Joe Satriani"
    INDEX 01 17:02:50
  TRACK 05 AUDIO
    TITLE "S.M.F."
    PERFORMER "Joe Satriani"
    INDEX 01 22:58:15
  TRACK 06 AUDIO
    TITLE "Look My Way"
    PERFORMER "Joe Satriani"
    INDEX 00 29:40:12
    INDEX 01 29:42:00
  TRACK 07 AUDIO
    TITLE "Home"
    PERFORMER "Joe Satriani"
    INDEX 01 33:43:45
  TRACK 08 AUDIO
    TITLE "Moroccan Sunset"
    PERFORMER "Joe Satriani"
    INDEX 00 37:09:30
    INDEX 01 37:11:17
  TRACK 09 AUDIO
    TITLE "Killer Bee Bop"
    PERFORMER "Joe Satriani"
    INDEX 00 41:32:65
    INDEX 01 41:34:45
  TRACK 10 AUDIO
    TITLE "Slow Down Blues"
    PERFORMER "Joe Satriani"
    INDEX 01 45:23:37
  TRACK 11 AUDIO
    TITLE "(You're) My World"
    PERFORMER "Joe Satriani"
    INDEX 00 52:46:10
    INDEX 01 52:48:42
  TRACK 12 AUDIO
    TITLE "Sittin' 'Round"
    PERFORMER "Joe Satriani"
    INDEX 00 56:44:46
    INDEX 01 56:44:67

1998 - Crystal Planet (Epic, 489473 2, Austria) | 01:07:45

01. Up In The Sky (04:10)
02. House Full Of Bullets (05:34)
03. Crystal Planet (04:35)
04. Love Thing (03:51)
05. Trundrumbalind (05:14)
06. Lights Of Heaven (04:24)
07. Raspberry Jam Delta-V (05:22)
08. Ceremony (04:54)
09. With Jupiter In Mind (05:47)
10. Secret Prayer (04:28)
11. A Train Of Angels (03:43)
12. A Piece Of Liquid (03:05)
13. Psycho Monkey (04:37)
14. Time (05:06)
15. Z.Z.'s Song (03:02)

лог создания рипа

Exact Audio Copy V1.0 beta 3 from 29. August 2011
EAC extraction logfile from 17. February 2014, 1:03
Joe Satriani / Crystal Planet
Used drive  : Optiarc DVD-ROM DDU1675S   Adapter: 3  ID: 0
Read mode               : Secure
Utilize accurate stream : Yes
Defeat audio cache      : Yes
Make use of C2 pointers : No
Read offset correction                      : 6
Overread into Lead-In and Lead-Out          : No
Fill up missing offset samples with silence : Yes
Delete leading and trailing silent blocks   : No
Null samples used in CRC calculations       : Yes
Used interface                              : Native Win32 interface for Win NT & 2000
Used output format              : User Defined Encoder
Selected bitrate                : 1024 kBit/s
Quality                         : High
Add ID3 tag                     : No
Command line compressor         : C:\Program Files (x86)\Exact Audio Copy\Flac\flac.exe
Additional command line options : -V -8 -T "Date=%year%" -T "Genre=%genre%" %source%
TOC of the extracted CD
     Track |   Start  |  Length  | Start sector | End sector
    ---------------------------------------------------------
        1  |  0:00.00 |  4:09.70 |         0    |    18744
        2  |  4:09.70 |  5:33.35 |     18745    |    43754
        3  |  9:43.30 |  4:34.67 |     43755    |    64371
        4  | 14:18.22 |  3:50.20 |     64372    |    81641
        5  | 18:08.42 |  5:13.35 |     81642    |   105151
        6  | 23:22.02 |  4:23.70 |    105152    |   124946
        7  | 27:45.72 |  5:21.60 |    124947    |   149081
        8  | 33:07.57 |  4:53.03 |    149082    |   171059
        9  | 38:00.60 |  5:46.70 |    171060    |   197079
       10  | 43:47.55 |  4:27.35 |    197080    |   217139
       11  | 48:15.15 |  3:42.47 |    217140    |   233836
       12  | 51:57.62 |  3:04.10 |    233837    |   247646
       13  | 55:01.72 |  4:36.50 |    247647    |   268396
       14  | 59:38.47 |  5:05.03 |    268397    |   291274
       15  | 64:43.50 |  3:01.02 |    291275    |   304851
Range status and errors
Selected range
     Filename F:\Torrent\# MY\# Подготовка раздач\Joe Satriani - Studio Discography\1998 - Crystal Planet (Epic, 489473 2, Austria)\Joe Satriani - Crystal Planet.wav
     Peak level 100.0 %
     Extraction speed 9.2 X
     Range quality 99.9 %
     Test CRC E261484F
     Copy CRC E261484F
     Copy OK
No errors occurred
AccurateRip summary
Track  1  accurately ripped (confidence 56)  [19DA0FA0]  (AR v2)
Track  2  accurately ripped (confidence 56)  [FC987158]  (AR v2)
Track  3  accurately ripped (confidence 56)  [AA99B4E1]  (AR v2)
Track  4  accurately ripped (confidence 56)  [4A5A5F47]  (AR v2)
Track  5  accurately ripped (confidence 56)  [485D1ADA]  (AR v2)
Track  6  accurately ripped (confidence 56)  [93832D88]  (AR v2)
Track  7  accurately ripped (confidence 56)  [3FE97110]  (AR v2)
Track  8  accurately ripped (confidence 56)  [FE59D5F6]  (AR v2)
Track  9  accurately ripped (confidence 56)  [2790546F]  (AR v2)
Track 10  accurately ripped (confidence 56)  [3A729E57]  (AR v2)
Track 11  accurately ripped (confidence 55)  [78722691]  (AR v2)
Track 12  accurately ripped (confidence 55)  [193F0EF6]  (AR v2)
Track 13  accurately ripped (confidence 56)  [B999D4FA]  (AR v2)
Track 14  accurately ripped (confidence 56)  [63AF87BA]  (AR v2)
Track 15  accurately ripped (confidence 56)  [B4BB0911]  (AR v2)
All tracks accurately ripped
End of status report
---- CUETools DB Plugin V2.1.4
[CTDB TOCID: Obf.XB5ARbdtr5tGouc.xpHFooY-] found
Submit result: Obf.XB5ARbdtr5tGouc.xpHFooY- has been confirmed
Track | CTDB Status
  1   | (120/124) Accurately ripped
  2   | (121/124) Accurately ripped
  3   | (121/124) Accurately ripped
  4   | (120/124) Accurately ripped
  5   | (121/124) Accurately ripped
  6   | (121/124) Accurately ripped
  7   | (120/124) Accurately ripped
  8   | (121/124) Accurately ripped
  9   | (120/124) Accurately ripped
10   | (120/124) Accurately ripped
11   | (121/124) Accurately ripped
12   | (121/124) Accurately ripped
13   | (121/124) Accurately ripped
14   | (119/124) Accurately ripped
15   | (119/124) Accurately ripped

содержание индексной карты *cue

REM GENRE Rock
REM DATE 1998
REM DISCID E60FE00F
REM COMMENT "ExactAudioCopy v1.0b3"
PERFORMER "Joe Satriani"
TITLE "Crystal Planet"
FILE "Joe Satriani - Crystal Planet.flac" WAVE
  TRACK 01 AUDIO
    TITLE "Up In The Sky"
    PERFORMER "Joe Satriani"
    INDEX 01 00:00:00
  TRACK 02 AUDIO
    TITLE "House Full Of Bullets"
    PERFORMER "Joe Satriani"
    INDEX 01 04:09:70
  TRACK 03 AUDIO
    TITLE "Crystal Planet"
    PERFORMER "Joe Satriani"
    INDEX 01 09:43:30
  TRACK 04 AUDIO
    TITLE "Love Thing"
    PERFORMER "Joe Satriani"
    INDEX 01 14:18:22
  TRACK 05 AUDIO
    TITLE "Trundrumbalind"
    PERFORMER "Joe Satriani"
    INDEX 01 18:08:42
  TRACK 06 AUDIO
    TITLE "Lights Of Heaven"
    PERFORMER "Joe Satriani"
    INDEX 01 23:22:02
  TRACK 07 AUDIO
    TITLE "Raspberry Jam Delta-V"
    PERFORMER "Joe Satriani"
    INDEX 01 27:45:72
  TRACK 08 AUDIO
    TITLE "Ceremony"
    PERFORMER "Joe Satriani"
    INDEX 01 33:07:57
  TRACK 09 AUDIO
    TITLE "With Jupiter In Mind"
    PERFORMER "Joe Satriani"
    INDEX 01 38:00:60
  TRACK 10 AUDIO
    TITLE "Secret Prayer"
    PERFORMER "Joe Satriani"
    INDEX 01 43:47:55
  TRACK 11 AUDIO
    TITLE "A Train Of Angels"
    PERFORMER "Joe Satriani"
    INDEX 01 48:15:15
  TRACK 12 AUDIO
    TITLE "A Piece Of Liquid"
    PERFORMER "Joe Satriani"
    INDEX 01 51:57:62
  TRACK 13 AUDIO
    TITLE "Psycho Monkey"
    PERFORMER "Joe Satriani"
    INDEX 01 55:01:72
  TRACK 14 AUDIO
    TITLE "Time"
    PERFORMER "Joe Satriani"
    INDEX 01 59:38:47
  TRACK 15 AUDIO
    TITLE "Z.Z.'s Song"
    PERFORMER "Joe Satriani"
    INDEX 01 64:43:50

2000 - Engines Of Creation (Epic, 497665 2, Austria) | 00:53:35

01. Devil's Slide (05:11)
02. Flavor Crystal 7 (04:27)
03. Borg Sex (05:28)
04. Until We Say Goodbye (04:32)
05. Attack (04:23)
06. Champagne? (06:05)
07. Clouds Race Across The Sky (06:15)
08. The Power Cosmic 2000 - Part I (02:10)
09. The Power Cosmic 2000 - Part II (04:24)
10. Slow And Easy (04:45)
11. Engines Of Creation (05:58)

лог создания рипа

Exact Audio Copy V1.0 beta 3 from 29. August 2011
EAC extraction logfile from 17. February 2014, 7:31
Joe Satriani / Engines Of Creation
Used drive  : Optiarc DVD-ROM DDU1675S   Adapter: 3  ID: 0
Read mode               : Secure
Utilize accurate stream : Yes
Defeat audio cache      : Yes
Make use of C2 pointers : No
Read offset correction                      : 6
Overread into Lead-In and Lead-Out          : No
Fill up missing offset samples with silence : Yes
Delete leading and trailing silent blocks   : No
Null samples used in CRC calculations       : Yes
Used interface                              : Native Win32 interface for Win NT & 2000
Used output format              : User Defined Encoder
Selected bitrate                : 1024 kBit/s
Quality                         : High
Add ID3 tag                     : No
Command line compressor         : C:\Program Files (x86)\Exact Audio Copy\Flac\flac.exe
Additional command line options : -V -8 -T "Date=%year%" -T "Genre=%genre%" %source%
TOC of the extracted CD
     Track |   Start  |  Length  | Start sector | End sector
    ---------------------------------------------------------
        1  |  0:00.00 |  5:10.70 |         0    |    23319
        2  |  5:10.70 |  4:26.25 |     23320    |    43294
        3  |  9:37.20 |  5:27.62 |     43295    |    67881
        4  | 15:05.07 |  4:31.65 |     67882    |    88271
        5  | 19:36.72 |  4:22.55 |     88272    |   107976
        6  | 23:59.52 |  6:04.58 |    107977    |   135334
        7  | 30:04.35 |  6:14.62 |    135335    |   163446
        8  | 36:19.22 |  2:09.70 |    163447    |   173191
        9  | 38:29.17 |  4:23.18 |    173192    |   192934
       10  | 42:52.35 |  4:44.07 |    192935    |   214241
       11  | 47:36.42 |  5:57.70 |    214242    |   241086
Range status and errors
Selected range
     Filename F:\Torrent\# MY\# Подготовка раздач\Joe Satriani - Studio Discography\2000 - Engines Of Creation (Epic, 497665 2, Austria)\Joe Satriani - Engines Of Creation.wav
     Peak level 100.0 %
     Extraction speed 8.0 X
     Range quality 100.0 %
     Test CRC 59720994
     Copy CRC 59720994
     Copy OK
No errors occurred
AccurateRip summary
Track  1  accurately ripped (confidence 17)  [C9EE816A]  (AR v2)
Track  2  accurately ripped (confidence 17)  [E1B25039]  (AR v2)
Track  3  accurately ripped (confidence 17)  [A4C9804B]  (AR v2)
Track  4  accurately ripped (confidence 17)  [E255E939]  (AR v2)
Track  5  accurately ripped (confidence 17)  [AF7A6044]  (AR v2)
Track  6  accurately ripped (confidence 17)  [77D46E96]  (AR v2)
Track  7  accurately ripped (confidence 17)  [34CDDB90]  (AR v2)
Track  8  accurately ripped (confidence 17)  [436DC2DB]  (AR v2)
Track  9  accurately ripped (confidence 17)  [9CE7CAB4]  (AR v2)
Track 10  accurately ripped (confidence 17)  [2131EE42]  (AR v2)
Track 11  accurately ripped (confidence 17)  [29882FD4]  (AR v2)
All tracks accurately ripped
End of status report
---- CUETools DB Plugin V2.1.4
[CTDB TOCID: Q6mfdZX1EsnHdHY60JaT2s0Sz5E-] found
Submit result: Q6mfdZX1EsnHdHY60JaT2s0Sz5E- has been confirmed
Track | CTDB Status
  1   | (79/81) Accurately ripped
  2   | (79/81) Accurately ripped
  3   | (80/81) Accurately ripped
  4   | (80/81) Accurately ripped
  5   | (80/81) Accurately ripped
  6   | (80/81) Accurately ripped
  7   | (80/81) Accurately ripped
  8   | (79/81) Accurately ripped
  9   | (80/81) Accurately ripped
10   | (78/81) Accurately ripped
11   | (78/81) Accurately ripped

содержание индексной карты *cue

REM GENRE Rock
REM DATE 2000
REM DISCID 930C8E0B
REM COMMENT "ExactAudioCopy v1.0b3"
PERFORMER "Joe Satriani"
TITLE "Engines Of Creation"
FILE "Joe Satriani - Engines Of Creation.flac" WAVE
  TRACK 01 AUDIO
    TITLE "Devil's Slide"
    PERFORMER "Joe Satriani"
    INDEX 01 00:00:00
  TRACK 02 AUDIO
    TITLE "Flavor Crystal 7"
    PERFORMER "Joe Satriani"
    INDEX 00 05:09:17
    INDEX 01 05:10:70
  TRACK 03 AUDIO
    TITLE "Borg Sex"
    PERFORMER "Joe Satriani"
    INDEX 01 09:37:20
  TRACK 04 AUDIO
    TITLE "Until We Say Goodbye"
    PERFORMER "Joe Satriani"
    INDEX 01 15:05:07
  TRACK 05 AUDIO
    TITLE "Attack"
    PERFORMER "Joe Satriani"
    INDEX 01 19:36:72
  TRACK 06 AUDIO
    TITLE "Champagne?"
    PERFORMER "Joe Satriani"
    INDEX 00 23:57:72
    INDEX 01 23:59:52
  TRACK 07 AUDIO
    TITLE "Clouds Race Across The Sky"
    PERFORMER "Joe Satriani"
    INDEX 01 30:04:35
  TRACK 08 AUDIO
    TITLE "The Power Cosmic 2000 - Part I"
    PERFORMER "Joe Satriani"
    INDEX 01 36:19:22
  TRACK 09 AUDIO
    TITLE "The Power Cosmic 2000 - Part II"
    PERFORMER "Joe Satriani"
    INDEX 01 38:29:17
  TRACK 10 AUDIO
    TITLE "Slow And Easy"
    PERFORMER "Joe Satriani"
    INDEX 01 42:52:35
  TRACK 11 AUDIO
    TITLE "Engines Of Creation"
    PERFORMER "Joe Satriani"
    INDEX 01 47:36:42

2002 - Strange Beautiful Music (Epic, EPC 508076 2, E.U.) | 01:00:23

01. Oriental Melody (03:57)
02. Belly Dancer (05:03)
03. Starry Night (03:56)
04. Chords Of Life (04:14)
05. Mind Storm (04:13)
06. Sleep Walk (02:47)
07. New Last Jam (04:20)
08. Mountain Song (03:32)
09. What Breaks A Heart (05:20)
10. Seven String (04:03)
11. Hill Groove (04:11)
12. The Journey (04:10)
13. The Traveler (05:40)
14. You Saved My Life (05:03)

лог создания рипа

Exact Audio Copy V1.0 beta 3 from 29. August 2011
EAC extraction logfile from 17. February 2014, 9:40
Joe Satriani / Strange Beautiful Music
Used drive  : Optiarc DVD-ROM DDU1675S   Adapter: 3  ID: 0
Read mode               : Secure
Utilize accurate stream : Yes
Defeat audio cache      : Yes
Make use of C2 pointers : No
Read offset correction                      : 6
Overread into Lead-In and Lead-Out          : No
Fill up missing offset samples with silence : Yes
Delete leading and trailing silent blocks   : No
Null samples used in CRC calculations       : Yes
Used interface                              : Native Win32 interface for Win NT & 2000
Used output format              : User Defined Encoder
Selected bitrate                : 1024 kBit/s
Quality                         : High
Add ID3 tag                     : No
Command line compressor         : C:\Program Files (x86)\Exact Audio Copy\Flac\flac.exe
Additional command line options : -V -8 -T "Date=%year%" -T "Genre=%genre%" %source%
TOC of the extracted CD
     Track |   Start  |  Length  | Start sector | End sector
    ---------------------------------------------------------
        1  |  0:00.00 |  3:56.22 |         0    |    17721
        2  |  3:56.22 |  5:02.63 |     17722    |    40434
        3  |  8:59.10 |  3:55.25 |     40435    |    58084
        4  | 12:54.35 |  4:13.47 |     58085    |    77106
        5  | 17:08.07 |  4:12.48 |     77107    |    96054
        6  | 21:20.55 |  2:46.25 |     96055    |   108529
        7  | 24:07.05 |  4:19.52 |    108530    |   128006
        8  | 28:26.57 |  3:31.23 |    128007    |   143854
        9  | 31:58.05 |  5:20.00 |    143855    |   167854
       10  | 37:18.05 |  4:02.70 |    167855    |   186074
       11  | 41:21.00 |  4:10.17 |    186075    |   204841
       12  | 45:31.17 |  4:09.18 |    204842    |   223534
       13  | 49:40.35 |  5:39.55 |    223535    |   249014
       14  | 55:20.15 |  5:02.22 |    249015    |   271686
Range status and errors
Selected range
     Filename F:\Torrent\# MY\# Подготовка раздач\Joe Satriani - Studio Discography\2002 - Strange Beautiful Music (Epic, EPC 508076 2, E.U.)\Joe Satriani - Strange Beautiful Music.wav
     Peak level 100.0 %
     Extraction speed 8.3 X
     Range quality 100.0 %
     Test CRC D128D93F
     Copy CRC D128D93F
     Copy OK
No errors occurred
AccurateRip summary
Track  1  accurately ripped (confidence 18)  [1AB0A934]  (AR v2)
Track  2  accurately ripped (confidence 18)  [C288ADE3]  (AR v2)
Track  3  accurately ripped (confidence 18)  [7D693E58]  (AR v2)
Track  4  accurately ripped (confidence 18)  [F4AA8782]  (AR v2)
Track  5  accurately ripped (confidence 18)  [E64ABAF2]  (AR v2)
Track  6  accurately ripped (confidence 18)  [B47A252B]  (AR v2)
Track  7  accurately ripped (confidence 18)  [924E1240]  (AR v2)
Track  8  accurately ripped (confidence 18)  [4DED2FF4]  (AR v2)
Track  9  accurately ripped (confidence 18)  [F2531ABF]  (AR v2)
Track 10  accurately ripped (confidence 18)  [0A02F969]  (AR v2)
Track 11  accurately ripped (confidence 18)  [DF969A97]  (AR v2)
Track 12  accurately ripped (confidence 18)  [2D3B5ACE]  (AR v2)
Track 13  accurately ripped (confidence 18)  [66367965]  (AR v2)
Track 14  accurately ripped (confidence 18)  [0A55BAA3]  (AR v2)
All tracks accurately ripped
End of status report
---- CUETools DB Plugin V2.1.4
[CTDB TOCID: osBw5Ei71EK41prBYrJ1bPiiStA-] found
Submit result: osBw5Ei71EK41prBYrJ1bPiiStA- has been confirmed
Track | CTDB Status
  1   | (56/59) Accurately ripped
  2   | (56/59) Accurately ripped
  3   | (56/59) Accurately ripped
  4   | (56/59) Accurately ripped
  5   | (56/59) Accurately ripped
  6   | (55/59) Accurately ripped
  7   | (55/59) Accurately ripped
  8   | (55/59) Accurately ripped
  9   | (55/59) Accurately ripped
10   | (55/59) Accurately ripped
11   | (55/59) Accurately ripped
12   | (55/59) Accurately ripped
13   | (55/59) Accurately ripped
14   | (55/59) Accurately ripped

содержание индексной карты *cue

REM GENRE Rock
REM DATE 2002
REM DISCID B30E260E
REM COMMENT "ExactAudioCopy v1.0b3"
PERFORMER "Joe Satriani"
TITLE "Strange Beautiful Music"
FILE "Joe Satriani - Strange Beautiful Music.flac" WAVE
  TRACK 01 AUDIO
    TITLE "Oriental Melody"
    PERFORMER "Joe Satriani"
    INDEX 01 00:00:00
  TRACK 02 AUDIO
    TITLE "Belly Dancer"
    PERFORMER "Joe Satriani"
    INDEX 00 03:54:45
    INDEX 01 03:56:22
  TRACK 03 AUDIO
    TITLE "Starry Night"
    PERFORMER "Joe Satriani"
    INDEX 00 08:56:62
    INDEX 01 08:59:10
  TRACK 04 AUDIO
    TITLE "Chords Of Life"
    PERFORMER "Joe Satriani"
    INDEX 00 12:52:47
    INDEX 01 12:54:35
  TRACK 05 AUDIO
    TITLE "Mind Storm"
    PERFORMER "Joe Satriani"
    INDEX 00 17:06:70
    INDEX 01 17:08:07
  TRACK 06 AUDIO
    TITLE "Sleep Walk"
    PERFORMER "Joe Satriani"
    INDEX 00 21:18:05
    INDEX 01 21:20:55
  TRACK 07 AUDIO
    TITLE "New Last Jam"
    PERFORMER "Joe Satriani"
    INDEX 00 24:03:72
    INDEX 01 24:07:05
  TRACK 08 AUDIO
    TITLE "Mountain Song"
    PERFORMER "Joe Satriani"
    INDEX 00 28:23:20
    INDEX 01 28:26:57
  TRACK 09 AUDIO
    TITLE "What Breaks A Heart"
    PERFORMER "Joe Satriani"
    INDEX 00 31:55:42
    INDEX 01 31:58:05
  TRACK 10 AUDIO
    TITLE "Seven String"
    PERFORMER "Joe Satriani"
    INDEX 00 37:16:15
    INDEX 01 37:18:05
  TRACK 11 AUDIO
    TITLE "Hill Groove"
    PERFORMER "Joe Satriani"
    INDEX 00 41:18:42
    INDEX 01 41:21:00
  TRACK 12 AUDIO
    TITLE "The Journey"
    PERFORMER "Joe Satriani"
    INDEX 00 45:28:65
    INDEX 01 45:31:17
  TRACK 13 AUDIO
    TITLE "The Traveler"
    PERFORMER "Joe Satriani"
    INDEX 00 49:39:40
    INDEX 01 49:40:35
  TRACK 14 AUDIO
    TITLE "You Saved My Life"
    PERFORMER "Joe Satriani"
    INDEX 00 55:17:30
    INDEX 01 55:20:15

2004 - Is There Love In Space (Epic, 516155 2, E.U.) | 00:58:13

01. Gnaahh (03:34)
02. Up In Flames (04:34)
03. Hands In The Air (04:28)
04. Lifestyle (04:35)
05. Is There Love In Space? (04:51)
06. If I Could Fly (06:32)
07. The Souls Of Distortion (04:59)
08. Just Look Up (04:51)
09. I Like The Rain (04:01)
10. Searching (10:08)
11. Bamboo (05:46)

лог создания рипа

Exact Audio Copy V1.0 beta 3 from 29. August 2011
EAC extraction logfile from 17. February 2014, 11:03
Joe Satriani / Is There Love In Space?
Used drive  : Optiarc DVD-ROM DDU1675S   Adapter: 3  ID: 0
Read mode               : Secure
Utilize accurate stream : Yes
Defeat audio cache      : Yes
Make use of C2 pointers : No
Read offset correction                      : 6
Overread into Lead-In and Lead-Out          : No
Fill up missing offset samples with silence : Yes
Delete leading and trailing silent blocks   : No
Null samples used in CRC calculations       : Yes
Used interface                              : Native Win32 interface for Win NT & 2000
Used output format              : User Defined Encoder
Selected bitrate                : 1024 kBit/s
Quality                         : High
Add ID3 tag                     : No
Command line compressor         : C:\Program Files (x86)\Exact Audio Copy\Flac\flac.exe
Additional command line options : -V -8 -T "Date=%year%" -T "Genre=%genre%" %source%
TOC of the extracted CD
     Track |   Start  |  Length  | Start sector | End sector
    ---------------------------------------------------------
        1  |  0:00.00 |  3:33.22 |         0    |    15996
        2  |  3:33.22 |  4:33.14 |     15997    |    36485
        3  |  8:06.36 |  4:27.70 |     36486    |    56580
        4  | 12:34.31 |  4:34.58 |     56581    |    77188
        5  | 17:09.14 |  4:50.41 |     77189    |    98979
        6  | 21:59.55 |  6:31.06 |     98980    |   128310
        7  | 28:30.61 |  4:58.15 |    128311    |   150675
        8  | 33:29.01 |  4:50.51 |    150676    |   172476
        9  | 38:19.52 |  4:00.24 |    172477    |   190500
       10  | 42:20.01 | 10:07.37 |    190501    |   236062
       11  | 52:27.38 |  5:45.26 |    236063    |   261963
Range status and errors
Selected range
     Filename F:\Torrent\# MY\# Подготовка раздач\Joe Satriani - Studio Discography\2004 - Is There Love In Space (Epic, 516155 2, E.U.)\Joe Satriani - Is There Love In Space.wav
     Peak level 100.0 %
     Extraction speed 8.2 X
     Range quality 100.0 %
     Test CRC 9A498BED
     Copy CRC 9A498BED
     Copy OK
No errors occurred
AccurateRip summary
Track  1  accurately ripped (confidence 26)  [C2167905]  (AR v2)
Track  2  accurately ripped (confidence 26)  [ABD2B28B]  (AR v2)
Track  3  accurately ripped (confidence 25)  [836A6E3B]  (AR v2)
Track  4  accurately ripped (confidence 26)  [695308C5]  (AR v2)
Track  5  accurately ripped (confidence 25)  [783B7AFF]  (AR v2)
Track  6  accurately ripped (confidence 26)  [A16A8B5B]  (AR v2)
Track  7  accurately ripped (confidence 26)  [425AD627]  (AR v2)
Track  8  accurately ripped (confidence 25)  [B11B322A]  (AR v2)
Track  9  accurately ripped (confidence 26)  [2484F122]  (AR v2)
Track 10  accurately ripped (confidence 25)  [1BBB6BB0]  (AR v2)
Track 11  accurately ripped (confidence 25)  [68B2D701]  (AR v2)
All tracks accurately ripped
End of status report
---- CUETools DB Plugin V2.1.4
[CTDB TOCID: BwRSWgRJz8C751XuWZ1SUEGuTTg-] found
Submit result: BwRSWgRJz8C751XuWZ1SUEGuTTg- has been confirmed
Track | CTDB Status
  1   | (53/54) Accurately ripped
  2   | (54/54) Accurately ripped
  3   | (54/54) Accurately ripped
  4   | (54/54) Accurately ripped
  5   | (54/54) Accurately ripped
  6   | (54/54) Accurately ripped
  7   | (53/54) Accurately ripped
  8   | (52/54) Accurately ripped
  9   | (52/54) Accurately ripped
10   | (52/54) Accurately ripped
11   | (51/54) Accurately ripped

содержание индексной карты *cue

REM GENRE Rock
REM DATE 2004
REM DISCID 6F0DA40B
REM COMMENT "ExactAudioCopy v1.0b3"
PERFORMER "Joe Satriani"
TITLE "Is There Love In Space?"
FILE "Joe Satriani - Is There Love In Space.flac" WAVE
  TRACK 01 AUDIO
    TITLE "Gnaahh"
    PERFORMER "Joe Satriani"
    FLAGS DCP
    INDEX 01 00:00:00
  TRACK 02 AUDIO
    TITLE "Up In Flames"
    PERFORMER "Joe Satriani"
    FLAGS DCP
    INDEX 00 03:32:13
    INDEX 01 03:33:22
  TRACK 03 AUDIO
    TITLE "Hands In The Air"
    PERFORMER "Joe Satriani"
    FLAGS DCP
    INDEX 01 08:06:36
  TRACK 04 AUDIO
    TITLE "Lifestyle"
    PERFORMER "Joe Satriani"
    FLAGS DCP
    INDEX 01 12:34:31
  TRACK 05 AUDIO
    TITLE "Is There Love In Space?"
    PERFORMER "Joe Satriani"
    FLAGS DCP
    INDEX 01 17:09:14
  TRACK 06 AUDIO
    TITLE "If I Could Fly"
    PERFORMER "Joe Satriani"
    FLAGS DCP
    INDEX 01 21:59:55
  TRACK 07 AUDIO
    TITLE "The Souls Of Distortion"
    PERFORMER "Joe Satriani"
    FLAGS DCP
    INDEX 01 28:30:61
  TRACK 08 AUDIO
    TITLE "Just Look Up"
    PERFORMER "Joe Satriani"
    FLAGS DCP
    INDEX 00 33:26:66
    INDEX 01 33:29:01
  TRACK 09 AUDIO
    TITLE "I Like The Rain"
    PERFORMER "Joe Satriani"
    FLAGS DCP
    INDEX 01 38:19:52
  TRACK 10 AUDIO
    TITLE "Searching"
    PERFORMER "Joe Satriani"
    FLAGS DCP
    INDEX 01 42:20:01
  TRACK 11 AUDIO
    TITLE "Bamboo"
    PERFORMER "Joe Satriani"
    FLAGS DCP
    INDEX 01 52:27:38

2006 - Super Colossal (Epic, 82876 76755 2, E.U.) | 00:59:02

01. Super Colossal (04:15)
02. Just Like Lightnin' (04:02)
03. It's So Good (04:15)
04. Redshift Riders (04:50)
05. Ten Words (03:29)
06. A Cool New Way (06:14)
07. One Robot's Dream (06:17)
08. The Meaning Of Love (04:35)
09. Made Of Tears (05:33)
10. Theme For A Strange World (04:40)
11. Movin' On (04:06)
12. A Love Eternal (03:34)
13. Crowd Chant (03:15)

лог создания рипа

Exact Audio Copy V1.0 beta 3 from 29. August 2011
EAC extraction logfile from 17. February 2014, 22:36
Joe Satriani / Super Colossal
Used drive  : Optiarc DVD-ROM DDU1675S   Adapter: 3  ID: 0
Read mode               : Secure
Utilize accurate stream : Yes
Defeat audio cache      : Yes
Make use of C2 pointers : No
Read offset correction                      : 6
Overread into Lead-In and Lead-Out          : No
Fill up missing offset samples with silence : Yes
Delete leading and trailing silent blocks   : No
Null samples used in CRC calculations       : Yes
Used interface                              : Native Win32 interface for Win NT & 2000
Used output format              : User Defined Encoder
Selected bitrate                : 1024 kBit/s
Quality                         : High
Add ID3 tag                     : No
Command line compressor         : C:\Program Files (x86)\Exact Audio Copy\Flac\flac.exe
Additional command line options : -V -8 -T "Date=%year%" -T "Genre=%genre%" %source%
TOC of the extracted CD
     Track |   Start  |  Length  | Start sector | End sector
    ---------------------------------------------------------
        1  |  0:00.00 |  4:14.55 |         0    |    19104
        2  |  4:14.55 |  4:01.68 |     19105    |    37247
        3  |  8:16.48 |  4:14.63 |     37248    |    56360
        4  | 12:31.36 |  4:50.00 |     56361    |    78110
        5  | 17:21.36 |  3:28.44 |     78111    |    93754
        6  | 20:50.05 |  6:13.36 |     93755    |   121765
        7  | 27:03.41 |  6:16.06 |    121766    |   149971
        8  | 33:19.47 |  4:34.74 |    149972    |   170595
        9  | 37:54.46 |  5:32.64 |    170596    |   195559
       10  | 43:27.35 |  4:39.38 |    195560    |   216522
       11  | 48:06.73 |  4:05.45 |    216523    |   234942
       12  | 52:12.43 |  3:33.67 |    234943    |   250984
       13  | 55:46.35 |  3:14.73 |    250985    |   265607
Range status and errors
Selected range
     Filename F:\Torrent\# MY\# Подготовка раздач\Joe Satriani - Studio Discography\2006 - Super Colossal (Epic, 82876 76755 2, E.U.)\Joe Satriani - Super Colossal.wav
     Peak level 100.0 %
     Extraction speed 8.3 X
     Range quality 99.9 %
     Test CRC F80300B2
     Copy CRC F80300B2
     Copy OK
No errors occurred
AccurateRip summary
Track  1  accurately ripped (confidence 46)  [99DE255C]  (AR v2)
Track  2  accurately ripped (confidence 45)  [79022565]  (AR v2)
Track  3  accurately ripped (confidence 46)  [0E77A836]  (AR v2)
Track  4  accurately ripped (confidence 46)  [DCA46AC2]  (AR v2)
Track  5  accurately ripped (confidence 46)  [EA4091D6]  (AR v2)
Track  6  accurately ripped (confidence 46)  [F8AB0CF1]  (AR v2)
Track  7  accurately ripped (confidence 46)  [0F7BCC1E]  (AR v2)
Track  8  accurately ripped (confidence 45)  [BB95490E]  (AR v2)
Track  9  accurately ripped (confidence 45)  [31503A73]  (AR v2)
Track 10  accurately ripped (confidence 45)  [77D6FB5C]  (AR v2)
Track 11  accurately ripped (confidence 44)  [7027826E]  (AR v2)
Track 12  accurately ripped (confidence 44)  [6CCB3FFF]  (AR v2)
Track 13  accurately ripped (confidence 43)  [81287529]  (AR v2)
All tracks accurately ripped
End of status report
---- CUETools DB Plugin V2.1.4
[CTDB TOCID: o1z_LeJ7vmQHD9U8GBmNv71QxeE-] found
Submit result: o1z_LeJ7vmQHD9U8GBmNv71QxeE- has been confirmed
Track | CTDB Status
  1   | (86/86) Accurately ripped
  2   | (86/86) Accurately ripped
  3   | (86/86) Accurately ripped
  4   | (85/86) Accurately ripped
  5   | (86/86) Accurately ripped
  6   | (85/86) Accurately ripped
  7   | (86/86) Accurately ripped
  8   | (85/86) Accurately ripped
  9   | (86/86) Accurately ripped
10   | (86/86) Accurately ripped
11   | (85/86) Accurately ripped
12   | (86/86) Accurately ripped
13   | (85/86) Accurately ripped

содержание индексной карты *cue

REM GENRE Rock
REM DATE 2006
REM DISCID AF0DD50D
REM COMMENT "ExactAudioCopy v1.0b3"
PERFORMER "Joe Satriani"
TITLE "Super Colossal"
FILE "Joe Satriani - Super Colossal.flac" WAVE
  TRACK 01 AUDIO
    TITLE "Super Colossal"
    PERFORMER "Joe Satriani"
    INDEX 01 00:00:00
  TRACK 02 AUDIO
    TITLE "Just Like Lightnin'"
    PERFORMER "Joe Satriani"
    INDEX 01 04:14:55
  TRACK 03 AUDIO
    TITLE "It's So Good"
    PERFORMER "Joe Satriani"
    INDEX 01 08:16:48
  TRACK 04 AUDIO
    TITLE "Redshift Riders"
    PERFORMER "Joe Satriani"
    INDEX 01 12:31:36
  TRACK 05 AUDIO
    TITLE "Ten Words"
    PERFORMER "Joe Satriani"
    INDEX 01 17:21:36
  TRACK 06 AUDIO
    TITLE "A Cool New Way"
    PERFORMER "Joe Satriani"
    INDEX 01 20:50:05
  TRACK 07 AUDIO
    TITLE "One Robot's Dream"
    PERFORMER "Joe Satriani"
    INDEX 01 27:03:41
  TRACK 08 AUDIO
    TITLE "The Meaning Of Love"
    PERFORMER "Joe Satriani"
    INDEX 01 33:19:47
  TRACK 09 AUDIO
    TITLE "Made Of Tears"
    PERFORMER "Joe Satriani"
    INDEX 01 37:54:46
  TRACK 10 AUDIO
    TITLE "Theme For A Strange World"
    PERFORMER "Joe Satriani"
    INDEX 01 43:27:35
  TRACK 11 AUDIO
    TITLE "Movin' On"
    PERFORMER "Joe Satriani"
    INDEX 01 48:06:73
  TRACK 12 AUDIO
    TITLE "A Love Eternal"
    PERFORMER "Joe Satriani"
    INDEX 01 52:12:43
  TRACK 13 AUDIO
    TITLE "Crowd Chant"
    PERFORMER "Joe Satriani"
    INDEX 01 55:46:35

2008 - Professor Satchafunkilus And The Musterion Of Rock (Epic, 88697212622, E.U.) | 00:54:20

01. Musterion (04:38)
02. Overdriver (05:07)
03. I Just Wanna Rock (03:28)
04. Professor Satchafunkilus (04:48)
05. Revelation (05:58)
06. Come On Baby (05:50)
07. Out Of The Sunrise (05:44)
08. Diddle-Y-A-Doo-Dat (04:17)
09. Asik Vaysel (07:43)
10. Andalusia (06:52)

лог создания рипа

Exact Audio Copy V1.0 beta 3 from 29. August 2011
EAC extraction logfile from 18. February 2014, 10:14
Joe Satriani / Professor Satchafunkilus And The Musterion Of Rock
Used drive  : Optiarc DVD-ROM DDU1675S   Adapter: 3  ID: 0
Read mode               : Secure
Utilize accurate stream : Yes
Defeat audio cache      : Yes
Make use of C2 pointers : No
Read offset correction                      : 6
Overread into Lead-In and Lead-Out          : No
Fill up missing offset samples with silence : Yes
Delete leading and trailing silent blocks   : No
Null samples used in CRC calculations       : Yes
Used interface                              : Native Win32 interface for Win NT & 2000
Used output format              : User Defined Encoder
Selected bitrate                : 1024 kBit/s
Quality                         : High
Add ID3 tag                     : No
Command line compressor         : C:\Program Files (x86)\Exact Audio Copy\Flac\flac.exe
Additional command line options : -V -8 -T "Date=%year%" -T "Genre=%genre%" %source%
TOC of the extracted CD
     Track |   Start  |  Length  | Start sector | End sector
    ---------------------------------------------------------
        1  |  0:00.00 |  4:37.71 |         0    |    20845
        2  |  4:37.71 |  5:06.68 |     20846    |    43863
        3  |  9:44.64 |  3:27.34 |     43864    |    59422
        4  | 13:12.23 |  4:47.46 |     59423    |    80993
        5  | 17:59.69 |  5:57.12 |     80994    |   107780
        6  | 23:57.06 |  5:49.10 |    107781    |   133965
        7  | 29:46.16 |  5:43.28 |    133966    |   159718
        8  | 35:29.44 |  4:16.07 |    159719    |   178925
        9  | 39:45.51 |  7:42.16 |    178926    |   213591
       10  | 47:27.67 |  6:51.64 |    213592    |   244480
Range status and errors
Selected range
     Filename F:\Torrent\# MY\# Подготовка раздач\Joe Satriani - Studio Discography\2008 - Professor Satchafunkilus And The Musterion Of Rock (Epic, 88697212622, E.U.)\Joe Satriani - Professor Satchafunkilus And The Musterion Of Rock.wav
     Peak level 98.8 %
     Extraction speed 4.5 X
     Range quality 100.0 %
     Test CRC 9D392909
     Copy CRC 9D392909
     Copy OK
No errors occurred
AccurateRip summary
Track  1  accurately ripped (confidence 31)  [4FBF4403]  (AR v2)
Track  2  accurately ripped (confidence 29)  [5A6B17CA]  (AR v2)
Track  3  accurately ripped (confidence 30)  [19D852F9]  (AR v2)
Track  4  accurately ripped (confidence 31)  [6A3C16E1]  (AR v2)
Track  5  accurately ripped (confidence 31)  [7F1326E1]  (AR v2)
Track  6  accurately ripped (confidence 31)  [49D523DF]  (AR v2)
Track  7  accurately ripped (confidence 30)  [7EEE6CA7]  (AR v2)
Track  8  accurately ripped (confidence 31)  [F2911547]  (AR v2)
Track  9  accurately ripped (confidence 31)  [85272DCF]  (AR v2)
Track 10  accurately ripped (confidence 31)  [F76F570B]  (AR v2)
All tracks accurately ripped
End of status report
---- CUETools DB Plugin V2.1.4
[CTDB TOCID: U9mIaqb3xWfZvJWpSkV9QTq8ED4-] found
Submit result: U9mIaqb3xWfZvJWpSkV9QTq8ED4- has been confirmed
Track | CTDB Status
  1   | (72/73) Accurately ripped
  2   | (72/73) Accurately ripped
  3   | (72/73) Accurately ripped
  4   | (72/73) Accurately ripped
  5   | (72/73) Accurately ripped
  6   | (72/73) Accurately ripped
  7   | (72/73) Accurately ripped
  8   | (72/73) Accurately ripped
  9   | (72/73) Accurately ripped
10   | (72/73) Accurately ripped

содержание индексной карты *cue

REM GENRE Rosk
REM DATE 2008
REM DISCID A00CBB0A
REM COMMENT "ExactAudioCopy v1.0b3"
PERFORMER "Joe Satriani"
TITLE "Professor Satchafunkilus And The Musterion Of Rock"
FILE "Joe Satriani - Professor Satchafunkilus And The Musterion Of Rock.flac" WAVE
  TRACK 01 AUDIO
    TITLE "Musterion"
    PERFORMER "Joe Satriani"
    INDEX 01 00:00:00
  TRACK 02 AUDIO
    TITLE "Overdriver"
    PERFORMER "Joe Satriani"
    INDEX 00 04:37:63
    INDEX 01 04:37:71
  TRACK 03 AUDIO
    TITLE "I Just Wanna Rock"
    PERFORMER "Joe Satriani"
    INDEX 00 09:43:10
    INDEX 01 09:44:64
  TRACK 04 AUDIO
    TITLE "Professor Satchafunkilus"
    PERFORMER "Joe Satriani"
    INDEX 00 13:10:24
    INDEX 01 13:12:23
  TRACK 05 AUDIO
    TITLE "Revelation"
    PERFORMER "Joe Satriani"
    INDEX 00 17:59:58
    INDEX 01 17:59:69
  TRACK 06 AUDIO
    TITLE "Come On Baby"
    PERFORMER "Joe Satriani"
    INDEX 00 23:55:22
    INDEX 01 23:57:06
  TRACK 07 AUDIO
    TITLE "Out Of The Sunrise"
    PERFORMER "Joe Satriani"
    INDEX 00 29:45:35
    INDEX 01 29:46:16
  TRACK 08 AUDIO
    TITLE "Diddle-Y-A-Doo-Dat"
    PERFORMER "Joe Satriani"
    INDEX 00 35:28:61
    INDEX 01 35:29:44
  TRACK 09 AUDIO
    TITLE "Asik Vaysel"
    PERFORMER "Joe Satriani"
    INDEX 00 39:44:00
    INDEX 01 39:45:51
  TRACK 10 AUDIO
    TITLE "Andalusia"
    PERFORMER "Joe Satriani"
    INDEX 01 47:27:67

2010 - Black Swans And Wormhole Wizards (Epic, 88697735002, E.U.) | 00:53:18

01. Premonition (03:53)
02. Dream Song (04:49)
03. Pyrrhic Victoria (05:09)
04. Light Years Away (06:12)
05. Solitude (00:58)
06. Littleworth Lane (03:47)
07. The Golden Room (05:20)
08. Two Sides To Every Story (04:11)
09. Wormhole Wizards (06:28)
10. Wind In The Trees (07:43)
11. God Is Crying (04:53)

лог создания рипа

Exact Audio Copy V1.0 beta 3 from 29. August 2011
EAC extraction logfile from 18. February 2014, 10:50
Joe Satriani / Black Swans And Wormhole Wizards
Used drive  : Optiarc DVD-ROM DDU1675S   Adapter: 3  ID: 0
Read mode               : Secure
Utilize accurate stream : Yes
Defeat audio cache      : Yes
Make use of C2 pointers : No
Read offset correction                      : 6
Overread into Lead-In and Lead-Out          : No
Fill up missing offset samples with silence : Yes
Delete leading and trailing silent blocks   : No
Null samples used in CRC calculations       : Yes
Used interface                              : Native Win32 interface for Win NT & 2000
Used output format              : User Defined Encoder
Selected bitrate                : 1024 kBit/s
Quality                         : High
Add ID3 tag                     : No
Command line compressor         : C:\Program Files (x86)\Exact Audio Copy\Flac\flac.exe
Additional command line options : -V -8 -T "Date=%year%" -T "Genre=%genre%" %source%
TOC of the extracted CD
     Track |   Start  |  Length  | Start sector | End sector
    ---------------------------------------------------------
        1  |  0:00.00 |  3:52.42 |         0    |    17441
        2  |  3:52.42 |  4:48.65 |     17442    |    39106
        3  |  8:41.32 |  5:08.32 |     39107    |    62238
        4  | 13:49.64 |  6:11.08 |     62239    |    90071
        5  | 20:00.72 |  0:57.68 |     90072    |    94414
        6  | 20:58.65 |  3:46.20 |     94415    |   111384
        7  | 24:45.10 |  5:19.28 |    111385    |   135337
        8  | 30:04.38 |  4:10.19 |    135338    |   154106
        9  | 34:14.57 |  6:27.11 |    154107    |   183142
       10  | 40:41.68 |  7:42.30 |    183143    |   217822
       11  | 48:24.23 |  4:52.54 |    217823    |   239776
Range status and errors
Selected range
     Filename F:\Torrent\# MY\# Подготовка раздач\Joe Satriani - Studio Discography\2010 - Black Swans And Wormhole Wizards (Epic, 88697735002, E.U.)\Joe Satriani - Black Swans And Wormhole Wizards.wav
     Peak level 99.9 %
     Extraction speed 8.0 X
     Range quality 100.0 %
     Test CRC EF96B4CA
     Copy CRC EF96B4CA
     Copy OK
No errors occurred
AccurateRip summary
Track  1  accurately ripped (confidence 98)  [084938DD]  (AR v2)
Track  2  accurately ripped (confidence 98)  [97EF7850]  (AR v2)
Track  3  accurately ripped (confidence 98)  [115F1EDA]  (AR v2)
Track  4  accurately ripped (confidence 98)  [1FA30FF2]  (AR v2)
Track  5  accurately ripped (confidence 98)  [945DC94D]  (AR v2)
Track  6  accurately ripped (confidence 98)  [C9E3101B]  (AR v2)
Track  7  accurately ripped (confidence 98)  [DE0B59B3]  (AR v2)
Track  8  accurately ripped (confidence 98)  [A0D89B62]  (AR v2)
Track  9  accurately ripped (confidence 98)  [79E4F888]  (AR v2)
Track 10  accurately ripped (confidence 98)  [ED6D99AB]  (AR v2)
Track 11  accurately ripped (confidence 97)  [AE7EE013]  (AR v2)
All tracks accurately ripped
End of status report
---- CUETools DB Plugin V2.1.4
[CTDB TOCID: KQgQecgRaa.PdnN.DkYsUfR_h4Q-] found
Submit result: KQgQecgRaa.PdnN.DkYsUfR_h4Q- has been confirmed
Track | CTDB Status
  1   | (95/95) Accurately ripped
  2   | (95/95) Accurately ripped
  3   | (95/95) Accurately ripped
  4   | (95/95) Accurately ripped
  5   | (95/95) Accurately ripped
  6   | (95/95) Accurately ripped
  7   | (95/95) Accurately ripped
  8   | (95/95) Accurately ripped
  9   | (95/95) Accurately ripped
10   | (95/95) Accurately ripped
11   | (94/95) Accurately ripped

содержание индексной карты *cue

REM GENRE Rock
REM DATE 2010
REM DISCID 7D0C7D0B
REM COMMENT "ExactAudioCopy v1.0b3"
PERFORMER "Joe Satriani"
TITLE "Black Swans And Wormhole Wizards"
FILE "Joe Satriani - Black Swans And Wormhole Wizards.flac" WAVE
  TRACK 01 AUDIO
    TITLE "Premonition"
    PERFORMER "Joe Satriani"
    INDEX 01 00:00:00
  TRACK 02 AUDIO
    TITLE "Dream Song"
    PERFORMER "Joe Satriani"
    INDEX 01 03:52:42
  TRACK 03 AUDIO
    TITLE "Pyrrhic Victoria"
    PERFORMER "Joe Satriani"
    INDEX 01 08:41:32
  TRACK 04 AUDIO
    TITLE "Light Years Away"
    PERFORMER "Joe Satriani"
    INDEX 01 13:49:64
  TRACK 05 AUDIO
    TITLE "Solitude"
    PERFORMER "Joe Satriani"
    INDEX 01 20:00:72
  TRACK 06 AUDIO
    TITLE "Littleworth Lane"
    PERFORMER "Joe Satriani"
    INDEX 01 20:58:65
  TRACK 07 AUDIO
    TITLE "The Golden Room"
    PERFORMER "Joe Satriani"
    INDEX 01 24:45:10
  TRACK 08 AUDIO
    TITLE "Two Sides To Every Story"
    PERFORMER "Joe Satriani"
    INDEX 01 30:04:38
  TRACK 09 AUDIO
    TITLE "Wormhole Wizards"
    PERFORMER "Joe Satriani"
    INDEX 00 34:13:28
    INDEX 01 34:14:57
  TRACK 10 AUDIO
    TITLE "Wind In The Trees"
    PERFORMER "Joe Satriani"
    INDEX 01 40:41:68
  TRACK 11 AUDIO
    TITLE "God Is Crying"
    PERFORMER "Joe Satriani"
    INDEX 01 48:24:23

2013 - Unstoppable Momentum (Epic, EICP 1579, Japan) | 00:45:03

01. Unstoppable Momentum (05:15)
02. Can't Go Back (03:59)
03. Lies And Truths (04:45)
04. Three Sheets To The Wind (03:23)
05. I'll Put A Stone On Your Cairn (01:43)
06. A Door Into Summer (04:17)
07. Shine On American Dreamer (04:47)
08. Jumpin' In (05:12)
09. Jumpin' Out (03:52)
10. The Weight Of The World (05:08)
11. A Celebration (02:48)

лог создания рипа

Exact Audio Copy V1.0 beta 3 from 29. August 2011
EAC extraction logfile from 10. April 2014, 19:27
Joe Satriani / Unstoppable Momentum
Used drive  : Optiarc DVD-ROM DDU1675S   Adapter: 3  ID: 0
Read mode               : Secure
Utilize accurate stream : Yes
Defeat audio cache      : Yes
Make use of C2 pointers : No
Read offset correction                      : 6
Overread into Lead-In and Lead-Out          : No
Fill up missing offset samples with silence : Yes
Delete leading and trailing silent blocks   : No
Null samples used in CRC calculations       : Yes
Used interface                              : Native Win32 interface for Win NT & 2000
Used output format              : User Defined Encoder
Selected bitrate                : 1024 kBit/s
Quality                         : High
Add ID3 tag                     : No
Command line compressor         : C:\Program Files (x86)\Exact Audio Copy\Flac\flac.exe
Additional command line options : -V -8 -T "Date=%year%" -T "Genre=%genre%" %source%
TOC of the extracted CD
     Track |   Start  |  Length  | Start sector | End sector
    ---------------------------------------------------------
        1  |  0:00.00 |  5:14.10 |         0    |    23559
        2  |  5:14.10 |  3:58.62 |     23560    |    41471
        3  |  9:12.72 |  4:44.53 |     41472    |    62824
        4  | 13:57.50 |  3:22.06 |     62825    |    77980
        5  | 17:19.56 |  1:42.40 |     77981    |    85670
        6  | 19:02.21 |  4:16.54 |     85671    |   104924
        7  | 23:19.00 |  4:46.12 |    104925    |   126386
        8  | 28:05.12 |  5:11.17 |    126387    |   149728
        9  | 33:16.29 |  3:51.70 |    149729    |   167123
       10  | 37:08.24 |  5:07.08 |    167124    |   190156
       11  | 42:15.32 |  2:47.29 |    190157    |   202710
Range status and errors
Selected range
     Filename F:\Torrent\# MY\# Подготовка раздач\Joe Satriani - Studio Discography\2013 - Unstoppable Momentum (Epic, EICP 1579, Japan)\Joe Satriani - Unstoppable Momentum.wav
     Peak level 99.4 %
     Extraction speed 4.2 X
     Range quality 99.9 %
     Test CRC C73518C7
     Copy CRC C73518C7
     Copy OK
No errors occurred
AccurateRip summary
Track  1  accurately ripped (confidence 103)  [430D9F5B]  (AR v2)
Track  2  accurately ripped (confidence 102)  [77BCA710]  (AR v2)
Track  3  accurately ripped (confidence 102)  [582CE830]  (AR v2)
Track  4  accurately ripped (confidence 101)  [0CE55F7C]  (AR v2)
Track  5  accurately ripped (confidence 101)  [B4D5AF25]  (AR v2)
Track  6  accurately ripped (confidence 102)  [40C5CAE3]  (AR v2)
Track  7  accurately ripped (confidence 101)  [28C21859]  (AR v2)
Track  8  accurately ripped (confidence 98)  [6D1E575E]  (AR v2)
Track  9  accurately ripped (confidence 100)  [574EC16D]  (AR v2)
Track 10  accurately ripped (confidence 99)  [7B6EDF55]  (AR v2)
Track 11  accurately ripped (confidence 101)  [16479A95]  (AR v2)
All tracks accurately ripped
End of status report
---- CUETools DB Plugin V2.1.4
[CTDB TOCID: zbv2cbYbv1pHgLwahSllFeMlNhU-] found
Submit result: zbv2cbYbv1pHgLwahSllFeMlNhU- has been confirmed
Track | CTDB Status
  1   | (117/117) Accurately ripped
  2   | (117/117) Accurately ripped
  3   | (117/117) Accurately ripped
  4   | (116/117) Accurately ripped
  5   | (117/117) Accurately ripped
  6   | (117/117) Accurately ripped
  7   | (117/117) Accurately ripped
  8   | (116/117) Accurately ripped
  9   | (116/117) Accurately ripped
10   | (117/117) Accurately ripped
11   | (116/117) Accurately ripped

содержание индексной карты *cue

REM GENRE Rock
REM DATE 2013
REM DISCID 8D0A8E0B
REM COMMENT "ExactAudioCopy v1.0b3"
PERFORMER "Joe Satriani"
TITLE "Unstoppable Momentum"
FILE "Joe Satriani - Unstoppable Momentum.flac" WAVE
  TRACK 01 AUDIO
    TITLE "Unstoppable Momentum"
    PERFORMER "Joe Satriani"
    INDEX 01 00:00:00
  TRACK 02 AUDIO
    TITLE "Can't Go Back"
    PERFORMER "Joe Satriani"
    INDEX 01 05:14:10
  TRACK 03 AUDIO
    TITLE "Lies And Truths"
    PERFORMER "Joe Satriani"
    INDEX 01 09:12:72
  TRACK 04 AUDIO
    TITLE "Three Sheets To The Wind"
    PERFORMER "Joe Satriani"
    INDEX 01 13:57:50
  TRACK 05 AUDIO
    TITLE "I'll Put A Stone On Your Cairn"
    PERFORMER "Joe Satriani"
    INDEX 01 17:19:56
  TRACK 06 AUDIO
    TITLE "A Door Into Summer"
    PERFORMER "Joe Satriani"
    INDEX 01 19:02:21
  TRACK 07 AUDIO
    TITLE "Shine On American Dreamer"
    PERFORMER "Joe Satriani"
    INDEX 01 23:19:00
  TRACK 08 AUDIO
    TITLE "Jumpin' In"
    PERFORMER "Joe Satriani"
    INDEX 01 28:05:12
  TRACK 09 AUDIO
    TITLE "Jumpin' Out"
    PERFORMER "Joe Satriani"
    INDEX 01 33:16:29
  TRACK 10 AUDIO
    TITLE "The Weight Of The World"
    PERFORMER "Joe Satriani"
    INDEX 01 37:08:24
  TRACK 11 AUDIO
    TITLE "A Celebration"
    PERFORMER "Joe Satriani"
    INDEX 01 42:15:32

дополнительная информация:

--Не забываем говорить
[Профиль] [ЛС]

Garik014

Пол:

Стаж: 1 год 9 месяцев

Сообщений: 460

Откуда: Черкассы



Награды: 1 (Подробнее)

Mega Seeder 1 (Количество: 1)
Торрент-статистика

Создавать темы 19-Фев-2015 14:22 (спустя 1 час 6 минут)

[Цитировать]

Спасибо Сережа!!!!
[Профиль] [ЛС]

sergej644 ®

Пол:

Стаж: 4 года 11 месяцев

Сообщений: 6038

Откуда: Soviet Union



Награды: Нет

Торрент-статистика

Создавать темы 19-Фев-2015 14:49 (спустя 27 минут)

[Цитировать]

63408Спасибо Сережа!!!!
Всегда пожалуйста!!!Приятного прослушивания!
[Профиль] [ЛС]
Показать сообщения:    

Текущее время: Сегодня 06:29

Часовой пояс: GMT



Вы не можете начинать темы
Вы не можете отвечать на сообщения
Вы не можете редактировать свои сообщения
Вы не можете удалять свои сообщения
Вы не можете голосовать в опросах
Вы не можете прикреплять файлы к сообщениям
Вы не можете скачивать файлы