Joe Satriani • Front And Center [2014, Rock, HDTV 1080i]

 
Автор Сообщение

sergej644 ®

Пол:

Стаж: 4 года 11 месяцев

Сообщений: 6046

Откуда: Soviet Union



Награды: Нет

Торрент-статистика

Создавать темы 21-Май-2015 14:51

[Цитировать]


Joe Satriani

Жанр: Rock
Продолжительность: 00:54:29
Запись: June 9, 2014
Трансляция: October 23, 2014
Качество: HDTV 1080i
Контейнер: TS
Видео кодек: MPEG2
Аудио кодек: AC3
Видео: MPEG2 Video 1920x1080 29.97fps 9397 Kbps
Аудио: Dolby AC3 48000Hz stereo 192kbps

Треклист

Joe Satriani - guitar
Mike Keneally - guitar, keyboards
Bryan Beller - bass
Marco Minnemann - drums
JUMPIN’ IN
BAND INTRODUCTION
UNSTOPPABLE MOMENTUM
SATCH’S TALKING ABOUT LES PAUL
THE WEIGHT OF THE WORLD
ICE #9
LIES AND TRUTHS
SATCH BOOGIE
SHINE ON AMERICAN DREAMER
THREE SHEETS TO THE WIND
SURFING WITH THE ALIEN

Отчёт MediaInfo / BDInfo

General
ID                             : 1 (0x1)
Complete name                  : L:\Joe Satriani - Front And Center 2014.ts
Format                         : MPEG-TS
File size                      : 3.84 GiB
Duration                       : 54mn 29s
Overall bit rate mode          : Variable
Overall bit rate               : 10.1 Mbps
Video
ID                             : 120 (0x78)
Menu ID                        : 1 (0x1)
Format                         : MPEG Video
Format version                 : Version 2
Format profile                 : Main@High
Format settings, BVOP          : Yes
Format settings, Matrix        : Custom
Format settings, GOP           : Variable
Format settings, picture struc : Frame
Codec ID                       : 2
Duration                       : 54mn 29s
Bit rate mode                  : Variable
Bit rate                       : 9 397 Kbps
Maximum bit rate               : 12.0 Mbps
Width                          : 1 920 pixels
Height                         : 1 080 pixels
Display aspect ratio           : 16:9
Frame rate                     : 29.970 fps
Color space                    : YUV
Chroma subsampling             : 4:2:0
Bit depth                      : 8 bits
Scan type                      : Interlaced
Scan order                     : Top Field First
Compression mode               : Lossy
Bits/(Pixel*Frame)             : 0.151
Time code of first frame       : 00:00:00;00
Time code source               : Group of pictures header
GOP, Open/Closed               : Open
Stream size                    : 3.58 GiB (93%)
GOP, Open/Closed of first fram : Closed
Audio
ID                             : 121 (0x79)
Menu ID                        : 1 (0x1)
Format                         : AC-3
Format/Info                    : Audio Coding 3
Mode extension                 : CM (complete main)
Format settings, Endianness    : Big
Codec ID                       : 129
Duration                       : 54mn 29s
Bit rate mode                  : Constant
Bit rate                       : 192 Kbps
Channel(s)                     : 2 channels
Channel positions              : Front: L R
Sampling rate                  : 48.0 KHz
Bit depth                      : 16 bits
Compression mode               : Lossy
Delay relative to video        : 1ms
Stream size                    : 74.8 MiB (2%)
Language                       : English
--
[Профиль] [ЛС]
Показать сообщения:    

Текущее время: Сегодня 18:48

Часовой пояс: GMT



Вы не можете начинать темы
Вы не можете отвечать на сообщения
Вы не можете редактировать свои сообщения
Вы не можете удалять свои сообщения
Вы не можете голосовать в опросах
Вы не можете прикреплять файлы к сообщениям
Вы не можете скачивать файлы