(Other Rock, Pop-Rock, Blues Rock, Soul) Joe Cocker - With A Little Help From My Friends (Remastered 2015) - 1969 [FLAC, image+.cue, lossless]

 
Автор Сообщение

sergej644 ®

Пол:

Стаж: 4 года 11 месяцев

Сообщений: 6046

Откуда: Soviet Union



Награды: Нет

Торрент-статистика

Создавать темы 07-Июл-2015 19:47

[Цитировать]

-Joe Cocker / With A Little Help From My Friends (Remastered 2015)-- Год издания: 1969
Страна: UK
Жанр: Other Rock, Pop-Rock, Blues Rock, Soul
Продолжительность: 00:40:51-Лейбл издания: Audio Fidelity SACD
Страна-выпуска диска: Austria
Номер по каталогу: AFZ 209
Формат: FLAC
Битрейт аудио: lossless
Тип рипа: image+.cue
Наличие сканов в содержимом раздачи: да
-Джо Кокер — британский певец, работавший в жанрах блюз и рок. Офицер ордена Британской империи. Его визитной карточкой являлся низкий хриплый баритон.
Умер: 22 декабря 2014 г.,
-

Трэклист

01.Feeling Alright (04:16)
02.Bye Bye Blackbird (03:31)
03.Change In Louise (03:27)
04.Marjorine (02:18)
05.Just Like A Woman (05:20)
06.Do I Still Figure In Your Life? (04:03)
07.Sandpaper Cadillac (03:21)
08.Don't Let Me Be Misunderstood (04:44)
09.With A Little Help from My Friends (05:13)
10.I Shall Be Released (04:41)
-

Лог создания рипа

Exact Audio Copy V1.0 beta 2 from 29. April 2011
EAC extraction logfile from 1. July 2015, 0:17
Joe Cocker / With A Little Help From My Friends [2015 Audio Fidelity SACD AFZ 209]
Used drive  : HL-DT-STBD-RE  BH14NS40   Adapter: 0  ID: 2
Read mode               : Secure
Utilize accurate stream : Yes
Defeat audio cache      : Yes
Make use of C2 pointers : No
Read offset correction                      : 6
Overread into Lead-In and Lead-Out          : No
Fill up missing offset samples with silence : Yes
Delete leading and trailing silent blocks   : No
Null samples used in CRC calculations       : Yes
Used interface                              : Native Win32 interface for Win NT & 2000
Used output format              : User Defined Encoder
Selected bitrate                : 1024 kBit/s
Quality                         : High
Add ID3 tag                     : No
Command line compressor         : C:\Program Files (x86)\Exact Audio Copy\Flac\flac.exe
Additional command line options : -V -5 -T "artist=%albumartist%" -T "title=%title%" -T "album=%albumtitle%" -T "date=%year%" -T "genre=%genre%" -T "tracknumber=%tracknr%" %source%
TOC of the extracted CD
     Track |   Start  |  Length  | Start sector | End sector
    ---------------------------------------------------------
        1  |  0:00.00 |  4:15.70 |         0    |    19194
        2  |  4:15.70 |  3:30.53 |     19195    |    34997
        3  |  7:46.48 |  3:26.17 |     34998    |    50464
        4  | 11:12.65 |  2:17.09 |     50465    |    60748
        5  | 13:29.74 |  5:20.00 |     60749    |    84748
        6  | 18:49.74 |  4:02.23 |     84749    |   102921
        7  | 22:52.22 |  3:20.51 |    102922    |   117972
        8  | 26:12.73 |  4:43.66 |    117973    |   139263
        9  | 30:56.64 |  5:13.00 |    139264    |   162738
       10  | 36:09.64 |  4:40.69 |    162739    |   183807
Range status and errors
Selected range
     Filename C:\EAC\Joe Cocker - (1969) With A Little Help From My Friends [2015 Audio Fidelity SACD AFZ 209]\Joe Cocker - With A Little Help From My Friends [2015 Audio Fidelity SACD AFZ 209].wav
     Peak level 98.6 %
     Extraction speed 6.2 X
     Range quality 100.0 %
     Test CRC B08D2E04
     Copy CRC B08D2E04
     Copy OK
No errors occurred
AccurateRip summary
Track  1  not present in database
Track  2  not present in database
Track  3  not present in database
Track  4  not present in database
Track  5  not present in database
Track  6  not present in database
Track  7  not present in database
Track  8  not present in database
Track  9  not present in database
Track 10  not present in database
None of the tracks are present in the AccurateRip database
End of status report

Индексная карта (non-compilant .cue)

REM GENRE
REM DATE 1969
REM DISCID 8409920A
REM COMMENT ExactAudioCopy v1.0b2; HDCD rip by flac jacket
PERFORMER "Joe Cocker"
TITLE "With A Little Help From My Friends [2015 Audio Fidelity SACD AFZ 209]"
FILE "Joe Cocker - With A Little Help From My Friends [2015 Audio Fidelity SACD AFZ 209].flac" WAVE
  TRACK 01 AUDIO
    TITLE "Feeling Alright"
    INDEX 01 00:00:00
  TRACK 02 AUDIO
    TITLE "Bye Bye Blackbird"
    INDEX 00 04:15:49
    INDEX 01 04:15:70
  TRACK 03 AUDIO
    TITLE "Change In Louise"
    INDEX 01 07:46:48
  TRACK 04 AUDIO
    TITLE "Marjorine"
    INDEX 01 11:12:65
  TRACK 05 AUDIO
    TITLE "Just Like A Woman"
    INDEX 01 13:29:74
  TRACK 06 AUDIO
    TITLE "Do I Still Figure In Your Life?"
    INDEX 01 18:49:74
  TRACK 07 AUDIO
    TITLE "Sandpaper Cadillac"
    INDEX 01 22:52:22
  TRACK 08 AUDIO
    TITLE "Don't Let Me Be Misunderstood"
    INDEX 01 26:12:73
  TRACK 09 AUDIO
    TITLE "With A Little Help from My Friends"
    INDEX 01 30:56:64
  TRACK 10 AUDIO
    TITLE "I Shall Be Released"
    INDEX 01 36:09:64
--Не забываем говорить
[Профиль] [ЛС]
Кто просматривает тему:

Показать сообщения:    

Текущее время: Сегодня 11:07

Часовой пояс: GMT



Вы не можете начинать темы
Вы не можете отвечать на сообщения
Вы не можете редактировать свои сообщения
Вы не можете удалять свои сообщения
Вы не можете голосовать в опросах
Вы не можете прикреплять файлы к сообщениям
Вы не можете скачивать файлы