(Progressive Rock) Jeff Lynne's ELO - Alone in the Universe - 2015 [WAVPack, image+.cue, lossless]

 
Автор Сообщение

sergej644 ®

Пол:

Стаж: 4 года 11 месяцев

Сообщений: 6046

Откуда: Soviet Union



Награды: Нет

Торрент-статистика

Создавать темы 18-Дек-2015 16:09

[Цитировать]

-Jeff Lynne's ELO / Alone in the Universe-- Год издания: 2015
Страна: UK
Жанр: Progressive Rock
Продолжительность: 00:37:18-Лейбл издания: Sony Music
Страна-выпуска диска: EU
Номер по каталогу: 88875164642
Формат: WAVPack
Битрейт аудио: lossless
Тип рипа: image+.cue
Наличие сканов в содержимом раздачи: да
-

Трэклист

01. When I Was a Boy (03:13)
02. Love & Rain (03:31)
03. Dirty To The Bone (03:07)
04. When The Night Comes (03:23)
05. The Sun Will Shine On You (03:31)
06. Ain't It A Drag (02:37)
07. All My Life (02:52)
08. I'm Leaving You (03:09)
09. One Step At A Time (03:22)
10. Alone In The Universe (03:56)
11. Fault Line (Bonus Track) (02:08)
12. Blue (Bonus Track) (02:35)
-

Лог создания рипа

Exact Audio Copy V1.1 from 23. June 2015
EAC extraction logfile from 13. November 2015, 15:12
Jеff Lуnnе's ЕLО / Аlоnе In Thе Univеrsе (Deluxe Edition)
Used drive  : _NEC    DVD_RW ND-2500A   Adapter: 4  ID: 0
Read mode               : Secure
Utilize accurate stream : Yes
Defeat audio cache      : Yes
Make use of C2 pointers : No
Read offset correction                      : 48
Overread into Lead-In and Lead-Out          : No
Fill up missing offset samples with silence : Yes
Delete leading and trailing silent blocks   : No
Null samples used in CRC calculations       : Yes
Used interface                              : Installed external ASPI interface
Used output format              : User Defined Encoder
Selected bitrate                : 128 kBit/s
Quality                         : High
Add ID3 tag                     : No
Command line compressor         : C:\Program Files (x86)\Exact Audio Copy\wavpack-4.60.1\wavpack.exe
Additional command line options : -hm -w "Year=%year%" -w "Genre=%genre%" %source% %dest%
TOC of the extracted CD
     Track |   Start  |  Length  | Start sector | End sector
    ---------------------------------------------------------
        1  |  0:00.00 |  3:12.74 |         0    |    14473
        2  |  3:12.74 |  3:30.04 |     14474    |    30227
        3  |  6:43.03 |  3:06.60 |     30228    |    44237
        4  |  9:49.63 |  3:22.07 |     44238    |    59394
        5  | 13:11.70 |  3:30.22 |     59395    |    75166
        6  | 16:42.17 |  2:36.10 |     75167    |    86876
        7  | 19:18.27 |  2:51.60 |     86877    |    99761
        8  | 22:10.12 |  3:08.59 |     99762    |   113920
        9  | 25:18.71 |  3:21.44 |    113921    |   129039
       10  | 28:40.40 |  3:55.18 |    129040    |   146682
       11  | 32:35.58 |  2:07.13 |    146683    |   156220
       12  | 34:42.71 |  2:34.72 |    156221    |   167842
Range status and errors
Selected range
     Filename G:\Rips by Alder\Jеff Lуnnе's ЕLО - Аlоnе In Thе Univеrsе (Deluxe Edition).wav
     Peak level 100.0 %
     Extraction speed 1.8 X
     Range quality 100.0 %
     Test CRC D07D5416
     Copy CRC D07D5416
     Copy OK
No errors occurred
AccurateRip summary
Track  1  not present in database
Track  2  not present in database
Track  3  not present in database
Track  4  not present in database
Track  5  not present in database
Track  6  not present in database
Track  7  not present in database
Track  8  not present in database
Track  9  not present in database
Track 10  not present in database
Track 11  not present in database
Track 12  not present in database
None of the tracks are present in the AccurateRip database
End of status report
---- CUETools DB Plugin V2.1.6
[CTDB TOCID: UkkUpVxSgTqZ9ZWCo5vE4db_1b8-] found
Submit result: UkkUpVxSgTqZ9ZWCo5vE4db_1b8- has been confirmed
Track | CTDB Status
  1   | (5/5) Accurately ripped
  2   | (5/5) Accurately ripped
  3   | (5/5) Accurately ripped
  4   | (5/5) Accurately ripped
  5   | (5/5) Accurately ripped
  6   | (5/5) Accurately ripped
  7   | (5/5) Accurately ripped
  8   | (5/5) Accurately ripped
  9   | (5/5) Accurately ripped
10   | (5/5) Accurately ripped
11   | (5/5) Accurately ripped
12   | (5/5) Accurately ripped

Индексная карта (non-compilant .cue)

REM DATE 2015
REM DISCID 8908BD0C
REM COMMENT "ExactAudioCopy v1.1"
PERFORMER "Jеff Lуnnе's ЕLО"
TITLE "Аlоnе In Thе Univеrsе (Deluxe Edition)"
FILE "Jеff Lуnnе's ЕLО - Аlоnе In Thе Univеrsе (Deluxe Edition).wv" WAVE
  TRACK 01 AUDIO
    TITLE "When I Was a Boy"
    PERFORMER "Jеff Lуnnе's ЕLО"
    INDEX 01 00:00:00
  TRACK 02 AUDIO
    TITLE "Love & Rain"
    PERFORMER "Jеff Lуnnе's ЕLО"
    INDEX 01 03:12:74
  TRACK 03 AUDIO
    TITLE "Dirty To The Bone"
    PERFORMER "Jеff Lуnnе's ЕLО"
    INDEX 00 06:42:21
    INDEX 01 06:43:03
  TRACK 04 AUDIO
    TITLE "When The Night Comes"
    PERFORMER "Jеff Lуnnе's ЕLО"
    INDEX 01 09:49:63
  TRACK 05 AUDIO
    TITLE "The Sun Will Shine On You"
    PERFORMER "Jеff Lуnnе's ЕLО"
    INDEX 00 13:10:48
    INDEX 01 13:11:70
  TRACK 06 AUDIO
    TITLE "Ain't It A Drag"
    PERFORMER "Jеff Lуnnе's ЕLО"
    INDEX 00 16:41:44
    INDEX 01 16:42:17
  TRACK 07 AUDIO
    TITLE "All My Life"
    PERFORMER "Jеff Lуnnе's ЕLО"
    INDEX 00 19:16:58
    INDEX 01 19:18:27
  TRACK 08 AUDIO
    TITLE "I'm Leaving You"
    PERFORMER "Jеff Lуnnе's ЕLО"
    INDEX 00 22:09:15
    INDEX 01 22:10:12
  TRACK 09 AUDIO
    TITLE "One Step At A Time"
    PERFORMER "Jеff Lуnnе's ЕLО"
    INDEX 00 25:17:44
    INDEX 01 25:18:71
  TRACK 10 AUDIO
    TITLE "Alone In The Universe"
    PERFORMER "Jеff Lуnnе's ЕLО"
    INDEX 01 28:40:40
  TRACK 11 AUDIO
    TITLE "Fault Line (Bonus Track)"
    PERFORMER "Jеff Lуnnе's ЕLО"
    INDEX 00 32:32:47
    INDEX 01 32:35:58
  TRACK 12 AUDIO
    TITLE "Blue (Bonus Track)"
    PERFORMER "Jеff Lуnnе's ЕLО"
    INDEX 00 34:40:61
    INDEX 01 34:42:71
--Не забываем говорить
[Профиль] [ЛС]
Показать сообщения:    

Текущее время: Сегодня 00:36

Часовой пояс: GMT



Вы не можете начинать темы
Вы не можете отвечать на сообщения
Вы не можете редактировать свои сообщения
Вы не можете удалять свои сообщения
Вы не можете голосовать в опросах
Вы не можете прикреплять файлы к сообщениям
Вы не можете скачивать файлы