(Progressive Rock) Jeff Lynne - Armchair Theatre - 1990(Remaster 2013) [FLAC, image+.cue, lossless]

 
Автор Сообщение

sergej644 ®

Пол:

Стаж: 4 года 11 месяцев

Сообщений: 6046

Откуда: Soviet Union



Награды: Нет

Торрент-статистика

Создавать темы 18-Май-2015 19:52

[Цитировать]

-Jeff Lynne / Armchair Theatre-- Год издания: 1990
Страна: UK
Жанр: Progressive Rock
Продолжительность: 00:45:36-Лейбл издания: AVALON
Тип альбома: album
Страна-выпуска диска: Japan
Номер по каталогу: MICP - 30045
Формат: FLAC
Битрейт аудио: lossless
Тип рипа: image+.cue
Наличие сканов в содержимом раздачи: да
-

Трэклист

01. Every Little Thing (03:43)
02. Don't Let Go (03:02)
03. Lift Me Up (03:38)
04. Nobody Home (03:54)
05. September Song (03:00)
06. Now You're Gone (03:59)
07. Don't Say Goodbye (03:11)
08. What Would It Take (02:42)
09. Stormy Weather (03:44)
10. Blown Away (03:32)
11. Save Me Now (01:55)
12. Borderline (02:25)
13. Forecast (03:56)
14. Strange Magic (Live from Bungalow Palace) (03:02)
--

Лог создания рипа

Exact Audio Copy V0.99 prebeta 3 from 28. July 2007
Отчёт EAC об извлечении, выполненном 7. августа 2013, 20:55
Jeff Lynne / Armchair Theatre
Дисковод: PLEXTOR DVDR   PX-755A   Adapter: 3  ID: 0
Режим чтения                 : Достоверность
Использование точного потока : Да
Отключение кэша аудио        : Да
Использование указателей C2  : Нет
Коррекция смещения при чтении                     : 30
Способность читать области Lead-in и Lead-out     : Нет
Заполнение пропущенных сэмплов тишиной            : Да
Удаление блоков с тишиной в начале и конце        : Нет
При вычислениях CRC использовались нулевые сэмплы : Да
Интерфейс                                         : Встроенный Win32-интерфейс для Win NT/2000
Выходной формат          : Пользовательский кодировщик
Выбранный битрейт        : 768 kBit/s
Качество                 : Высокий
Добавление ID3-тэга      : Нет
Утилита сжатия           : C:\Program Files (x86)\Exact Audio Copy\FLAC\FLAC.EXE
Дополнительные параметры : -8 -V -T "ARTIST=%a" -T "TITLE=%t" -T "ALBUM=%g" -T "DATE=%y" -T "TRACKNUMBER=%n" -T "GENRE=%m" -T "COMMENT=EAC FLAC -8" %s
TOC извлечённого CD
     Трек |   Старт  | Длительность | Начальный сектор | Конечный сектор
    ---------------------------------------------------------------------
       1  |  0:00.00 |    3:42.54   |           0      |      16703
       2  |  3:42.54 |    3:01.34   |       16704      |      30312
       3  |  6:44.13 |    3:37.47   |       30313      |      46634
       4  | 10:21.60 |    3:53.56   |       46635      |      64165
       5  | 14:15.41 |    2:59.13   |       64166      |      77603
       6  | 17:14.54 |    3:58.28   |       77604      |      95481
       7  | 21:13.07 |    3:10.17   |       95482      |     109748
       8  | 24:23.24 |    2:41.53   |      109749      |     121876
       9  | 27:05.02 |    3:43.40   |      121877      |     138641
      10  | 30:48.42 |    3:31.48   |      138642      |     154514
      11  | 34:20.15 |    1:54.16   |      154515      |     163080
      12  | 36:14.31 |    2:24.36   |      163081      |     173916
      13  | 38:38.67 |    3:55.15   |      173917      |     191556
      14  | 42:34.07 |    3:01.53   |      191557      |     205184
Характеристики диапазона извлечения и сообщения об ошибках
Выбранный диапазон
     Имя файла H:\OLD\Jeff Lynne - Armchair Theatre.wav
     Пиковый уровень 100.0 %
     Качество диапазона 100.0 %
     CRC теста EF0B8F83
     CRC копии EF0B8F83
     Копирование... OK
Ошибок не произошло
AccurateRip: сводка
Трек  1  нет в базе данных
Трек  2  нет в базе данных
Трек  3  нет в базе данных
Трек  4  нет в базе данных
Трек  5  нет в базе данных
Трек  6  нет в базе данных
Трек  7  нет в базе данных
Трек  8  нет в базе данных
Трек  9  нет в базе данных
Трек 10  нет в базе данных
Трек 11  нет в базе данных
Трек 12  нет в базе данных
Трек 13  нет в базе данных
Трек 14  нет в базе данных
Ни одного трека нет в базе AccurateRip
Конец отчёта

Индексная карта (non-compilant .cue)

REM GENRE Rock
REM DATE 1990
REM DISCID AD0AAF0E
REM COMMENT "ExactAudioCopy v0.99pb3"
PERFORMER "Jeff Lynne"
TITLE "Armchair Theatre"
FILE "Jeff Lynne - Armchair Theatre.flac" WAVE
  TRACK 01 AUDIO
    TITLE "Every Little Thing"
    PERFORMER "Jeff Lynne"
    INDEX 01 00:00:00
  TRACK 02 AUDIO
    TITLE "Don't Let Go"
    PERFORMER "Jeff Lynne"
    INDEX 00 03:42:19
    INDEX 01 03:42:54
  TRACK 03 AUDIO
    TITLE "Lift Me Up"
    PERFORMER "Jeff Lynne"
    INDEX 00 06:42:68
    INDEX 01 06:44:13
  TRACK 04 AUDIO
    TITLE "Nobody Home"
    PERFORMER "Jeff Lynne"
    INDEX 00 10:20:40
    INDEX 01 10:21:60
  TRACK 05 AUDIO
    TITLE "September Song"
    PERFORMER "Jeff Lynne"
    INDEX 00 14:14:31
    INDEX 01 14:15:41
  TRACK 06 AUDIO
    TITLE "Now You're Gone"
    PERFORMER "Jeff Lynne"
    INDEX 00 17:13:17
    INDEX 01 17:14:54
  TRACK 07 AUDIO
    TITLE "Don't Say Goodbye"
    PERFORMER "Jeff Lynne"
    INDEX 00 21:12:27
    INDEX 01 21:13:07
  TRACK 08 AUDIO
    TITLE "What Would It Take"
    PERFORMER "Jeff Lynne"
    INDEX 00 24:22:14
    INDEX 01 24:23:24
  TRACK 09 AUDIO
    TITLE "Stormy Weather"
    PERFORMER "Jeff Lynne"
    INDEX 00 27:03:67
    INDEX 01 27:05:02
  TRACK 10 AUDIO
    TITLE "Blown Away"
    PERFORMER "Jeff Lynne"
    INDEX 00 30:47:02
    INDEX 01 30:48:42
  TRACK 11 AUDIO
    TITLE "Save Me Now"
    PERFORMER "Jeff Lynne"
    INDEX 00 34:18:40
    INDEX 01 34:20:15
  TRACK 12 AUDIO
    TITLE "Borderline"
    PERFORMER "Jeff Lynne"
    INDEX 00 36:12:31
    INDEX 01 36:14:31
  TRACK 13 AUDIO
    TITLE "Forecast"
    PERFORMER "Jeff Lynne"
    INDEX 00 38:36:67
    INDEX 01 38:38:67
  TRACK 14 AUDIO
    TITLE "Strange Magic (Live from Bungalow Palace)"
    PERFORMER "Jeff Lynne"
    INDEX 00 42:32:07
    INDEX 01 42:34:07

Лог Audiochecker

AUDIOCHECKER v2.0 beta (build 457) - by Dester - opdester@freemail.hu
~~~~~~~~~~~~~~~~~~~~~~~~~~~~~~~~~~
Started at: понедельник, 18. 05. 2015. - 20:20.54
1 file found
1 -===- D:\Torrent files\Jeff Lynne - Armchair Theatre (Japan)\Jeff Lynne - Armchair Theatre.flac
  Extracted successfully
  Conclusion: this track is CDDA with probability 100%
  Tempfile successfully deleted.
Finished at: понедельник, 18. 05. 2015. - 20:23.05 (operation time: 0:02.11)

Скриншот спектра частот

Об исполнителе (группе)

Джефф Линн (Jeffrey Lynne; 30 декабря 1947, Бирмингем, Великобритания) — британский певец, мультиинструменталист, автор песен, аранжировщик, продюсер. Лауреат «Грэмми», который приобрел мировую известность в качестве лидер-вокалиста группы Electric Light Orchestra и члена группы The Traveling Wilburys.
Джеффри Линн родился 30 декабря 1947 года в семье Филлипа и Ненси Линн в Бирмингеме. Он был четвёртым ребёнком в семье. С детства увлекался музыкой. Считается, что вдохновение Линн почерпнул на концерте Дела Шеннона в 1961 году. По настоянию отца посещал занятия фортепиано. Выпросил у родителей пластмассовую гитару за 2 фунта стерлингов, и эта игрушка в дальнейшем сыграла огромную роль в его жизни. После покупки гитары его успеваемость в школе упала до критического уровня, и в конце концов из школы пришлось уйти. Сначала Джефф работал в магазине автозапчастей , затем он стал служащим архитектурного бюро. Параллельно с работой Джефф , наконец, начал играть в группах. Это были чисто любительские команды, такие как : Tinkerbells Fairydust и Andycaps. Позже была группа Chantells , в которой играли будущие партнёры по ELO - Ричард Тенди и Дэйв Морган Затем были группы «Idle Race», «Move». В 1970-м году Линн познакомился с Роем Вудом - будущим создателем ELO. Вуд тогда поведал Джеффу, что очень хотел бы собрать команду - этакую смесь рок-группы и классического оркестра.
Линн продюсировал записи таких исполнителей, как The Beatles ( песня «Free As a Bird», 1995), Пол Маккартни, Том Петти. Также является соавтором некоторых песен Тома Петти и Джорджа Харрисона, чей альбом 1987 года «Cloud Nine» продюсировался совместно автором и Линном.
Говорят, что Джон Леннон как-то заявил, что «музыку становится писать всё труднее — Джефф Линн всё уже написал». Но Джордж Харрисон отказался от сотрудничества с Линном во время работы над очередным своим альбомом, заявив, в сердцах, что его (Харрисона) альбомы становятся похожими на ELO.
Кроме участия в вышеперечисленных группах, Джефф Линн выпустил сольный альбом «Armchair Theatre» в 1990 году. Наиболее известные произведения Джеффа Линна — «Evil Woman»(«Face The Music», 1975), «Strange Magic» («Face The Music», 1975), «Telephone Line» («A New World Record», 1976), «Confusion» («Discovery», 1979), «Ticket To The Moon» («Time», 1981), «Eldorado» («Eldorado», 1974), «Don’t Bring Me Down» («Discovery», 1979), «Shangri-La» («A New World Record», 1976), «Last Train To London» («Discovery», 1979), «10538 Overture» («No Answer», 1971), «Twilight» («Time», 1981), «Livin' Thing» («A New World Record», 1976), «Mr. Blue Sky» («Out Of The Blue», 1977), «Sweet Talkin' Woman» («Out Of The Blue», 1977) и многие другие.
Величайший мастер своего дела, человек, создавший более 13 альбомов под маркой группы «ELO», а также выпустивший собственный сольный альбом, работавший с такими легендами как: Пол Маккартни, Джордж Харрисон, Рой Орбисон, Дел Шеннон и др. Можно утверждать, что группа Electric Light Orchestra — это Джефф Линн, т. к. автором всей музыки и текстов является именно он, за редким исключением (в первом альбоме ELO — «No Ansver» автор нескольких песен — второй создатель ELO — Рой Вуд, а также песня «Roll Оver Вееthoven» — это кавер Чака Берри). Линн создал свой неповторимый, легкоузнаваемый стиль, когда классические инструменты начинают звучать по-новому, в несвойственной им манере. Написал множество произведений для кино. В настоящее время (2012 г.) проживает в США (Лос-Анжелес). В сентябре 2012 года , после длительного перерыва , выходит долгожданный новый альбом Линна , под названием : "Long Wave".
Был дважды официально женат. Отец двух дочерей.
Интересные факты
Во время концерта группы Move, прошедшим в начале 1970-го года в Дублине, Джефф едва не погиб от разряда тока, из-за неправильно смонтированного электрооборудования. Его спасло лишь то, что он дотронулся до микрофона не губами, а решив перестраховаться — струнами гитары. Разряд тока отбросил Линна на несколько метров от стойки, струны на гитаре лопнули все до одной, гриф - обуглился.
С конца 70-х годов ХХ века неотъемлемой частью имиджа Линна становятся солнцезащитные очки модели "Авиатор"
--Не забываем говорить
[Профиль] [ЛС]
Показать сообщения:    

Текущее время: Сегодня 15:44

Часовой пояс: GMT



Вы не можете начинать темы
Вы не можете отвечать на сообщения
Вы не можете редактировать свои сообщения
Вы не можете удалять свои сообщения
Вы не можете голосовать в опросах
Вы не можете прикреплять файлы к сообщениям
Вы не можете скачивать файлы