(Electronic) Jean Mishel Jarre - The best of (2CD) - 2015 [FLAC, image+.cue, lossless]

 
Автор Сообщение

sergej644 ®

Пол:

Стаж: 4 года 11 месяцев

Сообщений: 6041

Откуда: Soviet Union



Награды: Нет

Торрент-статистика

Создавать темы 22-Июн-2015 08:53

[Цитировать]

-Jean Mishel Jarre / The best of (2CD)-- Год издания: 2015
Страна: France
Жанр: Electronic
Продолжительность: 02:39:17-Лейбл издания: ©2015 Ukrainian records Inc.
Тип альбома: Compilation
Страна-выпуска диска: Ukraina
Номер по каталогу: K687587 AE
Формат: FLAC
Битрейт аудио: lossless
Тип рипа: image+.cue
Наличие сканов в содержимом раздачи: да


Жан-Мишель Андре Жарр (фр. Jean-Michel Andre Jarre; 24 августа 1948, Лион) — французский композитор, мультиинструменталист, один из пионеров электронной музыки, играющий в основном на синтезаторах, автор и постановщик грандиозных музыкально-световых шоу. Всемирную популярность приобрёл благодаря альбому Oxygene (1976), ставшему классикой электронной музыки.

Трэклист

CD 1 | 01:19:30

01.Oxygen 4 (04:05)
02.Equinoxe 4 (06:41)
03.Megnetic Fields 2 (03:57)
04.Orient Express (04:12)
05.Ethnicolor (11:40)
06.Band In The Rain (01:27)
07.Magnetic Fields 4 (05:55)
08.Rendez-vous 2 part 1 (02:36)
09.Rendez-vous 2 part 2 (03:18)
10.Rendez-vous 2 part 3 (02:19)
11.Rendez-vous 2 part 4 (02:44)
12.Calypso 1 (03:06)
13.Calypso 3 (03:43)
14.Oxygene 8 (03:58)
15.Souvenir Of China (03:55)
16.London Kid (04:28)
17.Revolutions, Revolutions (05:00)
18.Moon Machine (03:01)
19.Rendez-vous 3 (03:35)

CD 2 | 01:19:47

01.Industrial Revolution-Ouverture (05:11)
02.Industrial Revolution part 1 (05:11)
03.Industrial Revolution part 2 (02:20)
04.Industrial Revolution part 3 (04:04)
05.Rendez-vous 4 (03:49)
06.Chronologie 2 (06:06)
07.Equinoxe 1 (02:23)
08.Equinoxe 3 (04:44)
09.Oxygene 2 (03:12)
10.Equinoxe 5 (03:48)
11.Diva (07:33)
12.Computer Weekend (04:44)
13.Chronologie 4 (04:00)
14.The Last Rumba (01:59)
15.Je Me Souvenirs (04:24)
16.C'est La Vie (07:05)
17.Zoolookologie (03:48)
18.Globe Trotter (03:30)
19.Silhouette (02:04)

Лог создания рипа

CD 1

Exact Audio Copy V1.0 beta 6 from 9. April 2015
EAC extraction logfile from 19. June 2015, 22:59
Jean Michel Jarre / The Best Of
Used drive  : ATAPI-CDROM-DRIVE-52MAX   Adapter: 0  ID: 1
Read mode               : Secure
Utilize accurate stream : Yes
Defeat audio cache      : Yes
Make use of C2 pointers : No
Read offset correction                      : 0
Overread into Lead-In and Lead-Out          : No
Fill up missing offset samples with silence : Yes
Delete leading and trailing silent blocks   : No
Null samples used in CRC calculations       : Yes
Used interface                              : Installed external ASPI interface
Used output format              : User Defined Encoder
Selected bitrate                : 896 kBit/s
Quality                         : High
Add ID3 tag                     : No
Command line compressor         : C:\Program Files (x86)\Exact Audio Copy\FLAC\FLAC.EXE
Additional command line options : -8 -V -T "ARTIST=%artist%" -T "TITLE=%title%" -T "ALBUM=%albumtitle%" -T "DATE=%year%" -T "TRACKNUMBER=%tracknr%" -T "GENRE=%genre%" -T "COMMENT=%comment%" -T "BAND=%albuminterpret%" -T "ALBUMARTIST=%albuminterpret%" -T "COMPOSER=%composer%" %haslyrics%--tag-from-file=LYRICS="%lyricsfile%"%haslyrics% -T "DISCNUMBER=%cdnumber%" -T "TOTALDISCS=%totalcds%" -T "TOTALTRACKS=%numtracks%" %hascover%--picture="%coverfile%"%hascover% %source% -o %dest%
TOC of the extracted CD
     Track |   Start  |  Length  | Start sector | End sector
    ---------------------------------------------------------
        1  |  0:00.00 |  4:04.39 |         0    |    18338
        2  |  4:04.39 |  6:40.21 |     18339    |    48359
        3  | 10:44.60 |  3:56.17 |     48360    |    66076
        4  | 14:41.02 |  4:12.00 |     66077    |    84976
        5  | 18:53.02 | 11:39.62 |     84977    |   137463
        6  | 30:32.64 |  1:26.27 |    137464    |   143940
        7  | 31:59.16 |  5:54.47 |    143941    |   170537
        8  | 37:53.63 |  2:35.44 |    170538    |   182206
        9  | 40:29.32 |  3:17.19 |    182207    |   197000
       10  | 43:46.51 |  2:18.04 |    197001    |   207354
       11  | 46:04.55 |  2:43.44 |    207355    |   219623
       12  | 48:48.24 |  3:05.59 |    219624    |   233557
       13  | 51:54.08 |  3:42.44 |    233558    |   250251
       14  | 55:36.52 |  3:57.71 |    250252    |   268097
       15  | 59:34.48 |  3:54.04 |    268098    |   285651
       16  | 63:28.52 |  4:27.27 |    285652    |   305703
       17  | 67:56.04 |  4:59.01 |    305704    |   328129
       18  | 72:55.05 |  3:00.12 |    328130    |   341641
       19  | 75:55.17 |  3:34.14 |    341642    |   357705
Range status and errors
Selected range
     Filename I:\V\Jean Michel Jarre - The Best Of CD1.wav
     Peak level 100.0 %
     Extraction speed 4.9 X
     Range quality 100.0 %
     Test CRC E2162990
     Copy CRC E2162990
     Copy OK
No errors occurred
End of status report
---- CUETools DB Plugin V2.1.6
[CTDB TOCID: C2aD9lT9tmwaW7z_IGKVtinDaYA-] found
Submit result: already submitted
Track | CTDB Status
  1   | (1/1) Accurately ripped
  2   | (1/1) Accurately ripped
  3   | (1/1) Accurately ripped
  4   | (1/1) Accurately ripped
  5   | (1/1) Accurately ripped
  6   | (1/1) Accurately ripped
  7   | (1/1) Accurately ripped
  8   | (1/1) Accurately ripped
  9   | (1/1) Accurately ripped
10   | (1/1) Accurately ripped
11   | (1/1) Accurately ripped
12   | (1/1) Accurately ripped
13   | (1/1) Accurately ripped
14   | (1/1) Accurately ripped
15   | (1/1) Accurately ripped
16   | (1/1) Accurately ripped
17   | (1/1) Accurately ripped
18   | (1/1) Accurately ripped
19   | (1/1) Accurately ripped

CD 2

Exact Audio Copy V1.0 beta 6 from 9. April 2015
EAC extraction logfile from 19. June 2015, 23:36
Jean Michel Jarre / The Best Of 2
Used drive  : ATAPI-CDROM-DRIVE-52MAX   Adapter: 0  ID: 1
Read mode               : Secure
Utilize accurate stream : Yes
Defeat audio cache      : Yes
Make use of C2 pointers : No
Read offset correction                      : 0
Overread into Lead-In and Lead-Out          : No
Fill up missing offset samples with silence : Yes
Delete leading and trailing silent blocks   : No
Null samples used in CRC calculations       : Yes
Used interface                              : Installed external ASPI interface
Used output format              : User Defined Encoder
Selected bitrate                : 896 kBit/s
Quality                         : High
Add ID3 tag                     : No
Command line compressor         : C:\Program Files (x86)\Exact Audio Copy\FLAC\FLAC.EXE
Additional command line options : -8 -V -T "ARTIST=%artist%" -T "TITLE=%title%" -T "ALBUM=%albumtitle%" -T "DATE=%year%" -T "TRACKNUMBER=%tracknr%" -T "GENRE=%genre%" -T "COMMENT=%comment%" -T "BAND=%albuminterpret%" -T "ALBUMARTIST=%albuminterpret%" -T "COMPOSER=%composer%" %haslyrics%--tag-from-file=LYRICS="%lyricsfile%"%haslyrics% -T "DISCNUMBER=%cdnumber%" -T "TOTALDISCS=%totalcds%" -T "TOTALTRACKS=%numtracks%" %hascover%--picture="%coverfile%"%hascover% %source% -o %dest%
TOC of the extracted CD
     Track |   Start  |  Length  | Start sector | End sector
    ---------------------------------------------------------
        1  |  0:00.00 |  5:10.71 |         0    |    23320
        2  |  5:10.71 |  5:10.54 |     23321    |    46624
        3  | 10:21.50 |  2:19.66 |     46625    |    57115
        4  | 12:41.41 |  4:03.73 |     57116    |    75413
        5  | 16:45.39 |  3:48.43 |     75414    |    92556
        6  | 20:34.07 |  6:05.13 |     92557    |   119944
        7  | 26:39.20 |  2:22.71 |    119945    |   130665
        8  | 29:02.16 |  4:43.26 |    130666    |   151916
        9  | 33:45.42 |  3:11.72 |    151917    |   166313
       10  | 36:57.39 |  3:47.15 |    166314    |   183353
       11  | 40:44.54 |  7:32.54 |    183354    |   217307
       12  | 48:17.33 |  4:43.09 |    217308    |   238541
       13  | 53:00.42 |  3:59.04 |    238542    |   256470
       14  | 56:59.46 |  1:58.54 |    256471    |   265374
       15  | 58:58.25 |  4:23.59 |    265375    |   285158
       16  | 63:22.09 |  7:04.38 |    285159    |   316996
       17  | 70:26.47 |  3:47.21 |    316997    |   334042
       18  | 74:13.68 |  3:29.39 |    334043    |   349756
       19  | 77:43.32 |  2:03.38 |    349757    |   359019
Range status and errors
Selected range
     Filename I:\V\Jean Michel Jarre - The Best Of CD2.wav
     Peak level 100.0 %
     Extraction speed 5.2 X
     Range quality 100.0 %
     Test CRC 1D023CE2
     Copy CRC 1D023CE2
     Copy OK
No errors occurred
End of status report
---- CUETools DB Plugin V2.1.6
[CTDB TOCID: HVR.LqEX_PitDcjPXIzO7iOXhFM-] found
Submit result: already submitted
Track | CTDB Status
  1   | (1/1) Accurately ripped
  2   | (1/1) Accurately ripped
  3   | (1/1) Accurately ripped
  4   | (1/1) Accurately ripped
  5   | (1/1) Accurately ripped
  6   | (1/1) Accurately ripped
  7   | (1/1) Accurately ripped
  8   | (1/1) Accurately ripped
  9   | (1/1) Accurately ripped
10   | (1/1) Accurately ripped
11   | (1/1) Accurately ripped
12   | (1/1) Accurately ripped
13   | (1/1) Accurately ripped
14   | (1/1) Accurately ripped
15   | (1/1) Accurately ripped
16   | (1/1) Accurately ripped
17   | (1/1) Accurately ripped
18   | (1/1) Accurately ripped
19   | (1/1) Accurately ripped

Индексная карта (non-compilant .cue)

CD 1

REM GENRE Electronic
REM DATE 2015
REM DISCID 2212A113
REM COMMENT "ExactAudioCopy v1.0b6"
PERFORMER "Jean Michel Jarre"
TITLE "The Best Of"
FILE "Jean Michel Jarre - The Best Of CD1.flac" WAVE
  TRACK 01 AUDIO
    TITLE "Oxygen 4"
    PERFORMER "Jean Michel Jarre"
    FLAGS DCP
    INDEX 01 00:00:00
  TRACK 02 AUDIO
    TITLE "Equinoxe 4"
    PERFORMER "Jean Michel Jarre"
    FLAGS DCP
    INDEX 01 04:04:39
  TRACK 03 AUDIO
    TITLE "Megnetic Fields 2"
    PERFORMER "Jean Michel Jarre"
    FLAGS DCP
    INDEX 01 10:44:60
  TRACK 04 AUDIO
    TITLE "Orient Express"
    PERFORMER "Jean Michel Jarre"
    FLAGS DCP
    INDEX 01 14:41:02
  TRACK 05 AUDIO
    TITLE "Ethnicolor"
    PERFORMER "Jean Michel Jarre"
    FLAGS DCP
    INDEX 01 18:53:02
  TRACK 06 AUDIO
    TITLE "Band In The Rain"
    PERFORMER "Jean Michel Jarre"
    FLAGS DCP
    INDEX 01 30:32:64
  TRACK 07 AUDIO
    TITLE "Magnetic Fields 4"
    PERFORMER "Jean Michel Jarre"
    FLAGS DCP
    INDEX 01 31:59:16
  TRACK 08 AUDIO
    TITLE "Rendez-vous 2 part 1"
    PERFORMER "Jean Michel Jarre"
    FLAGS DCP
    INDEX 01 37:53:63
  TRACK 09 AUDIO
    TITLE "Rendez-vous 2 part 2"
    PERFORMER "Jean Michel Jarre"
    FLAGS DCP
    INDEX 01 40:29:32
  TRACK 10 AUDIO
    TITLE "Rendez-vous 2 part 3"
    PERFORMER "Jean Michel Jarre"
    FLAGS DCP
    INDEX 01 43:46:51
  TRACK 11 AUDIO
    TITLE "Rendez-vous 2 part 4"
    PERFORMER "Jean Michel Jarre"
    FLAGS DCP
    INDEX 01 46:04:55
  TRACK 12 AUDIO
    TITLE "Calypso 1"
    PERFORMER "Jean Michel Jarre"
    FLAGS DCP
    INDEX 01 48:48:24
  TRACK 13 AUDIO
    TITLE "Calypso 3"
    PERFORMER "Jean Michel Jarre"
    FLAGS DCP
    INDEX 01 51:54:08
  TRACK 14 AUDIO
    TITLE "Oxygene 8"
    PERFORMER "Jean Michel Jarre"
    FLAGS DCP
    INDEX 01 55:36:52
  TRACK 15 AUDIO
    TITLE "Souvenir Of China"
    PERFORMER "Jean Michel Jarre"
    FLAGS DCP
    INDEX 01 59:34:48
  TRACK 16 AUDIO
    TITLE "London Kid"
    PERFORMER "Jean Michel Jarre"
    FLAGS DCP
    INDEX 01 63:28:52
  TRACK 17 AUDIO
    TITLE "Revolutions, Revolutions"
    PERFORMER "Jean Michel Jarre"
    FLAGS DCP
    INDEX 01 67:56:04
  TRACK 18 AUDIO
    TITLE "Moon Machine"
    PERFORMER "Jean Michel Jarre"
    FLAGS DCP
    INDEX 01 72:55:05
  TRACK 19 AUDIO
    TITLE "Rendez-vous 3"
    PERFORMER "Jean Michel Jarre"
    FLAGS DCP
    INDEX 01 75:55:17

CD 2

REM GENRE Electronic
REM DATE 2015
REM DISCID FE12B213
REM COMMENT "ExactAudioCopy v1.0b6"
PERFORMER "Jean Michel Jarre"
TITLE "The Best Of 2"
FILE "Jean Michel Jarre - The Best Of CD2.flac" WAVE
  TRACK 01 AUDIO
    TITLE "Industrial Revolution-Ouverture"
    PERFORMER "Jean Michel Jarre"
    FLAGS DCP
    INDEX 01 00:00:00
  TRACK 02 AUDIO
    TITLE "Industrial Revolution part 1"
    PERFORMER "Jean Michel Jarre"
    FLAGS DCP
    INDEX 01 05:10:71
  TRACK 03 AUDIO
    TITLE "Industrial Revolution part 2"
    PERFORMER "Jean Michel Jarre"
    FLAGS DCP
    INDEX 01 10:21:50
  TRACK 04 AUDIO
    TITLE "Industrial Revolution part 3"
    PERFORMER "Jean Michel Jarre"
    FLAGS DCP
    INDEX 01 12:41:41
  TRACK 05 AUDIO
    TITLE "Rendez-vous 4"
    PERFORMER "Jean Michel Jarre"
    FLAGS DCP
    INDEX 01 16:45:39
  TRACK 06 AUDIO
    TITLE "Chronologie 2"
    PERFORMER "Jean Michel Jarre"
    FLAGS DCP
    INDEX 01 20:34:07
  TRACK 07 AUDIO
    TITLE "Equinoxe 1"
    PERFORMER "Jean Michel Jarre"
    FLAGS DCP
    INDEX 01 26:39:20
  TRACK 08 AUDIO
    TITLE "Equinoxe 3"
    PERFORMER "Jean Michel Jarre"
    FLAGS DCP
    INDEX 01 29:02:16
  TRACK 09 AUDIO
    TITLE "Oxygene 2"
    PERFORMER "Jean Michel Jarre"
    FLAGS DCP
    INDEX 01 33:45:42
  TRACK 10 AUDIO
    TITLE "Equinoxe 5"
    PERFORMER "Jean Michel Jarre"
    FLAGS DCP
    INDEX 01 36:57:39
  TRACK 11 AUDIO
    TITLE "Diva"
    PERFORMER "Jean Michel Jarre"
    FLAGS DCP
    INDEX 01 40:44:54
  TRACK 12 AUDIO
    TITLE "Computer Weekend"
    PERFORMER "Jean Michel Jarre"
    FLAGS DCP
    INDEX 01 48:17:33
  TRACK 13 AUDIO
    TITLE "Chronologie 4"
    PERFORMER "Jean Michel Jarre"
    FLAGS DCP
    INDEX 01 53:00:42
  TRACK 14 AUDIO
    TITLE "The Last Rumba"
    PERFORMER "Jean Michel Jarre"
    FLAGS DCP
    INDEX 01 56:59:46
  TRACK 15 AUDIO
    TITLE "Je Me Souvenirs"
    PERFORMER "Jean Michel Jarre"
    FLAGS DCP
    INDEX 01 58:58:25
  TRACK 16 AUDIO
    TITLE "C'est La Vie"
    PERFORMER "Jean Michel Jarre"
    FLAGS DCP
    INDEX 01 63:22:09
  TRACK 17 AUDIO
    TITLE "Zoolookologie"
    PERFORMER "Jean Michel Jarre"
    FLAGS DCP
    INDEX 01 70:26:47
  TRACK 18 AUDIO
    TITLE "Globe Trotter"
    PERFORMER "Jean Michel Jarre"
    FLAGS DCP
    INDEX 01 74:13:68
  TRACK 19 AUDIO
    TITLE "Silhouette"
    PERFORMER "Jean Michel Jarre"
    FLAGS DCP
    INDEX 01 77:43:32

Лог Audiochecker

CD 1

AUDIOCHECKER v2.0 beta (build 457) - by Dester - opdester@freemail.hu
~~~~~~~~~~~~~~~~~~~~~~~~~~~~~~~~~~
Started at: понедельник, 22. 06. 2015. - 10:39.13
1 file found
1 -===- D:\Torrent files\Jean Mishel Jarre - The best of\CD1\Jean Michel Jarre - The Best Of CD1.flac
  Extracted successfully
  Conclusion: this track is CDDA with probability 100%
  Tempfile successfully deleted.
Finished at: понедельник, 22. 06. 2015. - 10:42.40 (operation time: 0:03.26)

CD 2

AUDIOCHECKER v2.0 beta (build 457) - by Dester - opdester@freemail.hu
~~~~~~~~~~~~~~~~~~~~~~~~~~~~~~~~~~
Started at: понедельник, 22. 06. 2015. - 10:42.58
1 file found
1 -===- D:\Torrent files\Jean Mishel Jarre - The best of\CD2\Jean Michel Jarre - The Best Of CD2.flac
  Extracted successfully
  Conclusion: this track is CDDA with probability 100%
  Tempfile successfully deleted.
Finished at: понедельник, 22. 06. 2015. - 10:46.35 (operation time: 0:03.37)

Скриншот спектра частот

info

Жан-Мишель Андре Жарр родился 24 августа 1948 года в Лионе, Франция. Сын композитора Мориса Жарра и участницы движения Сопротивления Франс Пежо (фр.)русск. (1914—2010), заключённой в годы немецкой оккупации в концентрационный лагерь Равенсбрюк (1944)[2], сводный брат киносценариста Кевина Жарра. Бабушка Жарра происходила из семьи еврейских иммигрантов из России[3][4].
Когда Жан-Мишелю было пять лет, его родители развелись, и его отец переехал в Америку. Жан-Мишель жил со своей матерью в маленькой квартирке в пригороде Парижа. У отца и сына нормального общения не вышло.
Жан-Мишель начал учиться играть на фортепиано и гитаре уже в 5 лет. Учась в школе, параллельно брал уроки гармонии и музыкальной композиции в Парижской консерватории. Находясь под влиянием британской поп-музыки, играл на гитаре в различных парижских группах[6]. С 1968 года был членом Группы музыкальных исследований (фр. Groupe de recherches musicales) под руководством Пьера Шеффера. В это время Жан-Мишель приобрёл свой первый синтезатор и начал сочинять электронную музыку. В 1972 году вышел его дебютный альбом «Deserted Palace».
Френсис Дрейфус стал покровителем Жарра и спродюсировал его альбом «Oxygene» (Кислород). «Космическая» синтезаторная электроника Жарра имела большой успех: альбом вскоре стал «золотым» и завоевал награду «Дисковый Гран-при» (Grand Prix du Disque). Последующие работы Жана-Мишеля значительно повлияли на развитие электронной музыки, в особенности амбиента и нью-эйджа. В общей сложности по всему миру было продано более 80 миллионов копий его альбомов.
--Не забываем говорить
[Профиль] [ЛС]

Создавать темы 13-Авг-2015 11:02 (спустя 1 месяц 21 день)

Топик был перенесен из форума Электронная музыка в форум Electronic
sergej644
 
Показать сообщения:    

Текущее время: Сегодня 08:33

Часовой пояс: GMT



Вы не можете начинать темы
Вы не можете отвечать на сообщения
Вы не можете редактировать свои сообщения
Вы не можете удалять свои сообщения
Вы не можете голосовать в опросах
Вы не можете прикреплять файлы к сообщениям
Вы не можете скачивать файлы