(Rock,Blues Rock) Jamie Campbell - Voodoo Lake 2014 [FLAC, (Image+cue),Lossless]

 
Автор Сообщение

sergej644 ®

Пол:

Стаж: 4 года 11 месяцев

Сообщений: 6043

Откуда: Soviet Union



Награды: Нет

Торрент-статистика

Создавать темы 30-Сен-2014 09:52

[Цитировать]

--Jamie Campbell - Voodoo Lake Страна: UK
Страна производитель диска: USA
Год выпуска: 2014
Жанр: Blues Rock,Rock
Формат: FLAC
тип рипа: (Image + *cue)
Битрейт аудио: Lossless
Продолжительность: 00:44:07
Полиграфия: присутствует

треклист

01. Leave It All Behind (04:18)
02. Kiss Goodbye (05:19)
03. Voodoo Lake (04:36)
04. Up In Flames (04:03)
05. Midnight Train (04:03)
06. Flood Waters (04:36)
07. You Caught Me With The Blues (04:37)
08. Without You (04:47)
09. I Feel Like I'm Dying (04:52)
10. Driving The Night (02:52)

лог создания рипа

Exact Audio Copy V1.0 beta 3 from 29. August 2011
Отчёт EAC об извлечении, выполненном 25. июля 2014, 18:30
Jamie Campbell / Voodoo Lake
Дисковод: PLEXTOR DVDR   PX-880SA   Adapter: 1  ID: 0
Режим чтения                 : Достоверность
Использование точного потока : Да
Отключение кэша аудио        : Да
Использование указателей C2  : Нет
Коррекция смещения при чтении                     : 6
Способность читать области Lead-in и Lead-out     : Нет
Заполнение пропущенных сэмплов тишиной            : Да
Удаление блоков с тишиной в начале и конце        : Нет
При вычислениях CRC использовались нулевые сэмплы : Да
Интерфейс                                         : Установленный внешний ASPI-интерфейс
Выходной формат          : Пользовательский кодировщик
Выбранный битрейт        : 1024 kBit/s
Качество                 : Высокий
Добавление ID3-тега      : Нет
Утилита сжатия           : C:\Program Files\Exact Audio Copy\FLAC\FLAC.EXE
Дополнительные параметры : -10 -V -T "ARTIST=%artist%" -T "ALBUM=%albumtitle%" -T "DATE=%year%" -T "GENRE=%genre%" -T "COMMENT=ripped by izia1956" %source%
TOC извлечённого CD
     Трек |   Старт  | Длительность | Начальный сектор | Конечный сектор
    ---------------------------------------------------------------------
       1  |  0:00.00 |    4:18.23   |           0      |      19372
       2  |  4:18.23 |    5:19.70   |       19373      |      43367
       3  |  9:38.18 |    4:36.25   |       43368      |      64092
       4  | 14:14.43 |    4:03.06   |       64093      |      82323
       5  | 18:17.49 |    4:03.22   |       82324      |     100570
       6  | 22:20.71 |    4:36.11   |      100571      |     121281
       7  | 26:57.07 |    4:37.41   |      121282      |     142097
       8  | 31:34.48 |    4:47.11   |      142098      |     163633
       9  | 36:21.59 |    4:52.70   |      163634      |     185603
      10  | 41:14.54 |    2:52.49   |      185604      |     198552
Характеристики диапазона извлечения и сообщения об ошибках
Выбранный диапазон
     Имя файла D:\BitComet\Jamie Campbell - Voodoo Lake(2014)(flac)\Jamie Campbell - Voodoo Lake.wav
     Пиковый уровень 100.0 %
     Скорость извлечения 8.3 X
     Качество диапазона 99.9 %
     CRC теста CF6DCA1B
     CRC копии CF6DCA1B
     Копирование... OK
Ошибок не произошло
AccurateRip: сводка
Трек  1  отсутствует в базе данных
Трек  2  отсутствует в базе данных
Трек  3  отсутствует в базе данных
Трек  4  отсутствует в базе данных
Трек  5  отсутствует в базе данных
Трек  6  отсутствует в базе данных
Трек  7  отсутствует в базе данных
Трек  8  отсутствует в базе данных
Трек  9  отсутствует в базе данных
Трек 10  отсутствует в базе данных
Ни одного трека нет в базе AccurateRip
Конец отчёта

содержание индексной карты *cue

REM GENRE Blues-Rock
REM DATE 2014
REM DISCID 910A570A
REM COMMENT "ExactAudioCopy v1.0b3"
PERFORMER "Jamie Campbell"
TITLE "Voodoo Lake"
FILE "Jamie Campbell - Voodoo Lake.flac" WAVE
  TRACK 01 AUDIO
    TITLE "Leave It All Behind "
    PERFORMER "Jamie Campbell"
    INDEX 01 00:00:00
  TRACK 02 AUDIO
    TITLE "Kiss Goodbye "
    PERFORMER "Jamie Campbell"
    INDEX 01 04:18:23
  TRACK 03 AUDIO
    TITLE "Voodoo Lake "
    PERFORMER "Jamie Campbell"
    INDEX 01 09:38:18
  TRACK 04 AUDIO
    TITLE "Up In Flames "
    PERFORMER "Jamie Campbell"
    INDEX 01 14:14:43
  TRACK 05 AUDIO
    TITLE "Midnight Train "
    PERFORMER "Jamie Campbell"
    INDEX 01 18:17:49
  TRACK 06 AUDIO
    TITLE "Flood Waters "
    PERFORMER "Jamie Campbell"
    INDEX 01 22:20:71
  TRACK 07 AUDIO
    TITLE "You Caught Me With The Blues "
    PERFORMER "Jamie Campbell"
    INDEX 01 26:57:07
  TRACK 08 AUDIO
    TITLE "Without You "
    PERFORMER "Jamie Campbell"
    INDEX 01 31:34:48
  TRACK 09 AUDIO
    TITLE "I Feel Like I'm Dying "
    PERFORMER "Jamie Campbell"
    INDEX 01 36:21:59
  TRACK 10 AUDIO
    TITLE "Driving The Night "
    PERFORMER "Jamie Campbell"
    INDEX 01 41:14:54
--cdbaby
[Профиль] [ЛС]
Показать сообщения:    

Текущее время: Сегодня 06:08

Часовой пояс: GMT



Вы не можете начинать темы
Вы не можете отвечать на сообщения
Вы не можете редактировать свои сообщения
Вы не можете удалять свои сообщения
Вы не можете голосовать в опросах
Вы не можете прикреплять файлы к сообщениям
Вы не можете скачивать файлы