James Morrison. AVO Session 2009 [2014, Soul/Pop rock, HDTV 1080i]

 
Автор Сообщение

reversefile ®

Пол:

Стаж: 4 года 5 месяцев

Сообщений: 842

Откуда: ReverseFile.org



Награды: Нет

Торрент-статистика

Создавать темы 11-Авг-2014 18:53

[Цитировать]

James Morrison. AVO Session 2009
Жанр: Soul/Pop rock
Продолжительность: 00:56:49
Год выпуска: 2014
Описание: Выступление британского автора, исполнителя и гитариста Джеймса Моррисона на музыкальном фестивале AVO Session в швейцарском Базеле 2009 nov11
Доп. информация: Собственная запись со спутникового канала ProSieben Fun 2014 jul25
Треклист: к сожалению не составлю.
Качество: HDTV 1080i
Контейнер: TS
Видео кодек: H.264
Аудио кодек: AC3
Видео: Mpeg4 AVC, 1920x1080, 16:9, 8590 kbps, 25 fps
Аудио: AC3, 384 kbps, 48 kHz, stereo

Отчёт MediaInfo / BDInfo

GeneralID : 1 (0x1)Complete name : D:\Downloads\James Morrison. AVO Session 2009.ts
Format : MPEG-TS
File size : 3.75 GiB
Duration : 56mn 49s
Overall bit rate mode : Variable
Overall bit rate : 9 442 Kbps
Video
ID : 1279 (0x4FF)
Menu ID : 1 (0x1)
Format : AVC
Format/Info : Advanced Video Codec
Format profile : High@L4.0
Format settings, CABAC : Yes
Format settings, ReFrames : 3 frames
Codec ID : 27
Duration : 56mn 49s
Bit rate : 8 587 Kbps
Width : 1 920 pixels
Height : 1 080 pixels
Display aspect ratio : 16:9
Frame rate : 25.000 fps
Standard : Component
Color space : YUV
Chroma subsampling : 4:2:0
Bit depth : 8 bits
Scan type : Interlaced
Scan order : Top Field First
Bits/(Pixel*Frame) : 0.166
Stream size : 3.41 GiB (91%)
Color primaries : BT.709
Transfer characteristics : BT.709
Matrix coefficients : BT.709
Audio
ID : 1283 (0x503)
Menu ID : 1 (0x1)
Format : AC-3
Format/Info : Audio Coding 3
Mode extension : CM (complete main)
Format settings, Endianness : Big
Codec ID : 6
Duration : 56mn 49s
Bit rate mode : Constant
Bit rate : 384 Kbps
Channel(s) : 2 channels
Channel positions : Front: L RSampling rate : 48.0 KHz
Bit depth : 16 bits
Compression mode : Lossy
Stream size : 156 MiB (4%)
Language : German
TextID : 32 (0x20)-100
Menu ID : 1 (0x1)
Format : Teletext
Language : German
MenuID : 100 (0x64)
Menu ID : 1 (0x1)
Duration : 56mn 49s
List : 1279 (0x4FF) (AVC) / 1283 (0x503) (AC-3, German) / 32 (0x20) ()
Language : / German

Скриншоты

[Профиль] [ЛС]
Кто просматривает тему:

Показать сообщения:    

Текущее время: Сегодня 01:28

Часовой пояс: GMT



Вы не можете начинать темы
Вы не можете отвечать на сообщения
Вы не можете редактировать свои сообщения
Вы не можете удалять свои сообщения
Вы не можете голосовать в опросах
Вы не можете прикреплять файлы к сообщениям
Вы не можете скачивать файлы