(Instrumental) James Last - James Last plays James Last (2CD) - 2015 [FLAC, image+.cue, lossless]

 
Автор Сообщение

sergej644 ®

Пол:

Стаж: 4 года 11 месяцев

Сообщений: 6046

Откуда: Soviet Union



Награды: Нет

Торрент-статистика

Создавать темы 02-Июл-2015 19:58

[Цитировать]

-James Last / James Last plays James Last (2CD)-- Год издания: 2015
Страна: Germany
Жанр: Instrumental
Продолжительность: 02:07:16-Лейбл издания: Grand Orchestra
Тип альбома: Compilation
Страна-выпуска диска: Russia
Номер по каталогу: GO JL 001
Формат: FLAC
Битрейт аудио: lossless
Тип рипа: image+.cue
Наличие сканов в содержимом раздачи: да
-В США в возрасте 86 лет скончался немецкий композитор Джеймс Ласт. Сообщается, что композитор скончался в кругу семьи в своем доме в штате Флорида.
Церемония прощания состоится в Гамбурге. Последние 30 лет Ласт проживал в США.

Трэклист

CD 1 | 01:06:02

01.James Last & Gheorghe Zamfir - Der Einsame Hirte '1977 (04:26)
02.James Last & Gheorghe Zamfir - Nadjenka '1977 (04:58)
03.James Last - Paintings '1979 (05:18)
04.James Last - Country Train '1980 (03:45)
05.James Last & Horea Crishan - A Morning In Cornwall '1982 (04:21)
06.James Last - Abends Im Schilf '1982 (04:14)
07.James Last - Beachrunner '1982 (03:09)
08.James Last - Rain And Sun '1982 (03:50)
09.James Last - The Calm Before The Storm '1982 (04:15)
10.James Last - The Morning After '1982 (03:30)
11.James Last - Verlorener Sommer '1982 (05:02)
12.James Last - Games That Lovers Play '1967 (02:35)
13.James Last - Who Are We '1968 (03:23)
14.James Last - Rainy, Rainy '1970 (04:58)
15.James Last - The Last Guest Is Gone '1970 (03:49)
16.James Last - Violins In Love '1974 (04:35)

CD 2 | 01:01:15

01.James Last - I.R.E.L.A.N.D. '1983 (04:56)
02.James Last - Golf Von Catania '1984 (05:03)
03.James Last - Traumschiff Thema '1986 (02:39)
04.James Last - Games That Lovers Play '1989 (04:22)
05.James Last - Happy Heart '1989 (03:34)
06.James Last - Music From Across The Way '1989 (03:57)
07.James Last - The Lonely Shepherd (Der Einsame Hirte) '1989 (05:43)
08.James Last & Richard Clayderman - La Force De L'amour '1990 (04:33)
09.James Last & Richard Clayderman - Le Bonheur D'aimer '1990 (04:13)
10.James Last & Richard Clayderman - Les Oiseaux De La Mer Et Du Soleil '1990 (04:21)
11.James Last & Richard Clayderman - Lizzie '1991 (03:34)
12.James Last & Richard Clayderman - Maracaibo '1991 (05:47)
13.James Last & Richard Clayderman - Reflections '1991 (04:29)
14.James Last & Richard Clayderman - Summer Serenade '1991 (04:08)
-

Лог создания рипа

CD 1

Exact Audio Copy V1.0 beta 3 from 29. August 2011
EAC extraction logfile from 16. June 2015, 22:30
James Last / James Last plays James Last (CD 1)
Used drive  : DiscSoftVirtual   Adapter: 2  ID: 0
Read mode : Burst
Read offset correction                      : 0
Overread into Lead-In and Lead-Out          : No
Fill up missing offset samples with silence : Yes
Delete leading and trailing silent blocks   : No
Null samples used in CRC calculations       : Yes
Used interface                              : Native Win32 interface for Win NT & 2000
Used output format              : User Defined Encoder
Selected bitrate                : 896 kBit/s
Quality                         : High
Add ID3 tag                     : No
Command line compressor         : C:\Program Files (x86)\Exact Audio Copy\FLAC\FLAC.EXE
Additional command line options : -8 -V -T "ARTIST=%artist%" -T "TITLE=%title%" -T "ALBUM=%albumtitle%" -T "DATE=%year%" -T "TRACKNUMBER=%tracknr%" -T "GENRE=%genre%" -T "COMMENT=ripped by grandorchestra" -T "BAND=%albuminterpret%" -T "ALBUMARTIST=%albuminterpret%" -T "COMPOSER=%composer%" %haslyrics%--tag-from-file=LYRICS="%lyricsfile%"%haslyrics% -T "DISCNUMBER=%cdnumber%" -T "TOTALDISCS=%totalcds%" -T "TOTALTRACKS=%numtracks%" %hascover%--picture="%coverfile%"%hascover% %source% -o %dest%
TOC of the extracted CD
     Track |   Start  |  Length  | Start sector | End sector
    ---------------------------------------------------------
        1  |  0:00.00 |  4:25.50 |         0    |    19924
        2  |  4:25.50 |  4:57.13 |     19925    |    42212
        3  |  9:22.63 |  5:17.35 |     42213    |    66022
        4  | 14:40.23 |  3:44.72 |     66023    |    82894
        5  | 18:25.20 |  4:21.00 |     82895    |   102469
        6  | 22:46.20 |  4:13.16 |    102470    |   121460
        7  | 26:59.36 |  3:08.35 |    121461    |   135595
        8  | 30:07.71 |  3:49.64 |    135596    |   152834
        9  | 33:57.60 |  4:14.46 |    152835    |   171930
       10  | 38:12.31 |  3:29.23 |    171931    |   187628
       11  | 41:41.54 |  5:01.69 |    187629    |   210272
       12  | 46:43.48 |  2:34.43 |    210273    |   221865
       13  | 49:18.16 |  3:22.18 |    221866    |   237033
       14  | 52:40.34 |  4:57.57 |    237034    |   259365
       15  | 57:38.16 |  3:48.18 |    259366    |   276483
       16  | 61:26.34 |  4:34.45 |    276484    |   297078
Range status and errors
Selected range
     Filename С:\James Last\Lossless\2015 - James Last plays James Last\James Last - James Last plays James Last (CD 1).wav
     Timing problem 0:21:40
     Peak level 98.7 %
     Extraction speed 8.5 X
     Test CRC 8D024672
     Copy CRC 8D024672
     Copy finished
No errors occurred
End of status report

CD 2

Exact Audio Copy V1.0 beta 3 from 29. August 2011
EAC extraction logfile from 16. June 2015, 22:43
James Last / James Last plays James Last (CD 2)
Used drive  : DiscSoftVirtual   Adapter: 2  ID: 0
Read mode : Burst
Read offset correction                      : 0
Overread into Lead-In and Lead-Out          : No
Fill up missing offset samples with silence : Yes
Delete leading and trailing silent blocks   : No
Null samples used in CRC calculations       : Yes
Used interface                              : Native Win32 interface for Win NT & 2000
Used output format              : User Defined Encoder
Selected bitrate                : 896 kBit/s
Quality                         : High
Add ID3 tag                     : No
Command line compressor         : C:\Program Files (x86)\Exact Audio Copy\FLAC\FLAC.EXE
Additional command line options : -8 -V -T "ARTIST=%artist%" -T "TITLE=%title%" -T "ALBUM=%albumtitle%" -T "DATE=%year%" -T "TRACKNUMBER=%tracknr%" -T "GENRE=%genre%" -T "COMMENT=ripped by grandorchestra" -T "BAND=%albuminterpret%" -T "ALBUMARTIST=%albuminterpret%" -T "COMPOSER=%composer%" %haslyrics%--tag-from-file=LYRICS="%lyricsfile%"%haslyrics% -T "DISCNUMBER=%cdnumber%" -T "TOTALDISCS=%totalcds%" -T "TOTALTRACKS=%numtracks%" %hascover%--picture="%coverfile%"%hascover% %source% -o %dest%
TOC of the extracted CD
     Track |   Start  |  Length  | Start sector | End sector
    ---------------------------------------------------------
        1  |  0:00.00 |  4:55.73 |         0    |    22197
        2  |  4:55.73 |  5:02.49 |     22198    |    44896
        3  |  9:58.47 |  2:38.38 |     44897    |    56784
        4  | 12:37.10 |  4:22.00 |     56785    |    76434
        5  | 16:59.10 |  3:33.39 |     76435    |    92448
        6  | 20:32.49 |  3:57.00 |     92449    |   110223
        7  | 24:29.49 |  5:42.63 |    110224    |   135936
        8  | 30:12.37 |  4:32.30 |    135937    |   156366
        9  | 34:44.67 |  4:12.09 |    156367    |   175275
       10  | 38:57.01 |  4:20.74 |    175276    |   194849
       11  | 43:18.00 |  3:33.49 |    194850    |   210873
       12  | 46:51.49 |  5:46.53 |    210874    |   236876
       13  | 52:38.27 |  4:28.51 |    236877    |   257027
       14  | 57:07.03 |  4:07.66 |    257028    |   275618
Range status and errors
Selected range
     Filename С:\James Last\Lossless\2015 - James Last plays James Last\James Last - James Last plays James Last (CD 2).wav
     Timing problem 0:54:09
     Peak level 100.0 %
     Extraction speed 8.6 X
     Test CRC 9C9709D0
     Copy CRC 9C9709D0
     Copy finished
No errors occurred
End of status report

Индексная карта (non-compilant .cue)

CD 1

REM GENRE Instrumental
REM DATE 2015
REM DISCID E40F7910
REM COMMENT "ExactAudioCopy v1.0b3"
PERFORMER "James Last"
TITLE "James Last plays James Last (CD 1)"
FILE "James Last - James Last plays James Last (CD 1).flac" WAVE
  TRACK 01 AUDIO
    TITLE "James Last & Gheorghe Zamfir - Der Einsame Hirte '1977"
    PERFORMER "James Last"
    INDEX 01 00:00:00
  TRACK 02 AUDIO
    TITLE "James Last & Gheorghe Zamfir - Nadjenka '1977"
    PERFORMER "James Last"
    INDEX 01 04:25:50
  TRACK 03 AUDIO
    TITLE "James Last - Paintings '1979"
    PERFORMER "James Last"
    INDEX 01 09:22:63
  TRACK 04 AUDIO
    TITLE "James Last - Country Train '1980"
    PERFORMER "James Last"
    INDEX 01 14:40:23
  TRACK 05 AUDIO
    TITLE "James Last & Horea Crishan - A Morning In Cornwall '1982"
    PERFORMER "James Last"
    INDEX 01 18:25:20
  TRACK 06 AUDIO
    TITLE "James Last - Abends Im Schilf '1982"
    PERFORMER "James Last"
    INDEX 01 22:46:20
  TRACK 07 AUDIO
    TITLE "James Last - Beachrunner '1982"
    PERFORMER "James Last"
    INDEX 01 26:59:36
  TRACK 08 AUDIO
    TITLE "James Last - Rain And Sun '1982"
    PERFORMER "James Last"
    INDEX 01 30:07:71
  TRACK 09 AUDIO
    TITLE "James Last - The Calm Before The Storm '1982"
    PERFORMER "James Last"
    INDEX 01 33:57:60
  TRACK 10 AUDIO
    TITLE "James Last - The Morning After '1982"
    PERFORMER "James Last"
    INDEX 01 38:12:31
  TRACK 11 AUDIO
    TITLE "James Last - Verlorener Sommer '1982"
    PERFORMER "James Last"
    INDEX 01 41:41:54
  TRACK 12 AUDIO
    TITLE "James Last - Games That Lovers Play '1967"
    PERFORMER "James Last"
    INDEX 01 46:43:48
  TRACK 13 AUDIO
    TITLE "James Last - Who Are We '1968"
    PERFORMER "James Last"
    INDEX 01 49:18:16
  TRACK 14 AUDIO
    TITLE "James Last - Rainy, Rainy '1970"
    PERFORMER "James Last"
    INDEX 01 52:40:34
  TRACK 15 AUDIO
    TITLE "James Last - The Last Guest Is Gone '1970"
    PERFORMER "James Last"
    INDEX 01 57:38:16
  TRACK 16 AUDIO
    TITLE "James Last - Violins In Love '1974"
    PERFORMER "James Last"
    INDEX 01 61:26:34

CD 2

REM GENRE Instrumental
REM DATE 2015
REM DISCID AB0E5A0E
REM COMMENT "ExactAudioCopy v1.0b3"
PERFORMER "James Last"
TITLE "James Last plays James Last (CD 2)"
FILE "James Last - James Last plays James Last (CD 2).flac" WAVE
  TRACK 01 AUDIO
    TITLE "James Last - I.R.E.L.A.N.D. '1983"
    PERFORMER "James Last"
    INDEX 01 00:00:00
  TRACK 02 AUDIO
    TITLE "James Last - Golf Von Catania '1984"
    PERFORMER "James Last"
    INDEX 01 04:55:73
  TRACK 03 AUDIO
    TITLE "James Last - Traumschiff Thema '1986"
    PERFORMER "James Last"
    INDEX 01 09:58:47
  TRACK 04 AUDIO
    TITLE "James Last - Games That Lovers Play '1989"
    PERFORMER "James Last"
    INDEX 01 12:37:10
  TRACK 05 AUDIO
    TITLE "James Last - Happy Heart '1989"
    PERFORMER "James Last"
    INDEX 01 16:59:10
  TRACK 06 AUDIO
    TITLE "James Last - Music From Across The Way '1989"
    PERFORMER "James Last"
    INDEX 01 20:32:49
  TRACK 07 AUDIO
    TITLE "James Last - The Lonely Shepherd (Der Einsame Hirte) '1989"
    PERFORMER "James Last"
    INDEX 01 24:29:49
  TRACK 08 AUDIO
    TITLE "James Last & Richard Clayderman - La Force De L'amour '1990"
    PERFORMER "James Last"
    INDEX 01 30:12:37
  TRACK 09 AUDIO
    TITLE "James Last & Richard Clayderman - Le Bonheur D'aimer '1990"
    PERFORMER "James Last"
    INDEX 01 34:44:67
  TRACK 10 AUDIO
    TITLE "James Last & Richard Clayderman - Les Oiseaux De La Mer Et Du Soleil '1990"
    PERFORMER "James Last"
    INDEX 01 38:57:01
  TRACK 11 AUDIO
    TITLE "James Last & Richard Clayderman - Lizzie '1991"
    PERFORMER "James Last"
    INDEX 01 43:18:00
  TRACK 12 AUDIO
    TITLE "James Last & Richard Clayderman - Maracaibo '1991"
    PERFORMER "James Last"
    INDEX 01 46:51:49
  TRACK 13 AUDIO
    TITLE "James Last & Richard Clayderman - Reflections '1991"
    PERFORMER "James Last"
    INDEX 01 52:38:27
  TRACK 14 AUDIO
    TITLE "James Last & Richard Clayderman - Summer Serenade '1991"
    PERFORMER "James Last"
    INDEX 01 57:07:03

Лог Audiochecker

CD 1

AUDIOCHECKER v2.0 beta (build 457) - by Dester - opdester@freemail.hu
~~~~~~~~~~~~~~~~~~~~~~~~~~~~~~~~~~
Started at: четверг, 02. 07. 2015. - 21:33.55
1 file found
1 -===- D:\Torrent files\2015 - James Last plays James Last\CD 1\James Last - James Last plays James Last (CD 1).flac
  Extracted successfully
  Conclusion: this track is CDDA with probability 100%
  Tempfile successfully deleted.
Finished at: четверг, 02. 07. 2015. - 21:36.56 (operation time: 0:03.00)

CD 2

AUDIOCHECKER v2.0 beta (build 457) - by Dester - opdester@freemail.hu
~~~~~~~~~~~~~~~~~~~~~~~~~~~~~~~~~~
Started at: четверг, 02. 07. 2015. - 21:38.11
1 file found
1 -===- D:\Torrent files\2015 - James Last plays James Last\CD 2\James Last - James Last plays James Last (CD 2).flac
  Extracted successfully
  Conclusion: this track is CDDA with probability 100%
  Tempfile successfully deleted.
Finished at: четверг, 02. 07. 2015. - 21:41.02 (operation time: 0:02.51)

Скриншот спектра частот

Информация об исполнителе:

Джеймс Ласт (нем. James Last, настоящее имя Hans Last; род. 17 апреля 1929, Бремен) — немецкий композитор, аранжировщик и дирижёр. Первое публичное выступление Ласта состоялось в составе Hans-Guenther Oesterreich’s Radio Bremen Dance Orchestra в 1946. Двумя годами позже Ласт создаёт Last-Becker Ensemble. С 1950 по 1952 гг. Ласт признавался лучшим джазовым басистом года. В 1964 создал собственный оркестр и стал писать танцевальные аранжировки популярных мелодий различных исполнителей.Одна из самых известных композиций Ласта «Одинокий пастух» («The Lonely Shepherd») — была исполнена им совместно с румынским музыкантом Георге Замфиром и вышла в 1977 как сингл c немецким названием «Einsamer Hirte». Новою волну популярности мелодии подарил фильм «Убить Билла», где она прозвучала совместно с RZA.
--Не забываем говорить
[Профиль] [ЛС]

Создавать темы 13-Авг-2015 10:59 (спустя 1 месяц 10 дней)

Топик был перенесен из форума Зарубежная в форум Music from other genres
sergej644
 
Показать сообщения:    

Текущее время: Сегодня 18:46

Часовой пояс: GMT



Вы не можете начинать темы
Вы не можете отвечать на сообщения
Вы не можете редактировать свои сообщения
Вы не можете удалять свои сообщения
Вы не можете голосовать в опросах
Вы не можете прикреплять файлы к сообщениям
Вы не можете скачивать файлы