IMAX. На глубине (Жизнь глубин) / IMAX. Into the Deep (Ховард Холл / Howard Hall) [1994, США, Канада, Франция, Япония, IMAX Corporation, Документальный, BDRip 720p] VO + Original Eng + Sub (Rus, Eng)

 
Автор Сообщение

TorrentFilm ®

Пол:

Стаж: 2 года

Сообщений: 7741



Награды: Нет

Торрент-статистика

Создавать темы 23-Июл-2015 00:09

[Цитировать]

IMAX. На глубине (Жизнь глубин) / IMAX. Into the Deep
Год выпуска: 1994
Страна: США, Канада, Франция, Япония
Студия: IMAX Corporation
Жанр: Документальный, видовой
Продолжительность: 00:34:20
Перевод: Любительский одноголосый - Sawgod (перевод - Ash61)
Русские субтитры: есть
Режиссер: Ховард Холл / Howard Hall
Описание: "Жизнь глубин" переносит зрителей в захватывающее исследование жизни подводного мира. Впервые используя IMAX 3D-камеру под водой, удалось захватить картины уникальной морской жизни и великолепные подводные пейзажи. Зрители сами становятся обитателями морского дна.

Качество: BDRip 720p
Формат: MKV
Видео: MPEG-4 AVC, 1280x720, 6933 kbps, 23.976 fps, 0.314 bit/pixel
Аудио 1: Russian, DTS, 5.1, 48 kHz, 24 bit, 1509 kbps
Аудио 2: English, DTS, 5.1, 48 kHz, 24 bit, 1509 kbps

MediaInfo

x264 [info]: frame I:228 Avg QP:15.57 size:234213
x264 [info]: frame P:13020 Avg QP:17.98 size: 85896
x264 [info]: frame B:36142 Avg QP:21.46 size: 16981
---------------------------------------------------------------------
General
Unique ID : 213941137281487559726880149947960348439 (0xA0F3907384A84400AE5E699AE9394F17)
Complete name : J:\мои рипы\IMAX.Into.the.Deep.1994.x264.BDRip.(720p).mkv
Format : Matroska
Format version : Version 2
File size : 2.39 GiB
Duration : 34mn 20s
Overall bit rate : 9 957 Kbps
Movie name : IMAX. Into the Deep / На глубине / 1994 / Rip by PowerRock / ExKinoRay
Encoded date : UTC 2015-07-22 15:08:12
Writing application : mkvmerge v7.8.0 ('River Man') 32bit built on Apr 3 2015 12:11:22
Writing library : libebml v1.3.1 + libmatroska v1.4.2
Attachements : cover.png
Video
ID : 1
Format : AVC
Format/Info : Advanced Video Codec
Format profile : High@L4.1
Format settings, CABAC : Yes
Format settings, ReFrames : 8 frames
Codec ID : V_MPEG4/ISO/AVC
Duration : 34mn 20s
Bit rate : 6 933 Kbps
Width : 1 280 pixels
Height : 720 pixels
Display aspect ratio : 16:9
Frame rate mode : Constant
Frame rate : 23.976 fps
Color space : YUV
Chroma subsampling : 4:2:0
Bit depth : 8 bits
Scan type : Progressive
Bits/(Pixel*Frame) : 0.314
Stream size : 1.62 GiB (68%)
Title : IMAX. Into the Deep / На глубине / 1994
Writing library : x264 core 146 r2538 121396c
Encoding settings : cabac=1 / ref=8 / deblock=1:-3:-3 / analyse=0x3:0x113 / me=umh / subme=10 / psy=1 / psy_rd=1.00:0.10 / mixed_ref=1 / me_range=32 / chroma_me=1 / trellis=2 / 8x8dct=1 / cqm=0 / deadzone=21,11 / fast_pskip=0 / chroma_qp_offset=-3 / threads=6 / lookahead_threads=1 / sliced_threads=0 / nr=0 / decimate=1 / interlaced=0 / bluray_compat=0 / constrained_intra=0 / bframes=7 / b_pyramid=2 / b_adapt=2 / b_bias=0 / direct=3 / weightb=1 / open_gop=0 / weightp=2 / keyint=250 / keyint_min=23 / scenecut=40 / intra_refresh=0 / rc_lookahead=60 / rc=2pass / mbtree=1 / bitrate=6933 / ratetol=1.0 / qcomp=0.60 / qpmin=10 / qpmax=51 / qpstep=4 / cplxblur=20.0 / qblur=0.5 / vbv_maxrate=14000 / vbv_bufsize=14000 / nal_hrd=none / filler=0 / ip_ratio=1.40 / aq=1:1.00
Default : Yes
Forced : No
Audio #1
ID : 2
Format : DTS
Format/Info : Digital Theater Systems
Mode : 16
Format settings, Endianness : Big
Codec ID : A_DTS
Duration : 34mn 20s
Bit rate mode : Constant
Bit rate : 1 509 Kbps
Channel(s) : 6 channels
Channel positions : Front: L C R, Side: L R, LFE
Sampling rate : 48.0 KHz
Bit depth : 24 bits
Compression mode : Lossy
Stream size : 371 MiB (15%)
Language : Russian
Default : Yes
Forced : No
Audio #2
ID : 3
Format : DTS
Format/Info : Digital Theater Systems
Mode : 16
Format settings, Endianness : Big
Codec ID : A_DTS
Duration : 34mn 20s
Bit rate mode : Constant
Bit rate : 1 509 Kbps
Channel(s) : 6 channels
Channel positions : Front: L C R, Side: L R, LFE
Sampling rate : 48.0 KHz
Bit depth : 24 bits
Compression mode : Lossy
Stream size : 371 MiB (15%)
Language : English
Default : No
Forced : No
Text #1
ID : 4
Format : UTF-8
Codec ID : S_TEXT/UTF8
Codec ID/Info : UTF-8 Plain Text
Language : Russian
Default : Yes
Forced : No
Text #2
ID : 5
Format : UTF-8
Codec ID : S_TEXT/UTF8
Codec ID/Info : UTF-8 Plain Text
Language : English
Default : No
Forced : No

Скриншоты



[Профиль] [ЛС]
Кто просматривает тему:

Показать сообщения:    

Текущее время: Сегодня 13:00

Часовой пояс: GMT



Вы не можете начинать темы
Вы не можете отвечать на сообщения
Вы не можете редактировать свои сообщения
Вы не можете удалять свои сообщения
Вы не можете голосовать в опросах
Вы не можете прикреплять файлы к сообщениям
Вы не можете скачивать файлы