History Channel: В изоляции / Alone. Один шанс на двоих [S04х01-07 из 10] (2017) HDTVRip | P

 
Автор Сообщение

ZeNArD ®

Пол:

Стаж: 6 лет 10 месяцев

Сообщений: 314

Откуда: из глубин вашего подсознания!



Награды: Нет

Торрент-статистика

Создавать темы 13-Авг-2017 09:50

[Цитировать]

Название: В изоляции
Оригинальное название: Alone
Год выхода: 2017
Жанр: Документальный цикл, познавательный, реалити-шоу, экстрим
Режиссер: Валери Лалеф (Valerie Laleuf)
Описание: «В изоляции» – это самый длительный и опасный эксперимент по выживанию человека в дикой природе. Один шанс на двоих. Семь пар.
C этого момента их судьба зависит только от них самих. Участникам шоу предстоит поодиночке сражаться с холодом, голодом, влажностью, обильными осадками, а также со смертельными хищниками – медведями, волками и пумами. Каждому участнику разрешено было взять с собой только одежду и 10 самых необходимых предметов. Всё свое выживание участники должны документировать сами, снимая себя на выданные им видеокамеры. Одним из самых тяжелых испытаний станет одиночество. Цель проекта – продержаться на острове как можно дольше. Последний оставшийся получит главный приз – 500 тысяч долларов. Все участники никак не связаны друг с другом, и не имеют представления, когда и сколько участников уже выбыли. Звонок по спутниковому телефону спасателям автоматически лишает участника надежды выиграть полмиллиона, но также и спасает от дальнейшего пребывания на острове в экстремальных условиях дикой и беспощадной природы.
- Семь пар
- Никаких связей с миром
- Никаких постановочных съемок
- Крупнейший в истории эксперимент по выживанию
- Каждый сам за себя
- В полной изоляции
- Побеждает тот, кто продержится дольше всех
Рип: Вайделот
Страна: США, Ping Pong Productions
Продолжительность: 07 x ~00:42:30
Перевод: Профессиональный (многоголосый, закадровый)
Субтитры: отсутствуют

Качество: HDTVRip
Формат: AVI
Видео: XviD, 704x400 (16:9), 25 fps, ~1700 Kbps
Аудио: MP3, 44,1 kHz, 2 ch, 128 Kbps
Добавлено:
S04E07

Доп.инфо: В третьей серии достаточно много раз сыпется картинка на 1-2 секунды.
При первой возможности заменю.

Содержание

Alone S04
S04E01
S04E02
S04E03
S04E04
S04E05
S04E06

MediaInfo

Формат : AVI
Формат/Информация : Audio Video Interleave
Размер файла : 616 Мбайт
Продолжительность : 42 м. 13 с.
Общий поток : 2040 Кбит/сек
Программа кодирования : Lavf57.71.100
Видео
Идентификатор : 0
Формат : MPEG-4 Visual
Профиль формата : Advanced Simple@L5
Параметр BVOP формата : 3
Параметр QPel формата : Нет
Параметр GMC формата : Без точки перехода
Параметр матрицы формата : Default (H.263)
Идентификатор кодека : XVID
Идентификатор кодека/Подсказка : XviD
Продолжительность : 42 м. 12 с.
Битрейт : 1900 Кбит/сек
Ширина : 704 пикселя
Высота : 400 пикселей
Соотношение сторон : 16:9
Частота кадров : 25,000 кадров/сек
Цветовое пространство : YUV
Субдискретизация насыщенности : 4:2:0
Битовая глубина : 8 бит
Тип развёртки : Прогрессивная
Метод сжатия : С потерями
Бит/(Пиксели*Кадры) : 0.270
Размер потока : 574 Мбайт (93%)
Библиотека кодирования : XviD 67
Аудио
Идентификатор : 1
Формат : MPEG Audio
Версия формата : Version 1
Профиль формата : Layer 3
Режим : Joint stereo
Расширение режима : MS Stereo
Идентификатор кодека : 55
Идентификатор кодека/Подсказка : MP3
Продолжительность : 42 м. 13 с.
Вид битрейта : Постоянный
Битрейт : 128 Кбит/сек
Каналы : 2 канала
Частота : 44,1 КГц
Метод сжатия : С потерями
Размер потока : 38,6 Мбайт (6%)
Выравнивание : Соединение по промежуткам
Продолжительность промежутка : 26 мс. (0,65 видеокадр)
Библиотека кодирования : LAME3.99.5

Скриншоты


Внимание! Раздача ведётся путём добавления новых выпусков

Внимание! Раздача ведётся путём добавления новых выпусков; при каждом добавлении создаётся новый торрент. Чтобы начать докачку нового выпуска, пользователям необходимо сделать следующее:
(1) остановить скачивание,
(2) удалить старый торрент у себя из клиента (старые серии удалять не надо),
(3) скачать новый торрент и запустить его у себя в клиенте вместо старого, при этом указать клиенту путь в старую папку куда и должно происходить скачивание новых выпусков.
Ваш клиент при этом должен произвести хеширование (проверку) старой папки (если не производит сам - помогите ему сделать это). В результате он будет докачивать только те выпуски, которых у Вас ещё нет. Старые выпуски при этом не удаляются, а продолжают раздаваться!
Eсли Вы уже удалили старые выпуски, то предотвратить их повторную закачку можно, сняв галочки в соответствующих местах при запуске нового торрента. По возможности, желательно не удалять старые выпуски как можно дольше, чтобы релизёр не только продолжал раздавать старые выпуски, но и смог сконцентрироваться на новых.
[Профиль] [ЛС]
Показать сообщения:    

Текущее время: Сегодня 12:37

Часовой пояс: GMT



Вы не можете начинать темы
Вы не можете отвечать на сообщения
Вы не можете редактировать свои сообщения
Вы не можете удалять свои сообщения
Вы не можете голосовать в опросах
Вы не можете прикреплять файлы к сообщениям
Вы не можете скачивать файлы