History: Невероятные технологии древних / Ancient Impossible [сезон 1 серии 10 из 10] (Стюарт Кларк / Stuart Clarke) [2014 г., Документальный, история, исследования, HDTVRip-AVC 720p]

 
Author Message

skorpionN ®

Gender:

Longevity: 4 years 4 months

Posts: 944



: 4 ()

Mega Seeder 3 (1) Mega Seeder 1 (1) Mega Seeder 2 (1)
Торрент-статистика

Post 16-Jan-2018 11:08

[Quote]

Невероятные технологии древних / Ancient Impossible [сезон 1 серии 10 из 10]
Год выпуска: 2014
Страна: США, History Channel
Жанр: Документальный, история, исследования
Продолжительность: 00:39:30
Перевод: Профессиональный (одноголосый), Видеофильм ТВ
Режиссер: Стюарт Кларк / Stuart Clarke
Участники: Алан Гилкрист
Описание: Авторы Сериала Ancient Impossible, снятого для канала "History", пытаются объяснить, каким образом наши предки, не имея современных научно-технических средств, могли создавать все то, чем мы сегодня восхищаемся.
Список серий:
01. Невероятное оружие / Ultimate Weapons
02. Передвигая горы / Moving Mountains
03. Монументы-исполины / Monster Monuments
04. Военные технологии / Warrior Tech
05. Эйнштейны древности (Гении далекого прошлого) / Ancient Einsteins
06. Мощные инструменты / Power Tools
07. Самые большие корабли (Корабли-гиганты) / Greatest Ships
08. Великие сооружения / Biggest Buildings
09. Римская империя / Roman Empire
10. Чудеса инженерного искусства (Инженерное честолюбие) / Extreme Engineering

Качество: HDTVRip-AVC
Формат: MKV
Видео кодек: H.264
Аудио кодек: AC3
Видео: 1280x720 25.00fps 4000 Kbps
Аудио: AC3 2ch, 48kHz, 192 kbps

Скриншоты


MediaInfo:

Format : Matroska
Format version : Version 4 / Version 2
File size : 1.16 GiB
Duration : 39 min 31 s
Overall bit rate mode : Variable
Overall bit rate : 4 191 kb/s
Encoded date : UTC 2018-01-16 09:20:19
Writing application : mkvmerge v6.9.1 ('Blue Panther') 64bit built on Apr 18 2014 18:23:38
Writing library : libebml v1.3.0 + libmatroska v1.4.1
Video
ID : 1
Format : AVC
Format/Info : Advanced Video Codec
Format profile : High@L3.1
Format settings, CABAC : Yes
Format settings, ReFrames : 3 frames
Codec ID : V_MPEG4/ISO/AVC
Duration : 39 min 31 s
Bit rate mode : Variable
Bit rate : 4 000 kb/s
Maximum bit rate : 8 000 kb/s
Width : 1 280 pixels
Height : 720 pixels
Display aspect ratio : 16:9
Frame rate mode : Constant
Frame rate : 25.000 FPS
Standard : NTSC
Color space : YUV
Chroma subsampling : 4:2:0
Bit depth : 8 bits
Scan type : Progressive
Bits/(Pixel*Frame) : 0.174
Stream size : 1.08 GiB (93%)
Writing library : x264 core 114
Encoding settings : cabac=1 / ref=3 / deblock=1:0:0 / analyse=0x3:0x113 / me=hex / subme=7 / psy=1 / psy_rd=1.00:0.00 / mixed_ref=1 / me_range=16 / chroma_me=1 / trellis=1 / 8x8dct=1 / cqm=2 / deadzone=21,11 / fast_pskip=1 / chroma_qp_offset=-4 / threads=6 / sliced_threads=0 / slices=1 / nr=0 / decimate=1 / interlaced=0 / constrained_intra=0 / bframes=3 / b_pyramid=0 / b_adapt=1 / b_bias=0 / direct=1 / weightb=1 / open_gop=0 / weightp=2 / keyint=250 / keyint_min=25 / scenecut=40 / intra_refresh=0 / rc_lookahead=40 / rc=2pass / mbtree=1 / bitrate=4000 / ratetol=1.0 / qcomp=0.60 / qpmin=5 / qpmax=69 / qpstep=4 / cplxblur=20.0 / qblur=0.5 / vbv_maxrate=8000 / vbv_bufsize=7995 / nal_hrd=vbr / ip_ratio=1.40 / aq=1:1.00
Default : Yes
Forced : No
Color range : Limited
Color primaries : BT.709
Transfer characteristics : BT.709
Matrix coefficients : BT.709
Audio
ID : 2
Format : AC-3
Format/Info : Audio Coding 3
Mode extension : CM (complete main)
Format settings, Endianness : Big
Codec ID : A_AC3
Duration : 39 min 31 s
Bit rate mode : Constant
Bit rate : 192 kb/s
Channel(s) : 2 channels
Channel positions : Front: L R
Sampling rate : 48.0 kHz
Frame rate : 31.250 FPS (1536 spf)
Compression mode : Lossy
Stream size : 54.3 MiB (5%)
Default : Yes
Forced : No

Внимание:

Раздача ведётся путём добавления новых серий; при каждом добавлении создаётся новый торрент. Чтобы начать докачку новой серии, пользователям необходимо сделать следующее:
- Остановить скачивание.
- Удалить старый торрент у себя из клиента (старые серии удалять не надо).
- Скачать новый торрент и запустить его у себя в клиенте вместо старого, при этом указать клиенту путь в старую папку куда и должно происходить скачивание новых серий.


Last edited by skorpionN on 2018-05-15 09:25; edited 8 times in total
[Profile] [PM]

KiruhaDelMar

Longevity: 4 years 3 months

Posts: 319



: None

Торрент-статистика

Post 17-Jan-2018 15:33 (after 1 day 4 hours)

[Quote]

Не понял, яж тебе ссылку на все серии давал
[Profile] [PM]

Mersicc

Gender:

Longevity: 8 years 7 months

Posts: 3

Location: От туда..ты знаиш.



: None

Торрент-статистика

Post 20-Jan-2018 12:47 (after 2 days 21 hour)

[Quote]

Передача..интересная..иногда говарят, более или менее правду. Но на самом деле..фильму снимали мультипликаторы..Типа и я там был, чай ,водку пил по усам текло но в рот не поподало. bt bs
[Profile] [PM]
Кто просматривает тему:

Display posts from previous:    

The time now is: Today 08:36

All times are GMT



You cannot post new topics in this forum
You cannot reply to topics in this forum
You cannot edit your posts in this forum
You cannot delete your posts in this forum
You cannot vote in polls in this forum
You cannot attach files in this forum
You cannot download files in this forum