History: Большая история / Big History (Джеймс Грант Голдин / James Grant Goldin) [2013, Документально-постановочный, история, HDTVRip 720p]

 
Author Message

TorrentFilm ®

Gender:

Longevity: 5 years 7 months

Posts: 7770



: None

Торрент-статистика

Post 03-Apr-2015 00:03

[Quote]

History: Большая история / Big History
Год выпуска: 2013
Страна: США
Студия: History Channel
Жанр: Документально-постановочный, история
Продолжительность: 00:20:30
Перевод: Профессиональный (дублированный)
Русские субтитры: нет
Режиссер: Джеймс Грант Голдин / James Grant Goldin
Описание: Мы воспринимаем историю, как временную ось, ряд событий, происходивших в течение нескольких тысяч лет. Пришло время думать масштабнее. Вместо оси представьте себе бесконечную систему связей и узлов, в течение миллионов лет оказывавших взаимное влияние и создавших в итоге все то, что нам известно: Вселенную, планеты и нас самих. Изучая важнейшие события прошлого через линзу науки, авторы проекта предлагают новую революционную идею: движение атомов определяет направление движения людей, цивилизаций и галактик. История, известная нам, отныне станет масштабнее. Посмотрите весь сериал и вы увидите, как раскрывается великая загадка масштабной истории времени и пространства.
Доп. информация: 01. Сила соли / The Superpower of Salt
02. Золотая лихорадка / Gold Fever
03. Революция лошадиных сил / Horse Power Revolution
04. Ниже нуля / Below Zero
05. Суперпостройки / Megastructures
06. Мир оружия / World of Weapons
07. Восхождение плотоядных / Rise of the Carnivores
08. Горные фабрики / Mountain Machines
09. Кофеин / Brain Boost
10. Преодолевая гравитацию / Defeating Gravity
11. Портативная машина времени / Pocket Time Machine
12. Смертельно опасные метеоры / Deadly Meteors
13. Расшифровка / Decoded
14. Серебряная сверхновая / Silver Supernova
15. Солнце / The Sun
16. Вода / H2O
Документальный дубляж:
Голос рассказчика - полный дубляж
Интервью - слышна оригинальная речь
Релиз группа: R. G. BitTracker
Сэмпл: https://yadi.sk/i/ecoL98KYfaBcK
Тип релиза: HDTVRip 720p
Контейнер: MKV
Видео: MPEG-4 AVC, ~ 5615 Кбит/с, 1280x720 16:9 Bits/(Pixel*Frame) 0.243
Аудио: AC3, 2 ch, 192 Кбит/с

MediaInfo

Big History\s01e07_Rise of the Carnivores.mkvFormat : MatroskaFormat version : Version 4 / Version 2File size : 868 MiBDuration : 20mn 30sOverall bit rate mode : ConstantOverall bit rate : 5 917 KbpsEncoded date : UTC 2014-05-12 09:15:08Writing application : mkvmerge v6.8.0 ('Theme for Great Cities') 64bit built on Mar 2 2014 21:34:26Writing library : libebml v1.3.0 + libmatroska v1.4.1
VideoID : 1Format : AVCFormat/Info : Advanced Video CodecFormat profile : High@L3.1Format settings, CABAC : YesFormat settings, ReFrames : 3 framesCodec ID : V_MPEG4/ISO/AVCDuration : 20mn 30sBit rate mode : ConstantBit rate : 5 608 KbpsNominal bit rate : 6 000 Kbps / 6 000 KbpsWidth : 1 280 pixelsHeight : 720 pixelsDisplay aspect ratio : 16:9Frame rate mode : ConstantFrame rate : 25.000 fpsStandard : NTSCColor space : YUVChroma subsampling : 4:2:0Bit depth : 8 bitsScan type : ProgressiveBits/(Pixel*Frame) : 0.243Stream size : 823 MiB (95%)Writing library : x264 core 114Encoding settings : cabac=1 / ref=3 / deblock=1:0:0 / analyse=0x3:0x113 / me=hex / subme=7 / psy=1 / psy_rd=1.00:0.00 / mixed_ref=1 / me_range=16 / chroma_me=1 / trellis=1 / 8x8dct=1 / cqm=2 / deadzone=21,11 / fast_pskip=1 / chroma_qp_offset=-2 / threads=6 / sliced_threads=0 / slices=1 / nr=0 / decimate=1 / interlaced=0 / constrained_intra=0 / bframes=3 / b_pyramid=0 / b_adapt=1 / b_bias=0 / direct=1 / weightb=1 / open_gop=0 / weightp=2 / keyint=250 / keyint_min=25 / scenecut=40 / intra_refresh=0 / rc_lookahead=40 / rc=cbr / mbtree=1 / bitrate=6000 / ratetol=1.0 / qcomp=0.60 / qpmin=3 / qpmax=69 / qpstep=4 / vbv_maxrate=6000 / vbv_bufsize=5996 / nal_hrd=cbr / ip_ratio=1.40 / aq=1:1.00Default : YesForced : NoColor primaries : BT.709Transfer characteristics : BT.709Matrix coefficients : BT.709
AudioID : 2Format : AC-3Format/Info : Audio Coding 3Mode extension : CM (complete main)Format settings, Endianness : BigCodec ID : A_AC3Duration : 20mn 30sBit rate mode : ConstantBit rate : 192 KbpsChannel(s) : 2 channelsChannel positions : Front: L RSampling rate : 48.0 KHzBit depth : 16 bitsCompression mode : LossyStream size : 28.2 MiB (3%)Default : YesForced : No

Скриншоты




[Profile] [PM]

skorpionN

Gender:

Longevity: 5 years 4 months

Posts: 944



: 4 ()

Mega Seeder 2 (1) Top Releaser 2 (1) Mega Seeder 3 (1)
Торрент-статистика

Post 03-Apr-2015 08:27 (after 8 hours)

[Quote]

Ого! Бывшее наше
[Profile] [PM]
Кто просматривает тему:

Display posts from previous:    

The time now is: Today 13:07

All times are GMT



You cannot post new topics in this forum
You cannot reply to topics in this forum
You cannot edit your posts in this forum
You cannot delete your posts in this forum
You cannot vote in polls in this forum
You cannot attach files in this forum
You cannot download files in this forum