(Heavy Metal) Herman Frank - Rare Metal - 2019 [FLAC, image +.cue, lossless]

 
Author Message

sergej644 ®

Gender:

Longevity: 7 years 11 months

Posts: 7322



: 10 ()

Mega Seeder 5 (1) Top Seeder 5 (1) За внесенный вклад в развитие сайта (1)
Торрент-статистика

Post 20-Nov-2019 10:24

[Quote]

-Herman Frank - Rare Metal--
Год издания: 2019
Страна: Germany
Жанр: Heavy Metal
Продолжительность: 01:18:24-Лейбл издания: TB Music
Страна-выпуска диска: Japan
Номер по каталогу: TBMP 20190917-Формат: FLAC
Битрейт аудио: Lossless
Тип рипа: image +.cue
Наличие сканов в содержимом раздачи: да
-

Трэклист


01. Sky Trooper (4:12)
02. Princess (4:23)
03. You Don't Know (4:25)
04. 4 Auf Die Glocke (3:50)
05. Ballhog Plage (4:36)
06. Hanging Out To Die (4:55)
07. I Want It All (4:23)
08. Scream - Give Me A Reason (4:08)
09. Forever (5:50)
10. Ride On (5:13)
11. Hungarian Dance (4:11)
12. Lonely (3:30)
13. Checks In The Mail (4:23)
14. On The Way To Eternity (6:42)
15. Sinners For False Light (3:32)
16. Way To The One (4:18)
17. Song Of Delight (5:53)
-

Лог создания рипа

Exact Audio Copy V1.3 from 2. September 2016
EAC extraction logfile from 7. November 2019, 15:08
Herman Frank / Rare Metal
Used drive  : ASUS    DRW-24D5MT   Adapter: 1  ID: 1
Read mode               : Secure
Utilize accurate stream : Yes
Defeat audio cache      : Yes
Make use of C2 pointers : No
Read offset correction                      : 6
Overread into Lead-In and Lead-Out          : No
Fill up missing offset samples with silence : Yes
Delete leading and trailing silent blocks   : No
Null samples used in CRC calculations       : Yes
Used interface                              : Installed external ASPI interface
Used output format              : User Defined Encoder
Selected bitrate                : 128 kBit/s
Quality                         : High
Add ID3 tag                     : No
Command line compressor         : C:\Program Files (x86)\Exact Audio Copy\Flac\flac.exe
Additional command line options :  -8 -V -T "TITLE=%title%" -T "ARTIST=%artist%" -T "ALBUMARTIST=%albumartist%" -T "ALBUM=%albumtitle%" -T "DATE=%year%" -T "TRACKNUMBER=%tracknr%" -T "TRACKTOTAL=%numtracks%" -T "GENRE=%genre%" -T "COMMENT=%comment%" -T "PERFORMER=%albuminterpret%" -T "COMPOSER=%composer%" %source% -o %dest%
TOC of the extracted CD
     Track |   Start  |  Length  | Start sector | End sector
    ---------------------------------------------------------
        1  |  0:00.00 |  4:11.74 |         0    |    18898
        2  |  4:11.74 |  4:22.50 |     18899    |    38598
        3  |  8:34.49 |  4:25.17 |     38599    |    58490
        4  | 12:59.66 |  3:50.00 |     58491    |    75740
        5  | 16:49.66 |  4:35.38 |     75741    |    96403
        6  | 21:25.29 |  4:55.18 |     96404    |   118546
        7  | 26:20.47 |  4:22.43 |    118547    |   138239
        8  | 30:43.15 |  4:07.68 |    138240    |   156832
        9  | 34:51.08 |  5:50.11 |    156833    |   183093
       10  | 40:41.19 |  5:13.21 |    183094    |   206589
       11  | 45:54.40 |  4:11.12 |    206590    |   225426
       12  | 50:05.52 |  3:29.63 |    225427    |   241164
       13  | 53:35.40 |  4:22.67 |    241165    |   260881
       14  | 57:58.32 |  6:41.69 |    260882    |   291025
       15  | 64:40.26 |  3:32.17 |    291026    |   306942
       16  | 68:12.43 |  4:17.46 |    306943    |   326263
       17  | 72:30.14 |  5:53.29 |    326264    |   352767
Range status and errors
Selected range
     Filename C:\Users\Desktop\2019. Rare Metal\Herman Frank - Rare Metal.wav
     Peak level 100.0 %
     Extraction speed 2.1 X
     Range quality 100.0 %
     Test CRC 4BCDC593
     Copy CRC 4BCDC593
     Copy OK
No errors occurred
AccurateRip summary
Track  1  not present in database
Track  2  not present in database
Track  3  not present in database
Track  4  not present in database
Track  5  not present in database
Track  6  not present in database
Track  7  not present in database
Track  8  not present in database
Track  9  not present in database
Track 10  not present in database
Track 11  not present in database
Track 12  not present in database
Track 13  not present in database
Track 14  not present in database
Track 15  not present in database
Track 16  not present in database
Track 17  not present in database
None of the tracks are present in the AccurateRip database
End of status report

Индексная карта (non-compilant .cue)

REM GENRE "Heavy Metal"
REM DATE 2019
REM DISCID E8125F11
REM COMMENT "ExactAudioCopy v1.3"
PERFORMER "Herman Frank"
TITLE "Rare Metal"
REM COMPOSER ""
FILE "Herman Frank - Rare Metal.flac" WAVE
  TRACK 01 AUDIO
    TITLE "Sky Trooper"
    PERFORMER "Herman Frank"
    REM COMPOSER ""
    INDEX 01 00:00:00
  TRACK 02 AUDIO
    TITLE "Princess"
    PERFORMER "Herman Frank"
    REM COMPOSER ""
    INDEX 01 04:11:74
  TRACK 03 AUDIO
    TITLE "You Don't Know"
    PERFORMER "Herman Frank"
    REM COMPOSER ""
    INDEX 01 08:34:49
  TRACK 04 AUDIO
    TITLE "4 Auf Die Glocke"
    PERFORMER "Herman Frank"
    REM COMPOSER ""
    INDEX 01 12:59:66
  TRACK 05 AUDIO
    TITLE "Ballhog Plage"
    PERFORMER "Herman Frank"
    REM COMPOSER ""
    INDEX 01 16:49:66
  TRACK 06 AUDIO
    TITLE "Hanging Out To Die"
    PERFORMER "Herman Frank"
    REM COMPOSER ""
    INDEX 01 21:25:29
  TRACK 07 AUDIO
    TITLE "I Want It All"
    PERFORMER "Herman Frank"
    REM COMPOSER ""
    INDEX 01 26:20:47
  TRACK 08 AUDIO
    TITLE "Scream - Give Me A Reason"
    PERFORMER "Herman Frank"
    REM COMPOSER ""
    INDEX 01 30:43:15
  TRACK 09 AUDIO
    TITLE "Forever"
    PERFORMER "Herman Frank"
    REM COMPOSER ""
    INDEX 01 34:51:08
  TRACK 10 AUDIO
    TITLE "Ride On"
    PERFORMER "Herman Frank"
    REM COMPOSER ""
    INDEX 01 40:41:19
  TRACK 11 AUDIO
    TITLE "Hungarian Dance"
    PERFORMER "Herman Frank"
    REM COMPOSER ""
    INDEX 01 45:54:40
  TRACK 12 AUDIO
    TITLE "Lonely"
    PERFORMER "Herman Frank"
    REM COMPOSER ""
    INDEX 01 50:05:52
  TRACK 13 AUDIO
    TITLE "Checks In The Mail"
    PERFORMER "Herman Frank"
    REM COMPOSER ""
    INDEX 01 53:35:40
  TRACK 14 AUDIO
    TITLE "On The Way To Eternity"
    PERFORMER "Herman Frank"
    REM COMPOSER ""
    INDEX 01 57:58:32
  TRACK 15 AUDIO
    TITLE "Sinners For False Light"
    PERFORMER "Herman Frank"
    REM COMPOSER ""
    INDEX 01 64:40:26
  TRACK 16 AUDIO
    TITLE "Way To The One"
    PERFORMER "Herman Frank"
    REM COMPOSER ""
    INDEX 01 68:12:43
  TRACK 17 AUDIO
    TITLE "Song Of Delight"
    PERFORMER "Herman Frank"
    REM COMPOSER ""
    INDEX 01 72:30:14
-

для ознакомления:

https://www.youtube.com/watch?v=9uS0xhIKwAU
--
[Profile] [PM]
Display posts from previous:    

The time now is: Today 04:34

All times are GMT



You cannot post new topics in this forum
You cannot reply to topics in this forum
You cannot edit your posts in this forum
You cannot delete your posts in this forum
You cannot vote in polls in this forum
You cannot attach files in this forum
You cannot download files in this forum