(Power Metal) Helloween - Keeper Of The Seven Keys Part I - II (2CD) (Remaster 1994) - 1987, 1988 [FLAC, tracks+.cue, lossless]

 
Автор Сообщение

sergej644 ®

Пол:

Стаж: 4 года 11 месяцев

Сообщений: 6040

Откуда: Soviet Union



Награды: Нет

Торрент-статистика

Создавать темы 20-Июн-2015 20:23

[Цитировать]

-Helloween / Keeper Of The Seven Keys Part I - II (2CD) (Remaster 1994)-- Год издания: 1987, 1988
Страна: Germany
Жанр: Power Metal
Продолжительность: 01:26:54-Лейбл издания: Victor
Страна-выпуска диска: Japan
Номер по каталогу: VICP-5456, VICP-5457
Формат: FLAC
Битрейт аудио: lossless
Тип рипа: tracks+.cue
Наличие сканов в содержимом раздачи: да
--

1987 - Part I | 00:37:09

01.Initiation (01:22)
02.I'm Alive (03:24)
03.A Little Time (04:01)
04.Twilight Of The Gods (04:31)
05.A Tale That Wasn't Right (04:44)
06.Future World (04:03)
07.Halloween (13:20)
08.Follow The Sign (01:48)

1988 - Part II | 00:49:45

01.Invitation (01:09)
02.Eagle Fly Free (05:11)
03.You Always Walk Alone (05:11)
04.Rise And Fall (04:23)
05.Dr. Stein (05:06)
06.We Got The Right (05:09)
07.March Of Time (05:17)
08.I Want Out (04:42)
09.Keeper Of The Seven Keys (13:40)
-

Лог создания рипа

Part I

Exact Audio Copy V1.0 beta 3 from 29. August 2011
EAC extraction logfile from 21. November 2013, 19:26
Helloween / Keeper Of The Seven Keys Part I [1994, VICP-5456]
Used drive  : ASUS    DRW-22B3S   Adapter: 3  ID: 1
Read mode               : Secure
Utilize accurate stream : Yes
Defeat audio cache      : Yes
Make use of C2 pointers : No
Read offset correction                      : 6
Overread into Lead-In and Lead-Out          : No
Fill up missing offset samples with silence : Yes
Delete leading and trailing silent blocks   : No
Null samples used in CRC calculations       : Yes
Used interface                              : Installed external ASPI interface
Gap handling                                : Appended to previous track
Used output format              : User Defined Encoder
Selected bitrate                : 768 kBit/s
Quality                         : High
Add ID3 tag                     : No
Command line compressor         : C:\Program Files\Exact Audio Copy\FLAC\FLAC.EXE
Additional command line options : -V -8 -T "Genre=%genre%" -T "Artist=%artist%" -T "Title=%title%" -T "Album=%albumtitle%" -T "Date=%year%" -T "Tracknumber=%tracknr%" -T "Comment=%comment%" %source%
TOC of the extracted CD
     Track |   Start  |  Length  | Start sector | End sector
    ---------------------------------------------------------
        1  |  0:00.37 |  1:21.58 |        37    |     6169
        2  |  1:22.20 |  3:23.02 |      6170    |    21396
        3  |  4:45.22 |  4:00.63 |     21397    |    39459
        4  |  8:46.10 |  4:30.52 |     39460    |    59761
        5  | 13:16.62 |  4:43.25 |     59762    |    81011
        6  | 18:00.12 |  4:02.73 |     81012    |    99234
        7  | 22:03.10 | 13:19.10 |     99235    |   159169
        8  | 35:22.20 |  1:47.07 |    159170    |   167201
Track  1
     Filename H:\gym1974 (torrentfilm.net)\Helloween\1987 - Keeper Of The Seven Keys Part I [1994, VICP-5456]\01. Initiation.wav
     Pre-gap length  0:00:02.37
     Peak level 76.8 %
     Extraction speed 1.3 X
     Track quality 100.0 %
     Test CRC 8041485A
     Copy CRC 8041485A
     Cannot be verified as accurate (confidence 5)  [4CFFE73B], AccurateRip returned [ED887CE0]  (AR v2)
     Copy OK
Track  2
     Filename H:\gym1974 (torrentfilm.net)\Helloween\1987 - Keeper Of The Seven Keys Part I [1994, VICP-5456]\02. I'm Alive.wav
     Peak level 98.0 %
     Extraction speed 1.8 X
     Track quality 100.0 %
     Test CRC F828C666
     Copy CRC F828C666
     Cannot be verified as accurate (confidence 5)  [F8F0FBF0], AccurateRip returned [0FF49E59]  (AR v2)
     Copy OK
Track  3
     Filename H:\gym1974 (torrentfilm.net)\Helloween\1987 - Keeper Of The Seven Keys Part I [1994, VICP-5456]\03. A Little Time.wav
     Peak level 98.0 %
     Extraction speed 2.0 X
     Track quality 100.0 %
     Test CRC 2DCA1B9F
     Copy CRC 2DCA1B9F
     Cannot be verified as accurate (confidence 5)  [DFDDA11D], AccurateRip returned [1E670853]  (AR v2)
     Copy OK
Track  4
     Filename H:\gym1974 (torrentfilm.net)\Helloween\1987 - Keeper Of The Seven Keys Part I [1994, VICP-5456]\04. Twilight Of The Gods.wav
     Peak level 98.0 %
     Extraction speed 2.3 X
     Track quality 100.0 %
     Test CRC 96424495
     Copy CRC 96424495
     Cannot be verified as accurate (confidence 5)  [1515FB96], AccurateRip returned [A91DCFA5]  (AR v2)
     Copy OK
Track  5
     Filename H:\gym1974 (torrentfilm.net)\Helloween\1987 - Keeper Of The Seven Keys Part I [1994, VICP-5456]\05. A Tale That Wasn't Right.wav
     Peak level 98.0 %
     Extraction speed 2.5 X
     Track quality 100.0 %
     Test CRC 4E2446D7
     Copy CRC 4E2446D7
     Cannot be verified as accurate (confidence 5)  [805C1718], AccurateRip returned [8179FCBF]  (AR v2)
     Copy OK
Track  6
     Filename H:\gym1974 (torrentfilm.net)\Helloween\1987 - Keeper Of The Seven Keys Part I [1994, VICP-5456]\06. Future World.wav
     Pre-gap length  0:00:00.06
     Peak level 96.3 %
     Extraction speed 2.6 X
     Track quality 100.0 %
     Test CRC ABACFF90
     Copy CRC ABACFF90
     Cannot be verified as accurate (confidence 5)  [37899054], AccurateRip returned [DAA1DC2E]  (AR v2)
     Copy OK
Track  7
     Filename H:\gym1974 (torrentfilm.net)\Helloween\1987 - Keeper Of The Seven Keys Part I [1994, VICP-5456]\07. Halloween.wav
     Peak level 91.4 %
     Extraction speed 2.9 X
     Track quality 99.9 %
     Test CRC AFE3976B
     Copy CRC AFE3976B
     Cannot be verified as accurate (confidence 5)  [0735CFCB], AccurateRip returned [04567F54]  (AR v2)
     Copy OK
Track  8
     Filename H:\gym1974 (torrentfilm.net)\Helloween\1987 - Keeper Of The Seven Keys Part I [1994, VICP-5456]\08. Follow The Sign.wav
     Peak level 53.8 %
     Extraction speed 2.6 X
     Track quality 100.0 %
     Test CRC 98F3C197
     Copy CRC 98F3C197
     Cannot be verified as accurate (confidence 5)  [B551D74B], AccurateRip returned [2789F7FD]  (AR v2)
     Copy OK
No tracks could be verified as accurate
You may have a different pressing from the one(s) in the database
No errors occurred
End of status report

Part II

Exact Audio Copy V1.0 beta 3 from 29. August 2011
EAC extraction logfile from 21. November 2013, 20:09
Helloween / Keeper Of The Seven Keys Part II [1994, VICP-5457]
Used drive  : ASUS    DRW-22B3S   Adapter: 3  ID: 1
Read mode               : Secure
Utilize accurate stream : Yes
Defeat audio cache      : Yes
Make use of C2 pointers : No
Read offset correction                      : 6
Overread into Lead-In and Lead-Out          : No
Fill up missing offset samples with silence : Yes
Delete leading and trailing silent blocks   : No
Null samples used in CRC calculations       : Yes
Used interface                              : Installed external ASPI interface
Gap handling                                : Appended to previous track
Used output format              : User Defined Encoder
Selected bitrate                : 768 kBit/s
Quality                         : High
Add ID3 tag                     : No
Command line compressor         : C:\Program Files\Exact Audio Copy\FLAC\FLAC.EXE
Additional command line options : -V -8 -T "Genre=%genre%" -T "Artist=%artist%" -T "Title=%title%" -T "Album=%albumtitle%" -T "Date=%year%" -T "Tracknumber=%tracknr%" -T "Comment=%comment%" %source%
TOC of the extracted CD
     Track |   Start  |  Length  | Start sector | End sector
    ---------------------------------------------------------
        1  |  0:00.37 |  1:08.40 |        37    |     5176
        2  |  1:09.02 |  5:10.45 |      5177    |    28471
        3  |  6:19.47 |  5:10.67 |     28472    |    51788
        4  | 11:30.39 |  4:23.00 |     51789    |    71513
        5  | 15:53.39 |  5:05.73 |     71514    |    94461
        6  | 20:59.37 |  5:08.40 |     94462    |   117601
        7  | 26:08.02 |  5:16.17 |    117602    |   141318
        8  | 31:24.19 |  4:41.28 |    141319    |   162421
        9  | 36:05.47 | 13:39.15 |    162422    |   223861
Track  1
     Filename H:\gym1974 (torrentfilm.net)\Helloween\1988 - Keeper Of The Seven Keys Part II [1994, VICP-5457]\01. Invitation.wav
     Pre-gap length  0:00:02.37
     Peak level 90.6 %
     Extraction speed 1.2 X
     Track quality 100.0 %
     Test CRC DAAB620D
     Copy CRC DAAB620D
     Accurately ripped (confidence 1)  [0F05C5E1]  (AR v2)
     Copy OK
Track  2
     Filename H:\gym1974 (torrentfilm.net)\Helloween\1988 - Keeper Of The Seven Keys Part II [1994, VICP-5457]\02. Eagle Fly Free.wav
     Peak level 98.0 %
     Extraction speed 2.0 X
     Track quality 100.0 %
     Test CRC A9558214
     Copy CRC A9558214
     Accurately ripped (confidence 1)  [970BD2DE]  (AR v2)
     Copy OK
Track  3
     Filename H:\gym1974 (torrentfilm.net)\Helloween\1988 - Keeper Of The Seven Keys Part II [1994, VICP-5457]\03. You Always Walk Alone.wav
     Pre-gap length  0:00:02.57
     Peak level 98.0 %
     Extraction speed 2.2 X
     Track quality 100.0 %
     Test CRC 4EC0CD85
     Copy CRC 4EC0CD85
     Accurately ripped (confidence 1)  [7AFA2EDE]  (AR v2)
     Copy OK
Track  4
     Filename H:\gym1974 (torrentfilm.net)\Helloween\1988 - Keeper Of The Seven Keys Part II [1994, VICP-5457]\04. Rise And Fall.wav
     Pre-gap length  0:00:01.26
     Peak level 98.0 %
     Extraction speed 2.4 X
     Track quality 100.0 %
     Test CRC 015A8376
     Copy CRC 015A8376
     Accurately ripped (confidence 1)  [03800427]  (AR v2)
     Copy OK
Track  5
     Filename H:\gym1974 (torrentfilm.net)\Helloween\1988 - Keeper Of The Seven Keys Part II [1994, VICP-5457]\05. Dr. Stein.wav
     Pre-gap length  0:00:00.49
     Peak level 98.0 %
     Extraction speed 2.6 X
     Track quality 100.0 %
     Test CRC 6B13DCCE
     Copy CRC 6B13DCCE
     Accurately ripped (confidence 1)  [9E30BD32]  (AR v2)
     Copy OK
Track  6
     Filename H:\gym1974 (torrentfilm.net)\Helloween\1988 - Keeper Of The Seven Keys Part II [1994, VICP-5457]\06. We Got The Right.wav
     Pre-gap length  0:00:02.27
     Peak level 98.0 %
     Extraction speed 2.8 X
     Track quality 100.0 %
     Test CRC 33D4C04D
     Copy CRC 33D4C04D
     Accurately ripped (confidence 1)  [007A5A0A]  (AR v2)
     Copy OK
Track  7
     Filename H:\gym1974 (torrentfilm.net)\Helloween\1988 - Keeper Of The Seven Keys Part II [1994, VICP-5457]\07. March Of Time.wav
     Pre-gap length  0:00:00.49
     Peak level 98.0 %
     Extraction speed 3.0 X
     Track quality 100.0 %
     Test CRC 14A9B1A6
     Copy CRC 14A9B1A6
     Accurately ripped (confidence 1)  [FC7E053D]  (AR v2)
     Copy OK
Track  8
     Filename H:\gym1974 (torrentfilm.net)\Helloween\1988 - Keeper Of The Seven Keys Part II [1994, VICP-5457]\08. I Want Out.wav
     Peak level 98.0 %
     Extraction speed 3.1 X
     Track quality 100.0 %
     Test CRC DC7EC0E9
     Copy CRC DC7EC0E9
     Accurately ripped (confidence 1)  [2A55774D]  (AR v2)
     Copy OK
Track  9
     Filename H:\gym1974 (torrentfilm.net)\Helloween\1988 - Keeper Of The Seven Keys Part II [1994, VICP-5457]\09. Keeper Of The Seven Keys.wav
     Pre-gap length  0:00:01.34
     Peak level 98.0 %
     Extraction speed 3.7 X
     Track quality 100.0 %
     Test CRC 0F840C75
     Copy CRC 0F840C75
     Accurately ripped (confidence 1)  [33CDCC0C]  (AR v2)
     Copy OK
All tracks accurately ripped
No errors occurred
End of status report

Индексная карта (non-compilant .cue)

Part I

REM GENRE "Power metal"
REM DATE 1987
REM DISCID 6508B508
REM COMMENT "ExactAudioCopy v1.0b3"
PERFORMER "Helloween"
TITLE "Keeper Of The Seven Keys Part I [1994, VICP-5456]"
FILE "01. Initiation.wav" WAVE
  TRACK 01 AUDIO
    TITLE "Initiation"
    PERFORMER "Helloween"
    PREGAP 00:00:37
    INDEX 01 00:00:00
FILE "02. I'm Alive.wav" WAVE
  TRACK 02 AUDIO
    TITLE "I'm Alive"
    PERFORMER "Helloween"
    INDEX 01 00:00:00
FILE "03. A Little Time.wav" WAVE
  TRACK 03 AUDIO
    TITLE "A Little Time"
    PERFORMER "Helloween"
    INDEX 01 00:00:00
FILE "04. Twilight Of The Gods.wav" WAVE
  TRACK 04 AUDIO
    TITLE "Twilight Of The Gods"
    PERFORMER "Helloween"
    INDEX 01 00:00:00
FILE "05. A Tale That Wasn't Right.wav" WAVE
  TRACK 05 AUDIO
    TITLE "A Tale That Wasn't Right"
    PERFORMER "Helloween"
    INDEX 01 00:00:00
  TRACK 06 AUDIO
    TITLE "Future World"
    PERFORMER "Helloween"
    INDEX 00 04:43:19
FILE "06. Future World.wav" WAVE
    INDEX 01 00:00:00
FILE "07. Halloween.wav" WAVE
  TRACK 07 AUDIO
    TITLE "Halloween"
    PERFORMER "Helloween"
    INDEX 01 00:00:00
FILE "08. Follow The Sign.wav" WAVE
  TRACK 08 AUDIO
    TITLE "Follow The Sign"
    PERFORMER "Helloween"
    INDEX 01 00:00:00

Part II

REM GENRE "Power metal"
REM DATE 1988
REM DISCID 780BA809
REM COMMENT "ExactAudioCopy v1.0b3"
PERFORMER "Helloween"
TITLE "Keeper Of The Seven Keys Part II [1994, VICP-5457]"
FILE "01. Invitation.wav" WAVE
  TRACK 01 AUDIO
    TITLE "Invitation"
    PERFORMER "Helloween"
    PREGAP 00:00:37
    INDEX 01 00:00:00
FILE "02. Eagle Fly Free.wav" WAVE
  TRACK 02 AUDIO
    TITLE "Eagle Fly Free"
    PERFORMER "Helloween"
    INDEX 01 00:00:00
  TRACK 03 AUDIO
    TITLE "You Always Walk Alone"
    PERFORMER "Helloween"
    INDEX 00 05:07:63
FILE "03. You Always Walk Alone.wav" WAVE
    INDEX 01 00:00:00
  TRACK 04 AUDIO
    TITLE "Rise And Fall"
    PERFORMER "Helloween"
    INDEX 00 05:09:41
FILE "04. Rise And Fall.wav" WAVE
    INDEX 01 00:00:00
  TRACK 05 AUDIO
    TITLE "Dr. Stein"
    PERFORMER "Helloween"
    INDEX 00 04:22:26
FILE "05. Dr. Stein.wav" WAVE
    INDEX 01 00:00:00
  TRACK 06 AUDIO
    TITLE "We Got The Right"
    PERFORMER "Helloween"
    INDEX 00 05:03:46
FILE "06. We Got The Right.wav" WAVE
    INDEX 01 00:00:00
  TRACK 07 AUDIO
    TITLE "March Of Time"
    PERFORMER "Helloween"
    INDEX 00 05:07:66
FILE "07. March Of Time.wav" WAVE
    INDEX 01 00:00:00
FILE "08. I Want Out.wav" WAVE
  TRACK 08 AUDIO
    TITLE "I Want Out"
    PERFORMER "Helloween"
    INDEX 01 00:00:00
  TRACK 09 AUDIO
    TITLE "Keeper Of The Seven Keys"
    PERFORMER "Helloween"
    INDEX 00 04:39:69
FILE "09. Keeper Of The Seven Keys.wav" WAVE
    INDEX 01 00:00:00

Лог Audiochecker

Part I

AUDIOCHECKER v2.0 beta (build 457) - by Dester - opdester@freemail.hu
~~~~~~~~~~~~~~~~~~~~~~~~~~~~~~~~~~
-=== DO NOT EDIT THIS FILE! ===-
Path: ...\1987 - Keeper Of The Seven Keys Part I [1994, VICP-5456, FLAC]
01 -=- 01. Initiation.flac -=- CDDA (100%)
02 -=- 02. I'm Alive.flac -=- CDDA (100%)
03 -=- 03. A Little Time.flac -=- CDDA (100%)
04 -=- 04. Twilight Of The Gods.flac -=- CDDA (100%)
05 -=- 05. A Tale That Wasn't Right.flac -=- CDDA (100%)
06 -=- 06. Future World.flac -=- CDDA (100%)
07 -=- 07. Halloween.flac -=- CDDA (100%)
08 -=- 08. Follow The Sign.flac -=- CDDA (100%)
Summary 100,00% CDDA
60297604

Part II

AUDIOCHECKER v2.0 beta (build 457) - by Dester - opdester@freemail.hu
~~~~~~~~~~~~~~~~~~~~~~~~~~~~~~~~~~
-=== DO NOT EDIT THIS FILE! ===-
Path: ...\1988 - Keeper Of The Seven Keys Part II [1994, VICP-5457, FLAC]
01 -=- 01. Invitation.flac -=- CDDA (100%)
02 -=- 02. Eagle Fly Free.flac -=- CDDA (100%)
03 -=- 03. You Always Walk Alone.flac -=- CDDA (99%)
04 -=- 04. Rise And Fall.flac -=- CDDA (99%)
05 -=- 05. Dr. Stein.flac -=- CDDA (100%)
06 -=- 06. We Got The Right.flac -=- CDDA (100%)
07 -=- 07. March Of Time.flac -=- CDDA (100%)
08 -=- 08. I Want Out.flac -=- CDDA (100%)
09 -=- 09. Keeper Of The Seven Keys.flac -=- CDDA (99%)
Summary 99,67% CDDA
51032388
--Не забываем говорить
[Профиль] [ЛС]
Показать сообщения:    

Текущее время: Сегодня 08:50

Часовой пояс: GMT



Вы не можете начинать темы
Вы не можете отвечать на сообщения
Вы не можете редактировать свои сообщения
Вы не можете удалять свои сообщения
Вы не можете голосовать в опросах
Вы не можете прикреплять файлы к сообщениям
Вы не можете скачивать файлы