(Hard Rock)Helix - Bastard Of The Blues (2014) [FLAC(image+cue), Lossless]

 
Автор Сообщение

sergej644 ®

Пол:

Стаж: 4 года 11 месяцев

Сообщений: 6043

Откуда: Soviet Union



Награды: Нет

Торрент-статистика

Создавать темы 13-Окт-2014 18:25

[Цитировать]

-Helix - Bastard Of The Blues (2014)-Год: 2014
Жанр: Hard Rock
Продолжительность: 00:44:23
Лейбл: Perris Records
№ по каталогу: PER-4912
Страна: Canada
Кодек: Flac
Тип рипа: image+.cue
Битрейт: Lossless
Источник: RD-Треклист:
01. Bastard Of The Blues 05:51
02. Even Jesus (Wasn't Loved In His Hometown) 03:47
03. Winning Is The Best Revenge 04:05
04. Screaming At The Moon 03:53
05. Metal At Midnight 03:08
06. Hellbound For A Heartbreak 03:35
07. When All The Love Is Gone 05:00
08. Axe To Grind 03:16
09. Skin In The Game 04:52
10. The Bitch Is A Bullet 03:12
11. Sticks & Stones 03:39-

Отчёт ЕАС:

Exact Audio Copy V1.0 beta 3 from 29. August 2011
EAC extraction logfile from 2. August 2014, 0:10
Helix / Bastard Of the Blues (PER-4912)
Used drive  : PLEXTOR DVDR   PX-860A   Adapter: 4  ID: 0
Read mode               : Secure
Utilize accurate stream : Yes
Defeat audio cache      : Yes
Make use of C2 pointers : No
Read offset correction                      : 96
Overread into Lead-In and Lead-Out          : No
Fill up missing offset samples with silence : Yes
Delete leading and trailing silent blocks   : No
Null samples used in CRC calculations       : Yes
Used interface                              : Installed external ASPI interface
Used output format              : User Defined Encoder
Selected bitrate                : 128 kBit/s
Quality                         : High
Add ID3 tag                     : Yes
Command line compressor         : G:\Program Files (x86)\Exact Audio Copy\Flac\flac.exe
Additional command line options : -V -8 -T "Date=%year%" -T "Genre=%genre%" %source%
TOC of the extracted CD
     Track |   Start  |  Length  | Start sector | End sector
    ---------------------------------------------------------
        1  |  0:00.00 |  5:51.55 |         0    |    26379
        2  |  5:51.55 |  3:47.40 |     26380    |    43444
        3  |  9:39.20 |  4:04.71 |     43445    |    61815
        4  | 13:44.16 |  3:53.22 |     61816    |    79312
        5  | 17:37.38 |  3:08.22 |     79313    |    93434
        6  | 20:45.60 |  3:35.44 |     93435    |   109603
        7  | 24:21.29 |  5:00.02 |    109604    |   132105
        8  | 29:21.31 |  3:16.13 |    132106    |   146818
        9  | 32:37.44 |  4:52.09 |    146819    |   168727
       10  | 37:29.53 |  3:12.59 |    168728    |   183186
       11  | 40:42.37 |  3:39.38 |    183187    |   199649
Range status and errors
Selected range
     Filename D:\MUSIC\Helix - Bastard Of the Blues (PER-4912).wav
     Peak level 98.8 %
     Extraction speed 7.2 X
     Range quality 99.9 %
     Test CRC 3F7CCD71
     Copy CRC 3F7CCD71
     Copy OK
No errors occurred
AccurateRip summary
Track  1  not present in database
Track  2  not present in database
Track  3  not present in database
Track  4  not present in database
Track  5  not present in database
Track  6  not present in database
Track  7  not present in database
Track  8  not present in database
Track  9  not present in database
Track 10  not present in database
Track 11  not present in database
None of the tracks are present in the AccurateRip database
End of status report
==== Log checksum 2604CDB68D4A29F49B74113B12B45BE15BEE873ADDABF31DBDE150A8802A33DF ====

Отчёт auCDtect Task manager:

-----------------------
DON'T MODIFY THIS FILE
-----------------------
PERFORMER: auCDtect Task Manager, ver. 1.6.0 RC1 build 1.6.0.1
Copyright (c) 2008-2010 y-soft. All rights reserved
http://y-soft.org
ANALYZER: auCDtect: CD records authenticity detector, version 0.8.2
Copyright (c) 2004 Oleg Berngardt. All rights reserved.
Copyright (c) 2004 Alexander Djourik. All rights reserved.
FILE: Helix - Bastard Of the Blues (PER-4912).flac
  Size: 327949382 Hash: 3935C6A516A278CD7ED073F504111EE5 Accuracy: -m0
  Conclusion: CDDA 100%
  Signature: 32A9387DB81B517D56B9F70F7C640CA2972A4F05
--
[Профиль] [ЛС]
Показать сообщения:    

Текущее время: Сегодня 08:12

Часовой пояс: GMT



Вы не можете начинать темы
Вы не можете отвечать на сообщения
Вы не можете редактировать свои сообщения
Вы не можете удалять свои сообщения
Вы не можете голосовать в опросах
Вы не можете прикреплять файлы к сообщениям
Вы не можете скачивать файлы