(Heavy / Power Metal) The Storyteller - Sacred Fire - 2015 [FLAC, image+.cue, lossless]

 
Автор Сообщение

sergej644 ®

Пол:

Стаж: 4 года 11 месяцев

Сообщений: 6038

Откуда: Soviet Union



Награды: Нет

Торрент-статистика

Создавать темы 17-Май-2015 15:30

[Цитировать]

-The Storyteller / Sacred Fire-- Год издания: 2015
Страна: Sweden
Жанр: Heavy / Power Metal
Продолжительность: 00:50:38-Лейбл издания: Black Lodge Records
Тип альбома: album
Страна-выпуска диска: Sweden
Номер по каталогу: BLOD096CD
Формат: FLAC
Битрейт аудио: lossless
Тип рипа: image+.cue
Наличие сканов в содержимом раздачи: да
-

Трэклист

01. As I Die (04:16)
02. One Last Stand (04:05)
03. Sacred Fire (04:27)
04. Ferryman (03:30)
05. Serpent Eyes (04:11)
06. Sons Of The North (05:44)
07. In Search For Treasures, Stones And Gold (04:03)
08. Coming Home (04:16)
09. The Army Of Souther Fell (04:00)
10. Curse Of The Seven Seas (03:56)
11. Let Your Spirit Fly (04:07)
12. God Of War (04:09)
-

Лог создания рипа

Exact Audio Copy V1.0 beta 3 from 29. August 2011
EAC extraction logfile from 11. April 2015, 15:10
The Storyteller / Sacred Fire
Used drive  : ATAPI   DVD A  DH16ABSH   Adapter: 0  ID: 1
Read mode               : Secure
Utilize accurate stream : Yes
Defeat audio cache      : Yes
Make use of C2 pointers : No
Read offset correction                      : 6
Overread into Lead-In and Lead-Out          : No
Fill up missing offset samples with silence : Yes
Delete leading and trailing silent blocks   : No
Null samples used in CRC calculations       : Yes
Used interface                              : Installed external ASPI interface
Used output format : Internal WAV Routines
Sample format      : 44.100 Hz; 16 Bit; Stereo
TOC of the extracted CD
     Track |   Start  |  Length  | Start sector | End sector
    ---------------------------------------------------------
        1  |  0:00.00 |  4:15.57 |         0    |    19181
        2  |  4:15.57 |  4:04.69 |     19182    |    37550
        3  |  8:20.51 |  4:26.65 |     37551    |    57565
        4  | 12:47.41 |  3:29.03 |     57566    |    73243
        5  | 16:16.44 |  4:10.12 |     73244    |    92005
        6  | 20:26.56 |  5:43.46 |     92006    |   117776
        7  | 26:10.27 |  4:02.05 |    117777    |   135931
        8  | 30:12.32 |  4:15.16 |    135932    |   155072
        9  | 34:27.48 |  3:59.66 |    155073    |   173063
       10  | 38:27.39 |  3:55.06 |    173064    |   190694
       11  | 42:22.45 |  4:06.07 |    190695    |   209151
       12  | 46:28.52 |  4:08.44 |    209152    |   227795
Range status and errors
Selected range
     Filename D:\FreiWild\The Storyteller - Sacred Fire.wav
     Peak level 98.8 %
     Extraction speed 3.0 X
     Range quality 100.0 %
     Test CRC 70DFA02D
     Copy CRC 70DFA02D
     Copy OK
No errors occurred
AccurateRip summary
Track  1  accurately ripped (confidence 2)  [C87AA652]  (AR v2)
Track  2  accurately ripped (confidence 2)  [9C4512CF]  (AR v2)
Track  3  accurately ripped (confidence 2)  [D29B32F5]  (AR v2)
Track  4  accurately ripped (confidence 2)  [E79C7267]  (AR v2)
Track  5  accurately ripped (confidence 2)  [E655F67E]  (AR v2)
Track  6  accurately ripped (confidence 2)  [092A7BBB]  (AR v2)
Track  7  accurately ripped (confidence 2)  [9E414EF5]  (AR v2)
Track  8  accurately ripped (confidence 2)  [303596C4]  (AR v2)
Track  9  accurately ripped (confidence 2)  [5CA673BF]  (AR v2)
Track 10  accurately ripped (confidence 2)  [5B3DE845]  (AR v2)
Track 11  accurately ripped (confidence 2)  [8385DB87]  (AR v2)
Track 12  accurately ripped (confidence 2)  [64A8CC9C]  (AR v2)
All tracks accurately ripped
End of status report
---- CUETools DB Plugin V2.1.3
[CTDB TOCID: 8SfhJkwfy2e3scyqutoFagnF1yE-] found, Submit result: 8SfhJkwfy2e3scyqutoFagnF1yE- has been confirmed
[6f9fb0ce] (3/3) Accurately ripped

Индексная карта (non-compilant .cue)

REM GENRE "Heavy Power Metal"
REM DATE 2015
REM DISCID AF0BDD0C
REM COMMENT "ExactAudioCopy v1.0b3"
PERFORMER "The Storyteller"
TITLE "Sacred Fire"
FILE "The Storyteller - Sacred Fire.flac" WAVE
  TRACK 01 AUDIO
    TITLE "As I Die"
    PERFORMER "The Storyteller"
    INDEX 01 00:00:00
  TRACK 02 AUDIO
    TITLE "One Last Stand "
    PERFORMER "The Storyteller"
    INDEX 00 04:14:00
    INDEX 01 04:15:57
  TRACK 03 AUDIO
    TITLE "Sacred Fire"
    PERFORMER "The Storyteller"
    INDEX 00 08:18:69
    INDEX 01 08:20:51
  TRACK 04 AUDIO
    TITLE "Ferryman "
    PERFORMER "The Storyteller"
    INDEX 00 12:45:59
    INDEX 01 12:47:41
  TRACK 05 AUDIO
    TITLE "Serpent Eyes "
    PERFORMER "The Storyteller"
    INDEX 00 16:14:62
    INDEX 01 16:16:44
  TRACK 06 AUDIO
    TITLE "Sons Of The North"
    PERFORMER "The Storyteller"
    INDEX 00 20:24:74
    INDEX 01 20:26:56
  TRACK 07 AUDIO
    TITLE "In Search For Treasures, Stones And Gold "
    PERFORMER "The Storyteller"
    INDEX 00 26:08:45
    INDEX 01 26:10:27
  TRACK 08 AUDIO
    TITLE "Coming Home"
    PERFORMER "The Storyteller"
    INDEX 00 30:10:50
    INDEX 01 30:12:32
  TRACK 09 AUDIO
    TITLE "The Army Of Souther Fell"
    PERFORMER "The Storyteller"
    INDEX 00 34:25:66
    INDEX 01 34:27:48
  TRACK 10 AUDIO
    TITLE "Curse Of The Seven Seas "
    PERFORMER "The Storyteller"
    INDEX 00 38:25:57
    INDEX 01 38:27:39
  TRACK 11 AUDIO
    TITLE "Let Your Spirit Fly "
    PERFORMER "The Storyteller"
    INDEX 00 42:20:63
    INDEX 01 42:22:45
  TRACK 12 AUDIO
    TITLE "God Of War"
    PERFORMER "The Storyteller"
    INDEX 00 46:26:70
    INDEX 01 46:28:52

Лог Audiochecker

AUDIOCHECKER v2.0 beta (build 457) - by Dester - opdester@freemail.hu
~~~~~~~~~~~~~~~~~~~~~~~~~~~~~~~~~~
Started at: воскресенье, 17. 05. 2015. - 17:46.39
1 file found
1 -===- D:\Torrent files\The Storyteller - 2015 - Sacred Fire\The Storyteller - Sacred Fire.flac
  Extracted successfully
  Conclusion: this track is CDDA with probability 100%
  Tempfile successfully deleted.
Finished at: воскресенье, 17. 05. 2015. - 17:49.52 (operation time: 0:03.12)
--Не забываем говорить
[Профиль] [ЛС]
Кто просматривает тему:

Показать сообщения:    

Текущее время: Сегодня 06:27

Часовой пояс: GMT



Вы не можете начинать темы
Вы не можете отвечать на сообщения
Вы не можете редактировать свои сообщения
Вы не можете удалять свои сообщения
Вы не можете голосовать в опросах
Вы не можете прикреплять файлы к сообщениям
Вы не можете скачивать файлы