(Heavy/Power Metal) Civil War - Gods And Generals (Limited Edition) - 2015 [FLAC, image+.cue, lossless]

 
Автор Сообщение

sergej644 ®

Пол:

Стаж: 4 года 11 месяцев

Сообщений: 6046

Откуда: Soviet Union



Награды: Нет

Торрент-статистика

Создавать темы 17-Май-2015 06:15

[Цитировать]

-Civil War / Gods And Generals (Limited Edition)-- Год издания: 2015
Страна: Sweden
Жанр: Heavy/Power Metal
Продолжительность: 00:55:57-Лейбл издания: Napalm Records GmbH
Тип альбома: album
Страна-выпуска диска: Germany
Номер по каталогу: NPR 564 LTD
Формат: FLAC
Битрейт аудио: lossless
Тип рипа: image+.cue
Наличие сканов в содержимом раздачи: да
-

Трэклист

01. War Of The World (05:14)
02. Bay Of Pigs (05:35)
03. Braveheart (03:24)
04. The Mad Piper (04:59)
05. USS Monitor (03:42)
06. Tears From The North (04:19)
07. Admiral Over The Oceans (04:50)
08. Back To Iwo Jima (05:13)
09. Schindler's Ark (05:32)
10. Gods And Generals (05:22)
11. Knights Of Dalecarlia (Bonus Track) (04:30)
12. Colours Of My Shield (Bonus Track) (03:22)
-

Лог создания рипа

Exact Audio Copy V1.0 beta 3 from 29. August 2011
EAC extraction logfile from 8. May 2015, 15:44
Civil War / Gods And Generals
Used drive  : ATAPI   iHAS122   W   Adapter: 2  ID: 0
Read mode               : Secure
Utilize accurate stream : Yes
Defeat audio cache      : Yes
Make use of C2 pointers : No
Read offset correction                      : 48
Overread into Lead-In and Lead-Out          : No
Fill up missing offset samples with silence : Yes
Delete leading and trailing silent blocks   : No
Null samples used in CRC calculations       : Yes
Used interface                              : Installed external ASPI interface
Used output format              : User Defined Encoder
Selected bitrate                : 1024 kBit/s
Quality                         : High
Add ID3 tag                     : No
Command line compressor         : C:\Program Files\FLAC\flac.exe
Additional command line options : -V -8 -T "Date=%year%" -T "Genre=%genre%" -T"COMMENT=Ripped by  Ilijan" -8 -V %source%
TOC of the extracted CD
     Track |   Start  |  Length  | Start sector | End sector
    ---------------------------------------------------------
        1  |  0:00.00 |  5:13.34 |         0    |    23508
        2  |  5:13.34 |  5:34.15 |     23509    |    48573
        3  | 10:47.49 |  3:23.37 |     48574    |    63835
        4  | 14:11.11 |  4:58.27 |     63836    |    86212
        5  | 19:09.38 |  3:41.42 |     86213    |   102829
        6  | 22:51.05 |  4:18.71 |    102830    |   122250
        7  | 27:10.01 |  4:49.41 |    122251    |   143966
        8  | 31:59.42 |  5:12.47 |    143967    |   167413
        9  | 37:12.14 |  5:31.45 |    167414    |   192283
       10  | 42:43.59 |  5:21.14 |    192284    |   216372
       11  | 48:04.73 |  4:29.39 |    216373    |   236586
       12  | 52:34.37 |  3:21.41 |    236587    |   251702
Range status and errors
Selected range
     Filename D:\ИЛИЯН\Civil War - Gods And Generals.wav
     Peak level 100.0 %
     Extraction speed 4.0 X
     Range quality 100.0 %
     Test CRC BBF1605B
     Copy CRC BBF1605B
     Copy OK
No errors occurred
AccurateRip summary
Track  1  not present in database
Track  2  not present in database
Track  3  not present in database
Track  4  not present in database
Track  5  not present in database
Track  6  not present in database
Track  7  not present in database
Track  8  not present in database
Track  9  not present in database
Track 10  not present in database
Track 11  not present in database
Track 12  not present in database
None of the tracks are present in the AccurateRip database
End of status report
---- CUETools DB Plugin V2.1.3
[CTDB TOCID: 7dT.k3FZLduxJwlVsAgg9vFj4ek-] disk not present in database, Submit result: 7dT.k3FZLduxJwlVsAgg9vFj4ek- has been uploaded

Индексная карта (non-compilant .cue)

REM GENRE "Power Metal"
REM DATE 2015
REM DISCID A10D1C0C
REM COMMENT "ExactAudioCopy v1.0b3"
PERFORMER "Civil War"
TITLE "Gods And Generals"
FILE "Civil War - Gods And Generals.flac" WAVE
  TRACK 01 AUDIO
    TITLE "War Of The World"
    PERFORMER "Civil War"
    INDEX 01 00:00:00
  TRACK 02 AUDIO
    TITLE "Bay Of Pigs"
    PERFORMER "Civil War"
    INDEX 01 05:13:34
  TRACK 03 AUDIO
    TITLE "Braveheart"
    PERFORMER "Civil War"
    INDEX 01 10:47:49
  TRACK 04 AUDIO
    TITLE "The Mad Piper"
    PERFORMER "Civil War"
    INDEX 01 14:11:11
  TRACK 05 AUDIO
    TITLE "USS Monitor"
    PERFORMER "Civil War"
    INDEX 01 19:09:38
  TRACK 06 AUDIO
    TITLE "Tears From The North"
    PERFORMER "Civil War"
    INDEX 01 22:51:05
  TRACK 07 AUDIO
    TITLE "Admiral Over The Oceans"
    PERFORMER "Civil War"
    INDEX 01 27:10:01
  TRACK 08 AUDIO
    TITLE "Back To Iwo Jima"
    PERFORMER "Civil War"
    INDEX 01 31:59:42
  TRACK 09 AUDIO
    TITLE "Schindler's Ark"
    PERFORMER "Civil War"
    INDEX 01 37:12:14
  TRACK 10 AUDIO
    TITLE "Gods And Generals"
    PERFORMER "Civil War"
    INDEX 01 42:43:59
  TRACK 11 AUDIO
    TITLE "Knights Of Dalecarlia (Bonus Track)"
    PERFORMER "Civil War"
    INDEX 00 48:04:31
    INDEX 01 48:04:73
  TRACK 12 AUDIO
    TITLE "Colours Of My Shield (Bonus Track)"
    PERFORMER "Civil War"
    INDEX 00 52:33:39
    INDEX 01 52:34:37

Лог Audiochecker

AUDIOCHECKER v2.0 beta (build 457) - by Dester - opdester@freemail.hu
~~~~~~~~~~~~~~~~~~~~~~~~~~~~~~~~~~
Started at: воскресенье, 17. 05. 2015. - 8:40.15
1 file found
1 -===- D:\Torrent files\Civil War 2015- Gods And Generals (Limited Edition) (EAC-FLAC)\Civil War - Gods And Generals.flac
  Extracted successfully
  Conclusion: this track is CDDA with probability 100%
  Tempfile successfully deleted.
Finished at: воскресенье, 17. 05. 2015. - 8:43.01 (operation time: 0:02.45)
--Не забываем говорить
[Профиль] [ЛС]
Кто просматривает тему:

Показать сообщения:    

Текущее время: Сегодня 20:47

Часовой пояс: GMT



Вы не можете начинать темы
Вы не можете отвечать на сообщения
Вы не можете редактировать свои сообщения
Вы не можете удалять свои сообщения
Вы не можете голосовать в опросах
Вы не можете прикреплять файлы к сообщениям
Вы не можете скачивать файлы