(Heavy / Hard Rock) Whitesnake - Little Box 'O' Snakes. The Sunburst Years 1978-1982 (BoxSet, 8CD) - 2013, FLAC (image + .cue), lossless

 
Автор Сообщение

sergej644 ®

Пол:

Стаж: 4 года 11 месяцев

Сообщений: 6041

Откуда: Soviet Union



Награды: Нет

Торрент-статистика

Создавать темы 16-Июн-2014 11:28

[Цитировать]

-Whitesnake - Little Box 'O' Snakes. The Sunburst Years 1978-1982 (BoxSet, 8CD)

Страна: UK
Жанр: Hard Rock,Heavy Metal
Год издания: 1978 -1982
Год выпуска: 2013
Издатель (лейбл): EMI Records Ltd., Sunbrust Records Ltd.
Номер по каталогу: SNAKEBOX2, 5099993483728
Формат: FLAC (Image + .cue)
Битрейт аудио: lossless
Продолжительность: 05:06:21
- -

Whitesnake - Little Box 'O' Snakes. The Sunburst Years 1978-1982 (BoxSet, 8CD) 2013

CD1 - 1978 - Whitesnake - Snakebite EP (00:16:21)

01. Bloody Mary(03:20)
02. Steal Away(04:17)
03. Ain't No Love in the Heart of the City(05:08)
04. Whitesnake - Come On(03:35)

лог создания рипа

Exact Audio Copy V1.0 beta 3 from 29. August 2011
EAC extraction logfile from 15. June 2013, 15:37
Whitesnake / Snakebite EP
Used drive  : ATAPI   iHAS124   B   Adapter: 2  ID: 0
Read mode               : Secure
Utilize accurate stream : Yes
Defeat audio cache      : Yes
Make use of C2 pointers : No
Read offset correction                      : 6
Overread into Lead-In and Lead-Out          : No
Fill up missing offset samples with silence : Yes
Delete leading and trailing silent blocks   : No
Null samples used in CRC calculations       : Yes
Used interface                              : Native Win32 interface for Win NT & 2000
Used output format              : User Defined Encoder
Selected bitrate                : 1024 kBit/s
Quality                         : High
Add ID3 tag                     : No
Command line compressor         : C:\Program Files (x86)\Exact Audio Copy\FLAC\FLAC.EXE
Additional command line options : -8 -V -T "ARTIST=%artist%" -T "TITLE=%title%" -T "ALBUM=%albumtitle%" -T "DATE=%year%" -T "TRACKNUMBER=%tracknr%" -T "GENRE=%genre%" -T "PERFORMER=%albuminterpret%" -T "COMPOSER=%composer%" %haslyrics%--tag-from-file=LYRICS="%lyricsfile%"%haslyrics% -T "ALBUMARTIST=%albumartist%" -T "DISCNUMBER=%cdnumber%" -T "TOTALDISCS=%totalcds%" -T "TOTALTRACKS=%numtracks%" -T "COMMENT=%comment%" %source% -o %dest%
TOC of the extracted CD
     Track |   Start  |  Length  | Start sector | End sector
    ---------------------------------------------------------
        1  |  0:00.00 |  3:20.27 |         0    |    15026
        2  |  3:20.27 |  4:17.25 |     15027    |    34326
        3  |  7:37.52 |  5:08.24 |     34327    |    57450
        4  | 12:46.01 |  3:35.09 |     57451    |    73584
Range status and errors
Selected range
     Filename G:\CD\Whitesnake - Snakebite EP.wav
     Peak level 99.9 %
     Extraction speed 4.3 X
     Range quality 100.0 %
     Test CRC 3A372DA6
     Copy CRC 3A372DA6
     Copy OK
No errors occurred
AccurateRip summary
Track  1  accurately ripped (confidence 1)  [EF5C5575]  (AR v2)
Track  2  accurately ripped (confidence 1)  [9C02132B]  (AR v2)
Track  3  accurately ripped (confidence 1)  [F6EAA5DE]  (AR v2)
Track  4  accurately ripped (confidence 1)  [2D022AD1]  (AR v2)
All tracks accurately ripped
End of status report

содержание индексной карты *cue

REM GENRE "Hard Rock"
REM DATE 1978
REM DISCID 2D03D504
REM COMMENT "ExactAudioCopy v1.0b3"
PERFORMER "Whitesnake"
TITLE "Snakebite EP"
FILE "Whitesnake - Snakebite EP.flac" WAVE
  TRACK 01 AUDIO
    TITLE "Bloody Mary"
    PERFORMER "Whitesnake"
    INDEX 01 00:00:00
  TRACK 02 AUDIO
    TITLE "Steal Away"
    PERFORMER "Whitesnake"
    INDEX 00 03:20:05
    INDEX 01 03:20:27
  TRACK 03 AUDIO
    TITLE "Ain't No Love in the Heart of the City"
    PERFORMER "Whitesnake"
    INDEX 00 07:36:39
    INDEX 01 07:37:52
  TRACK 04 AUDIO
    TITLE "Come On"
    PERFORMER "Whitesnake"
    INDEX 00 12:44:25
    INDEX 01 12:46:01

CD2 - 1978 - Whitesnake - Trouble (00:38:16)

01. Take Me With You(04:45)
02. Love To Keep You Warm(03:44)
03. Lie Down (A Modern Love Song)(03:14)
04. Day Tripper(03:47)
05. Night Hawk (Vampire Blues)(03:37)
06. The Time Is Right For Love(03:26)
07. Trouble(04:48)
08. Belgian Tom's Hat Trick(03:26)
09. Free Flight(04:06)
10. Don't Mess With Me(03:19)

лог создания рипа

Exact Audio Copy V1.0 beta 3 from 29. August 2011
EAC extraction logfile from 15. June 2013, 15:59
Whitesnake / Trouble
Used drive  : ATAPI   iHAS124   B   Adapter: 2  ID: 0
Read mode               : Secure
Utilize accurate stream : Yes
Defeat audio cache      : Yes
Make use of C2 pointers : No
Read offset correction                      : 6
Overread into Lead-In and Lead-Out          : No
Fill up missing offset samples with silence : Yes
Delete leading and trailing silent blocks   : No
Null samples used in CRC calculations       : Yes
Used interface                              : Native Win32 interface for Win NT & 2000
Used output format              : User Defined Encoder
Selected bitrate                : 1024 kBit/s
Quality                         : High
Add ID3 tag                     : No
Command line compressor         : C:\Program Files (x86)\Exact Audio Copy\FLAC\FLAC.EXE
Additional command line options : -8 -V -T "ARTIST=%artist%" -T "TITLE=%title%" -T "ALBUM=%albumtitle%" -T "DATE=%year%" -T "TRACKNUMBER=%tracknr%" -T "GENRE=%genre%" -T "PERFORMER=%albuminterpret%" -T "COMPOSER=%composer%" %haslyrics%--tag-from-file=LYRICS="%lyricsfile%"%haslyrics% -T "ALBUMARTIST=%albumartist%" -T "DISCNUMBER=%cdnumber%" -T "TOTALDISCS=%totalcds%" -T "TOTALTRACKS=%numtracks%" -T "COMMENT=%comment%" %source% -o %dest%
TOC of the extracted CD
     Track |   Start  |  Length  | Start sector | End sector
    ---------------------------------------------------------
        1  |  0:00.00 |  4:45.38 |         0    |    21412
        2  |  4:45.38 |  3:44.38 |     21413    |    38250
        3  |  8:30.01 |  3:14.19 |     38251    |    52819
        4  | 11:44.20 |  3:47.06 |     52820    |    69850
        5  | 15:31.26 |  3:37.63 |     69851    |    86188
        6  | 19:09.14 |  3:26.57 |     86189    |   101695
        7  | 22:35.71 |  4:48.24 |    101696    |   123319
        8  | 27:24.20 |  3:26.20 |    123320    |   138789
        9  | 30:50.40 |  4:06.66 |    138790    |   157305
       10  | 34:57.31 |  3:19.01 |    157306    |   172231
Range status and errors
Selected range
     Filename G:\CD\Whitesnake - Trouble.wav
     Peak level 99.4 %
     Extraction speed 5.0 X
     Range quality 99.9 %
     Test CRC 613F52AB
     Copy CRC 613F52AB
     Copy OK
No errors occurred
AccurateRip summary
Track  1  not present in database
Track  2  not present in database
Track  3  not present in database
Track  4  not present in database
Track  5  not present in database
Track  6  not present in database
Track  7  not present in database
Track  8  not present in database
Track  9  not present in database
Track 10  not present in database
None of the tracks are present in the AccurateRip database
End of status report

содержание индексной карты *cue

REM GENRE "Hard Rock"
REM DATE 1978
REM DISCID 8408F80A
REM COMMENT "ExactAudioCopy v1.0b3"
PERFORMER "Whitesnake"
TITLE "Trouble"
FILE "Whitesnake - Trouble.flac" WAVE
  TRACK 01 AUDIO
    TITLE "Take Me With You"
    PERFORMER "Whitesnake"
    INDEX 01 00:00:00
  TRACK 02 AUDIO
    TITLE "Love To Keep You Warm"
    PERFORMER "Whitesnake"
    INDEX 01 04:45:38
  TRACK 03 AUDIO
    TITLE "Lie Down (A Modern Love Song)"
    PERFORMER "Whitesnake"
    INDEX 00 08:29:17
    INDEX 01 08:30:01
  TRACK 04 AUDIO
    TITLE "Day Tripper"
    PERFORMER "Whitesnake"
    INDEX 00 11:43:55
    INDEX 01 11:44:20
  TRACK 05 AUDIO
    TITLE "Night Hawk (Vampire Blues)"
    PERFORMER "Whitesnake"
    INDEX 01 15:31:26
  TRACK 06 AUDIO
    TITLE "The Time Is Right For Love"
    PERFORMER "Whitesnake"
    INDEX 01 19:09:14
  TRACK 07 AUDIO
    TITLE "Trouble"
    PERFORMER "Whitesnake"
    INDEX 00 22:35:44
    INDEX 01 22:35:71
  TRACK 08 AUDIO
    TITLE "Belgian Tom's Hat Trick"
    PERFORMER "Whitesnake"
    INDEX 01 27:24:20
  TRACK 09 AUDIO
    TITLE "Free Flight"
    PERFORMER "Whitesnake"
    INDEX 01 30:50:40
  TRACK 10 AUDIO
    TITLE "Don't Mess With Me"
    PERFORMER "Whitesnake"
    INDEX 00 34:55:28
    INDEX 01 34:57:31

CD3 - 1978 - Whitesnake - Live At Hammersmith EP (00:36:08)

01. Come On(04:00)
02. Might Just Take Your Life [DEEP PURPLE-Cover](05:27)
03. Lie Down(04:09)
04. Ain't No Love In The Heart Of The City(06:46)
05. Trouble(04:50)
06. Mistreated [DEEP PURPLE-Cover](10:53)

лог создания рипа

Exact Audio Copy V1.0 beta 3 from 29. August 2011
EAC extraction logfile from 15. June 2013, 16:18
Whitesnake / Live At Hammersmith EP
Used drive  : ATAPI   iHAS124   B   Adapter: 2  ID: 0
Read mode               : Secure
Utilize accurate stream : Yes
Defeat audio cache      : Yes
Make use of C2 pointers : No
Read offset correction                      : 6
Overread into Lead-In and Lead-Out          : No
Fill up missing offset samples with silence : Yes
Delete leading and trailing silent blocks   : No
Null samples used in CRC calculations       : Yes
Used interface                              : Native Win32 interface for Win NT & 2000
Used output format              : User Defined Encoder
Selected bitrate                : 1024 kBit/s
Quality                         : High
Add ID3 tag                     : No
Command line compressor         : C:\Program Files (x86)\Exact Audio Copy\FLAC\FLAC.EXE
Additional command line options : -8 -V -T "ARTIST=%artist%" -T "TITLE=%title%" -T "ALBUM=%albumtitle%" -T "DATE=%year%" -T "TRACKNUMBER=%tracknr%" -T "GENRE=%genre%" -T "PERFORMER=%albuminterpret%" -T "COMPOSER=%composer%" %haslyrics%--tag-from-file=LYRICS="%lyricsfile%"%haslyrics% -T "ALBUMARTIST=%albumartist%" -T "DISCNUMBER=%cdnumber%" -T "TOTALDISCS=%totalcds%" -T "TOTALTRACKS=%numtracks%" -T "COMMENT=%comment%" %source% -o %dest%
TOC of the extracted CD
     Track |   Start  |  Length  | Start sector | End sector
    ---------------------------------------------------------
        1  |  0:00.00 |  4:00.17 |         0    |    18016
        2  |  4:00.17 |  5:27.70 |     18017    |    42611
        3  |  9:28.12 |  4:09.01 |     42612    |    61287
        4  | 13:37.13 |  6:46.58 |     61288    |    91795
        5  | 20:23.71 |  4:50.44 |     91796    |   113589
        6  | 25:14.40 | 10:53.59 |    113590    |   162623
Range status and errors
Selected range
     Filename G:\CD\Whitesnake - Live At Hammersmith EP.wav
     Peak level 98.9 %
     Extraction speed 5.0 X
     Range quality 99.9 %
     Test CRC 9F06BE58
     Copy CRC 9F06BE58
     Copy OK
No errors occurred
AccurateRip summary
Track  1  not present in database
Track  2  not present in database
Track  3  not present in database
Track  4  not present in database
Track  5  not present in database
Track  6  not present in database
None of the tracks are present in the AccurateRip database
End of status report

содержание индексной карты *cue

REM GENRE Hard Rock
REM DATE 1978
REM DISCID 3F087806
REM COMMENT ExactAudioCopy v1.0b3
PERFORMER "Whitesnake"
TITLE "Live At Hammersmith EP"
FILE "Whitesnake - Live At Hammersmith EP.flac" WAVE
  TRACK 01 AUDIO
    TITLE "Come On"
    PERFORMER "Whitesnake"
    INDEX 01 00:00:00
  TRACK 02 AUDIO
    TITLE "Might Just Take Your Life [DEEP PURPLE-Cover]"
    PERFORMER "Whitesnake"
    INDEX 01 04:00:17
  TRACK 03 AUDIO
    TITLE "Lie Down"
    PERFORMER "Whitesnake"
    INDEX 01 09:28:12
  TRACK 04 AUDIO
    TITLE "Ain't No Love In The Heart Of The City"
    PERFORMER "Whitesnake"
    INDEX 01 13:37:13
  TRACK 05 AUDIO
    TITLE "Trouble"
    PERFORMER "Whitesnake"
    INDEX 01 20:23:71
  TRACK 06 AUDIO
    TITLE "Mistreated [DEEP PURPLE-Cover]"
    PERFORMER "Whitesnake"
    INDEX 01 25:14:40

CD4 - 1979 - Whitesnake - Lovehunter (00:41:20)

01. Long Way From Home(04:57)
02. Walking In The Shadow Of The Blues(04:26)
03. Help Me Thro' The Day(04:40)
04. Medicine Man(04:00)
05. You 'N' Me(03:25)
06. Mean Business(03:49)
07. Love Hunter(05:38)
08. Outlaw(04:04)
09. Rock 'N' Roll Women(04:44)
10. We Wish You Well(01:34)

лог создания рипа

Exact Audio Copy V1.0 beta 3 from 29. August 2011
EAC extraction logfile from 15. June 2013, 16:43
Whitesnake / Lovehunter
Used drive  : ATAPI   iHAS124   B   Adapter: 2  ID: 0
Read mode               : Secure
Utilize accurate stream : Yes
Defeat audio cache      : Yes
Make use of C2 pointers : No
Read offset correction                      : 6
Overread into Lead-In and Lead-Out          : No
Fill up missing offset samples with silence : Yes
Delete leading and trailing silent blocks   : No
Null samples used in CRC calculations       : Yes
Used interface                              : Native Win32 interface for Win NT & 2000
Used output format              : User Defined Encoder
Selected bitrate                : 1024 kBit/s
Quality                         : High
Add ID3 tag                     : No
Command line compressor         : C:\Program Files (x86)\Exact Audio Copy\FLAC\FLAC.EXE
Additional command line options : -8 -V -T "ARTIST=%artist%" -T "TITLE=%title%" -T "ALBUM=%albumtitle%" -T "DATE=%year%" -T "TRACKNUMBER=%tracknr%" -T "GENRE=%genre%" -T "PERFORMER=%albuminterpret%" -T "COMPOSER=%composer%" %haslyrics%--tag-from-file=LYRICS="%lyricsfile%"%haslyrics% -T "ALBUMARTIST=%albumartist%" -T "DISCNUMBER=%cdnumber%" -T "TOTALDISCS=%totalcds%" -T "TOTALTRACKS=%numtracks%" -T "COMMENT=%comment%" %source% -o %dest%
TOC of the extracted CD
     Track |   Start  |  Length  | Start sector | End sector
    ---------------------------------------------------------
        1  |  0:00.00 |  4:57.43 |         0    |    22317
        2  |  4:57.43 |  4:26.17 |     22318    |    42284
        3  |  9:23.60 |  4:40.14 |     42285    |    63298
        4  | 14:03.74 |  4:00.17 |     63299    |    81315
        5  | 18:04.16 |  3:25.58 |     81316    |    96748
        6  | 21:29.74 |  3:49.12 |     96749    |   113935
        7  | 25:19.11 |  5:38.68 |    113936    |   139353
        8  | 30:58.04 |  4:04.07 |    139354    |   157660
        9  | 35:02.11 |  4:44.22 |    157661    |   178982
       10  | 39:46.33 |  1:34.05 |    178983    |   186037
Range status and errors
Selected range
     Filename G:\CD\Whitesnake - Lovehunter.wav
     Peak level 96.4 %
     Extraction speed 5.3 X
     Range quality 100.0 %
     Test CRC 143A4711
     Copy CRC 143A4711
     Copy OK
No errors occurred
AccurateRip summary
Track  1  not present in database
Track  2  not present in database
Track  3  not present in database
Track  4  not present in database
Track  5  not present in database
Track  6  not present in database
Track  7  not present in database
Track  8  not present in database
Track  9  not present in database
Track 10  not present in database
None of the tracks are present in the AccurateRip database
End of status report

содержание индексной карты *cue

REM GENRE "Hard Rock"
REM DATE 1979
REM DISCID 8709B00A
REM COMMENT "ExactAudioCopy v1.0b3"
PERFORMER "Whitesnake"
TITLE "Lovehunter"
FILE "Whitesnake - Lovehunter.flac" WAVE
  TRACK 01 AUDIO
    TITLE "Long Way From Home"
    PERFORMER "Whitesnake"
    INDEX 01 00:00:00
  TRACK 02 AUDIO
    TITLE "Walking In The Shadow Of The Blues"
    PERFORMER "Whitesnake"
    INDEX 00 04:55:34
    INDEX 01 04:57:43
  TRACK 03 AUDIO
    TITLE "Help Me Thro' The Day"
    PERFORMER "Whitesnake"
    INDEX 00 09:21:57
    INDEX 01 09:23:60
  TRACK 04 AUDIO
    TITLE "Medicine Man"
    PERFORMER "Whitesnake"
    INDEX 00 14:02:22
    INDEX 01 14:03:74
  TRACK 05 AUDIO
    TITLE "You 'N' Me"
    PERFORMER "Whitesnake"
    INDEX 00 18:01:70
    INDEX 01 18:04:16
  TRACK 06 AUDIO
    TITLE "Mean Business"
    PERFORMER "Whitesnake"
    INDEX 00 21:28:44
    INDEX 01 21:29:74
  TRACK 07 AUDIO
    TITLE "Love Hunter"
    PERFORMER "Whitesnake"
    INDEX 00 25:16:36
    INDEX 01 25:19:11
  TRACK 08 AUDIO
    TITLE "Outlaw"
    PERFORMER "Whitesnake"
    INDEX 00 30:55:37
    INDEX 01 30:58:04
  TRACK 09 AUDIO
    TITLE "Rock 'N' Roll Women"
    PERFORMER "Whitesnake"
    INDEX 00 34:59:53
    INDEX 01 35:02:11
  TRACK 10 AUDIO
    TITLE "We Wish You Well"
    PERFORMER "Whitesnake"
    INDEX 00 39:44:54
    INDEX 01 39:46:33

CD5 - 1980 - Whitesnake - Ready An' Willing (00:40:09)

01. Fool For Your Loving(04:17)
02. Sweet Talker(03:38)
03. Ready An' Willing(03:44)
04. Carry Your Load(04:07)
05. Blindman(05:10)
06. Ain't Gonna Cry No More(05:52)
07. Love Man(05:04)
08. Black And Blue(04:06)
09. She's A Woman(04:09)

лог создания рипа

Exact Audio Copy V1.0 beta 3 from 29. August 2011
EAC extraction logfile from 15. June 2013, 17:01
Whitesnake / Ready An' Willing
Used drive  : ATAPI   iHAS124   B   Adapter: 2  ID: 0
Read mode               : Secure
Utilize accurate stream : Yes
Defeat audio cache      : Yes
Make use of C2 pointers : No
Read offset correction                      : 6
Overread into Lead-In and Lead-Out          : No
Fill up missing offset samples with silence : Yes
Delete leading and trailing silent blocks   : No
Null samples used in CRC calculations       : Yes
Used interface                              : Native Win32 interface for Win NT & 2000
Used output format              : User Defined Encoder
Selected bitrate                : 1024 kBit/s
Quality                         : High
Add ID3 tag                     : No
Command line compressor         : C:\Program Files (x86)\Exact Audio Copy\FLAC\FLAC.EXE
Additional command line options : -8 -V -T "ARTIST=%artist%" -T "TITLE=%title%" -T "ALBUM=%albumtitle%" -T "DATE=%year%" -T "TRACKNUMBER=%tracknr%" -T "GENRE=%genre%" -T "PERFORMER=%albuminterpret%" -T "COMPOSER=%composer%" %haslyrics%--tag-from-file=LYRICS="%lyricsfile%"%haslyrics% -T "ALBUMARTIST=%albumartist%" -T "DISCNUMBER=%cdnumber%" -T "TOTALDISCS=%totalcds%" -T "TOTALTRACKS=%numtracks%" -T "COMMENT=%comment%" %source% -o %dest%
TOC of the extracted CD
     Track |   Start  |  Length  | Start sector | End sector
    ---------------------------------------------------------
        1  |  0:00.00 |  4:17.05 |         0    |    19279
        2  |  4:17.05 |  3:38.62 |     19280    |    35691
        3  |  7:55.67 |  3:44.17 |     35692    |    52508
        4  | 11:40.09 |  4:07.25 |     52509    |    71058
        5  | 15:47.34 |  5:10.05 |     71059    |    94313
        6  | 20:57.39 |  5:52.06 |     94314    |   120719
        7  | 26:49.45 |  5:04.33 |    120720    |   143552
        8  | 31:54.03 |  4:06.30 |    143553    |   162032
        9  | 36:00.33 |  4:09.00 |    162033    |   180707
Range status and errors
Selected range
     Filename G:\CD\Whitesnake - Ready An' Willing.wav
     Peak level 97.7 %
     Extraction speed 5.3 X
     Range quality 100.0 %
     Test CRC 4A051848
     Copy CRC 4A051848
     Copy OK
No errors occurred
AccurateRip summary
Track  1  not present in database
Track  2  not present in database
Track  3  not present in database
Track  4  not present in database
Track  5  not present in database
Track  6  not present in database
Track  7  not present in database
Track  8  not present in database
Track  9  not present in database
None of the tracks are present in the AccurateRip database
End of status report

содержание индексной карты *cue

REM GENRE "Hard Rock"
REM DATE 1980
REM DISCID 79096909
REM COMMENT "ExactAudioCopy v1.0b3"
PERFORMER "Whitesnake"
TITLE "Ready An' Willing"
FILE "Whitesnake - Ready An' Willing.flac" WAVE
  TRACK 01 AUDIO
    TITLE "Fool For Your Loving"
    PERFORMER "Whitesnake"
    INDEX 01 00:00:00
  TRACK 02 AUDIO
    TITLE "Sweet Talker"
    PERFORMER "Whitesnake"
    INDEX 00 04:15:35
    INDEX 01 04:17:05
  TRACK 03 AUDIO
    TITLE "Ready An' Willing"
    PERFORMER "Whitesnake"
    INDEX 00 07:53:70
    INDEX 01 07:55:67
  TRACK 04 AUDIO
    TITLE "Carry Your Load"
    PERFORMER "Whitesnake"
    INDEX 00 11:38:44
    INDEX 01 11:40:09
  TRACK 05 AUDIO
    TITLE "Blindman"
    PERFORMER "Whitesnake"
    INDEX 00 15:45:02
    INDEX 01 15:47:34
  TRACK 06 AUDIO
    TITLE "Ain't Gonna Cry No More"
    PERFORMER "Whitesnake"
    INDEX 00 20:54:60
    INDEX 01 20:57:39
  TRACK 07 AUDIO
    TITLE "Love Man"
    PERFORMER "Whitesnake"
    INDEX 00 26:47:63
    INDEX 01 26:49:45
  TRACK 08 AUDIO
    TITLE "Black And Blue"
    PERFORMER "Whitesnake"
    INDEX 00 31:52:55
    INDEX 01 31:54:03
  TRACK 09 AUDIO
    TITLE "She's A Woman"
    PERFORMER "Whitesnake"
    INDEX 00 35:58:06
    INDEX 01 36:00:33

CD6 - 1980 - Whitesnake - Live...In The Heart Of The City (00:54:10)

01. Come On(03:38)
02. Sweet Talker(04:15)
03. Walking In The Shadow Of The Blues(04:50)
04. Love Hunter(10:59)
05. Ain't No Love In The Heart Of The City(07:28)
06. Fool For You Loving(04:50)
07. Ain't Gonna Cry No More(06:30)
08. Ready An' Willing(04:46)
09. Take Me With You(06:51)

лог создания рипа

Exact Audio Copy V1.0 beta 3 from 29. August 2011
EAC extraction logfile from 15. June 2013, 17:20
Whitesnake / Live...In The Heart Of The City
Used drive  : ATAPI   iHAS124   B   Adapter: 2  ID: 0
Read mode               : Secure
Utilize accurate stream : Yes
Defeat audio cache      : Yes
Make use of C2 pointers : No
Read offset correction                      : 6
Overread into Lead-In and Lead-Out          : No
Fill up missing offset samples with silence : Yes
Delete leading and trailing silent blocks   : No
Null samples used in CRC calculations       : Yes
Used interface                              : Native Win32 interface for Win NT & 2000
Used output format              : User Defined Encoder
Selected bitrate                : 1024 kBit/s
Quality                         : High
Add ID3 tag                     : No
Command line compressor         : C:\Program Files (x86)\Exact Audio Copy\FLAC\FLAC.EXE
Additional command line options : -8 -V -T "ARTIST=%artist%" -T "TITLE=%title%" -T "ALBUM=%albumtitle%" -T "DATE=%year%" -T "TRACKNUMBER=%tracknr%" -T "GENRE=%genre%" -T "PERFORMER=%albuminterpret%" -T "COMPOSER=%composer%" %haslyrics%--tag-from-file=LYRICS="%lyricsfile%"%haslyrics% -T "ALBUMARTIST=%albumartist%" -T "DISCNUMBER=%cdnumber%" -T "TOTALDISCS=%totalcds%" -T "TOTALTRACKS=%numtracks%" -T "COMMENT=%comment%" %source% -o %dest%
TOC of the extracted CD
     Track |   Start  |  Length  | Start sector | End sector
    ---------------------------------------------------------
        1  |  0:00.00 |  3:38.20 |         0    |    16369
        2  |  3:38.20 |  4:15.07 |     16370    |    35501
        3  |  7:53.27 |  4:50.05 |     35502    |    57256
        4  | 12:43.32 | 10:59.52 |     57257    |   106733
        5  | 23:43.09 |  7:28.31 |    106734    |   140364
        6  | 31:11.40 |  4:50.52 |    140365    |   162166
        7  | 36:02.17 |  6:30.18 |    162167    |   191434
        8  | 42:32.35 |  4:46.61 |    191435    |   212945
        9  | 47:19.21 |  6:51.37 |    212946    |   243807
Range status and errors
Selected range
     Filename G:\CD\Whitesnake - Live...In The Heart Of The City.wav
     Peak level 98.8 %
     Extraction speed 5.6 X
     Range quality 100.0 %
     Test CRC 6F6E81EF
     Copy CRC 6F6E81EF
     Copy OK
No errors occurred
AccurateRip summary
Track  1  not present in database
Track  2  not present in database
Track  3  not present in database
Track  4  not present in database
Track  5  not present in database
Track  6  not present in database
Track  7  not present in database
Track  8  not present in database
Track  9  not present in database
None of the tracks are present in the AccurateRip database
End of status report

содержание индексной карты *cue

REM GENRE "Hard Rock"
REM DATE 1980
REM DISCID 730CB209
REM COMMENT "ExactAudioCopy v1.0b3"
PERFORMER "Whitesnake"
TITLE "Live...In The Heart Of The City"
FILE "Live...In The Heart Of The City.flac" WAVE
  TRACK 01 AUDIO
    TITLE "Come On"
    PERFORMER "Whitesnake"
    INDEX 01 00:00:00
  TRACK 02 AUDIO
    TITLE "Sweet Talker"
    PERFORMER "Whitesnake"
    INDEX 01 03:38:20
  TRACK 03 AUDIO
    TITLE "Walking In The Shadow Of The Blues"
    PERFORMER "Whitesnake"
    INDEX 01 07:53:27
  TRACK 04 AUDIO
    TITLE "Love Hunter"
    PERFORMER "Whitesnake"
    INDEX 01 12:43:32
  TRACK 05 AUDIO
    TITLE "Ain't No Love In The Heart Of The City"
    PERFORMER "Whitesnake"
    INDEX 01 23:43:09
  TRACK 06 AUDIO
    TITLE "Fool For You Loving"
    PERFORMER "Whitesnake"
    INDEX 00 31:11:11
    INDEX 01 31:11:40
  TRACK 07 AUDIO
    TITLE "Ain't Gonna Cry No More"
    PERFORMER "Whitesnake"
    INDEX 01 36:02:17
  TRACK 08 AUDIO
    TITLE "Ready An' Willing"
    PERFORMER "Whitesnake"
    INDEX 01 42:32:35
  TRACK 09 AUDIO
    TITLE "Take Me With You"
    PERFORMER "Whitesnake"
    INDEX 01 47:19:21

CD7 - 1981 - Whitesnake - Come An' Get It (00:40:36)

01. Come An' Get It(04:01)
02. Hot Stuff(03:22)
03. Don't Break My Heart Again(04:03)
04. Lonely Days, Lonely Nights(04:16)
05. Wine, Women An' Song(03:46)
06. Child Of Babylon(04:49)
07. Would I Lie To You(04:29)
08. Girl(03:55)
09. Hit An' Run(03:23)
10. Till The Day I Die(04:28)

лог создания рипа

Exact Audio Copy V1.0 beta 3 from 29. August 2011
EAC extraction logfile from 15. June 2013, 17:38
Whitesnake / Come An' Get It
Used drive  : ATAPI   iHAS124   B   Adapter: 2  ID: 0
Read mode               : Secure
Utilize accurate stream : Yes
Defeat audio cache      : Yes
Make use of C2 pointers : No
Read offset correction                      : 6
Overread into Lead-In and Lead-Out          : No
Fill up missing offset samples with silence : Yes
Delete leading and trailing silent blocks   : No
Null samples used in CRC calculations       : Yes
Used interface                              : Native Win32 interface for Win NT & 2000
Used output format              : User Defined Encoder
Selected bitrate                : 1024 kBit/s
Quality                         : High
Add ID3 tag                     : No
Command line compressor         : C:\Program Files (x86)\Exact Audio Copy\FLAC\FLAC.EXE
Additional command line options : -8 -V -T "ARTIST=%artist%" -T "TITLE=%title%" -T "ALBUM=%albumtitle%" -T "DATE=%year%" -T "TRACKNUMBER=%tracknr%" -T "GENRE=%genre%" -T "PERFORMER=%albuminterpret%" -T "COMPOSER=%composer%" %haslyrics%--tag-from-file=LYRICS="%lyricsfile%"%haslyrics% -T "ALBUMARTIST=%albumartist%" -T "DISCNUMBER=%cdnumber%" -T "TOTALDISCS=%totalcds%" -T "TOTALTRACKS=%numtracks%" -T "COMMENT=%comment%" %source% -o %dest%
TOC of the extracted CD
     Track |   Start  |  Length  | Start sector | End sector
    ---------------------------------------------------------
        1  |  0:00.00 |  4:01.01 |         0    |    18075
        2  |  4:01.01 |  3:22.51 |     18076    |    33276
        3  |  7:23.52 |  4:03.60 |     33277    |    51561
        4  | 11:27.37 |  4:16.25 |     51562    |    70786
        5  | 15:43.62 |  3:46.02 |     70787    |    87738
        6  | 19:29.64 |  4:49.01 |     87739    |   109414
        7  | 24:18.65 |  4:29.03 |    109415    |   129592
        8  | 28:47.68 |  3:55.45 |    129593    |   147262
        9  | 32:43.38 |  3:23.60 |    147263    |   162547
       10  | 36:07.23 |  4:28.65 |    162548    |   182712
Range status and errors
Selected range
     Filename G:\CD\Whitesnake - Come An' Get It.wav
     Peak level 98.5 %
     Extraction speed 5.2 X
     Range quality 100.0 %
     Test CRC 2B72235B
     Copy CRC 2B72235B
     Copy OK
No errors occurred
AccurateRip summary
Track  1  not present in database
Track  2  not present in database
Track  3  not present in database
Track  4  not present in database
Track  5  not present in database
Track  6  not present in database
Track  7  not present in database
Track  8  not present in database
Track  9  not present in database
Track 10  not present in database
None of the tracks are present in the AccurateRip database
End of status report

содержание индексной карты *cue

REM GENRE "Hard Rock"
REM DATE 1981
REM DISCID 9009840A
REM COMMENT "ExactAudioCopy v1.0b3"
PERFORMER "Whitesnake"
TITLE "Come An' Get It"
FILE "Whitesnake - Come An' Get It.flac" WAVE
  TRACK 01 AUDIO
    TITLE "Come An' Get It"
    PERFORMER "Whitesnake"
    INDEX 01 00:00:00
  TRACK 02 AUDIO
    TITLE "Hot Stuff"
    PERFORMER "Whitesnake"
    INDEX 00 04:00:27
    INDEX 01 04:01:01
  TRACK 03 AUDIO
    TITLE "Don't Break My Heart Again"
    PERFORMER "Whitesnake"
    INDEX 00 07:22:60
    INDEX 01 07:23:52
  TRACK 04 AUDIO
    TITLE "Lonely Days, Lonely Nights"
    PERFORMER "Whitesnake"
    INDEX 00 11:26:23
    INDEX 01 11:27:37
  TRACK 05 AUDIO
    TITLE "Wine, Women An' Song"
    PERFORMER "Whitesnake"
    INDEX 00 15:42:27
    INDEX 01 15:43:62
  TRACK 06 AUDIO
    TITLE "Child Of Babylon"
    PERFORMER "Whitesnake"
    INDEX 00 19:29:15
    INDEX 01 19:29:64
  TRACK 07 AUDIO
    TITLE "Would I Lie To You"
    PERFORMER "Whitesnake"
    INDEX 00 24:17:43
    INDEX 01 24:18:65
  TRACK 08 AUDIO
    TITLE "Girl"
    PERFORMER "Whitesnake"
    INDEX 00 28:47:09
    INDEX 01 28:47:68
  TRACK 09 AUDIO
    TITLE "Hit An' Run"
    PERFORMER "Whitesnake"
    INDEX 00 32:42:64
    INDEX 01 32:43:38
  TRACK 10 AUDIO
    TITLE "Till The Day I Die"
    PERFORMER "Whitesnake"
    INDEX 00 36:06:11
    INDEX 01 36:07:23

CD8 - 1982 - Whitesnake - Saints & Sinners (00:39:19)

01. Young Blood(03:29)
02. Rough An' Ready(02:52)
03. Bloody Luxury(03:23)
04. Victim Of Love(03:33)
05. Crying In The Rain(06:01)
06. Here I Go Again(05:08)
07. Love An' Affection(03:09)
08. Rock An' Roll Angels(04:07)
09. Dancing Girls(03:10)
10. Saints An' Sinners(04:24)

лог создания рипа

Exact Audio Copy V1.0 beta 3 from 29. August 2011
EAC extraction logfile from 15. June 2013, 17:55
Whitesnake / Saints & Sinners
Used drive  : ATAPI   iHAS124   B   Adapter: 2  ID: 0
Read mode               : Secure
Utilize accurate stream : Yes
Defeat audio cache      : Yes
Make use of C2 pointers : No
Read offset correction                      : 6
Overread into Lead-In and Lead-Out          : No
Fill up missing offset samples with silence : Yes
Delete leading and trailing silent blocks   : No
Null samples used in CRC calculations       : Yes
Used interface                              : Native Win32 interface for Win NT & 2000
Used output format              : User Defined Encoder
Selected bitrate                : 1024 kBit/s
Quality                         : High
Add ID3 tag                     : No
Command line compressor         : C:\Program Files (x86)\Exact Audio Copy\FLAC\FLAC.EXE
Additional command line options : -8 -V -T "ARTIST=%artist%" -T "TITLE=%title%" -T "ALBUM=%albumtitle%" -T "DATE=%year%" -T "TRACKNUMBER=%tracknr%" -T "GENRE=%genre%" -T "PERFORMER=%albuminterpret%" -T "COMPOSER=%composer%" %haslyrics%--tag-from-file=LYRICS="%lyricsfile%"%haslyrics% -T "ALBUMARTIST=%albumartist%" -T "DISCNUMBER=%cdnumber%" -T "TOTALDISCS=%totalcds%" -T "TOTALTRACKS=%numtracks%" -T "COMMENT=%comment%" %source% -o %dest%
TOC of the extracted CD
     Track |   Start  |  Length  | Start sector | End sector
    ---------------------------------------------------------
        1  |  0:00.00 |  3:29.29 |         0    |    15703
        2  |  3:29.29 |  2:52.25 |     15704    |    28628
        3  |  6:21.54 |  3:23.45 |     28629    |    43898
        4  |  9:45.24 |  3:33.03 |     43899    |    59876
        5  | 13:18.27 |  6:01.27 |     59877    |    86978
        6  | 19:19.54 |  5:08.18 |     86979    |   110096
        7  | 24:27.72 |  3:09.05 |    110097    |   124276
        8  | 27:37.02 |  4:07.03 |    124277    |   142804
        9  | 31:44.05 |  3:10.27 |    142805    |   157081
       10  | 34:54.32 |  4:24.52 |    157082    |   176933
Range status and errors
Selected range
     Filename G:\CD\Whitesnake - Saints & Sinners.wav
     Peak level 95.7 %
     Extraction speed 5.2 X
     Range quality 100.0 %
     Test CRC 50C500E9
     Copy CRC 50C500E9
     Copy OK
No errors occurred
AccurateRip summary
Track  1  accurately ripped (confidence 1)  [06ECABAC]  (AR v2)
Track  2  accurately ripped (confidence 1)  [2E164FB7]  (AR v2)
Track  3  accurately ripped (confidence 1)  [1181FE0B]  (AR v2)
Track  4  accurately ripped (confidence 1)  [06E282D5]  (AR v2)
Track  5  accurately ripped (confidence 1)  [A735B86C]  (AR v2)
Track  6  accurately ripped (confidence 1)  [B56C76D1]  (AR v2)
Track  7  accurately ripped (confidence 1)  [5FE3B2ED]  (AR v2)
Track  8  accurately ripped (confidence 1)  [A9E3EDBE]  (AR v2)
Track  9  accurately ripped (confidence 1)  [7C2EEA34]  (AR v2)
Track 10  accurately ripped (confidence 1)  [186143EB]  (AR v2)
All tracks accurately ripped
End of status report

содержание индексной карты *cue

REM GENRE "Hard Rock"
REM DATE 1982
REM DISCID 8309370A
REM COMMENT "ExactAudioCopy v1.0b3"
PERFORMER "Whitesnake"
TITLE "Saints & Sinners"
FILE "Whitesnake - Saints & Sinners.flac" WAVE
  TRACK 01 AUDIO
    TITLE "Young Blood"
    PERFORMER "Whitesnake"
    INDEX 01 00:00:00
  TRACK 02 AUDIO
    TITLE "Rough An' Ready"
    PERFORMER "Whitesnake"
    INDEX 01 03:29:29
  TRACK 03 AUDIO
    TITLE "Bloody Luxury"
    PERFORMER "Whitesnake"
    INDEX 01 06:21:54
  TRACK 04 AUDIO
    TITLE "Victim Of Love"
    PERFORMER "Whitesnake"
    INDEX 01 09:45:24
  TRACK 05 AUDIO
    TITLE "Crying In The Rain"
    PERFORMER "Whitesnake"
    INDEX 01 13:18:27
  TRACK 06 AUDIO
    TITLE "Here I Go Again"
    PERFORMER "Whitesnake"
    INDEX 01 19:19:54
  TRACK 07 AUDIO
    TITLE "Love An' Affection"
    PERFORMER "Whitesnake"
    INDEX 01 24:27:72
  TRACK 08 AUDIO
    TITLE "Rock An' Roll Angels"
    PERFORMER "Whitesnake"
    INDEX 01 27:37:02
  TRACK 09 AUDIO
    TITLE "Dancing Girls"
    PERFORMER "Whitesnake"
    INDEX 01 31:44:05
  TRACK 10 AUDIO
    TITLE "Saints An' Sinners"
    PERFORMER "Whitesnake"
    INDEX 01 34:54:32
---
[Профиль] [ЛС]
Показать сообщения:    

Текущее время: Сегодня 18:55

Часовой пояс: GMT



Вы не можете начинать темы
Вы не можете отвечать на сообщения
Вы не можете редактировать свои сообщения
Вы не можете удалять свои сообщения
Вы не можете голосовать в опросах
Вы не можете прикреплять файлы к сообщениям
Вы не можете скачивать файлы