(Heavy / Hard Rock) Gorky Park - Gorky Park II (Moscow Calling) - 1993, FLAC (image + .cue), lossless

 
Автор Сообщение

sergej644 ®

Пол:

Стаж: 4 года 11 месяцев

Сообщений: 6046

Откуда: Soviet Union



Награды: Нет

Торрент-статистика

Создавать темы 11-Ноя-2014 13:34

[Цитировать]

--Gorky Park - Gorky Park II (Moscow Calling)
Страна: USA
Жанр: Heavy / Hard Rock
Страна производитель диска: USA
Издатель: (Лейбл) M.I.R. Records USA
Год выпуска: 1993
Формат: FLAC
Тип рипа: image+cue
Битрейт аудио: lossless
Продолжительность: 00:57:34
Наличие сканов в раздачи: да
---

треклист

01.Moscow Calling (05:09)
02.All Roads (05:11)
03.Politics Of Love (04:06)
04.Tomorrow (05:55)
05.Stranger (04:51)
06.Volga Boatman (01:15)
07.Strike (03:51)
08.Welcome To The Gorky Park (04:23)
09.Two Candles (05:01)
10.I'm Going Down (04:30)
11.City Of Pain (04:57)
12.Don't Pull The Trigger (04:55)
13.Tell Me Why (03:25)
-

лог создания рипа

Exact Audio Copy V0.99 prebeta 5 from 4. May 2009
EAC extraction logfile from 1. February 2012, 19:59
Gorky Park / Moscow Calling
Used drive  : Optiarc DVD RW AD-7203S   Adapter: 1  ID: 0
Read mode               : Secure
Utilize accurate stream : Yes
Defeat audio cache      : Yes
Make use of C2 pointers : No
Read offset correction                      : 48
Overread into Lead-In and Lead-Out          : No
Fill up missing offset samples with silence : Yes
Delete leading and trailing silent blocks   : No
Null samples used in CRC calculations       : Yes
Used interface                              : Native Win32 interface for Win NT & 2000
Used output format              : User Defined Encoder
Selected bitrate                : 768 kBit/s
Quality                         : High
Add ID3 tag                     : No
Command line compressor         : C:\Program Files\Exact Audio Copy\FLAC\FLAC.EXE
Additional command line options : -6 -V -T "ARTIST=%a" -T "TITLE=%t" -T "ALBUM=%g" -T "DATE=%y" -T "TRACKNUMBER=%n" -T "GENRE=%m" -T "COMMENT=%e" %s -o %d
TOC of the extracted CD
     Track |   Start  |  Length  | Start sector | End sector
    ---------------------------------------------------------
        1  |  0:00.38 |  5:09.62 |        38    |    23274
        2  |  5:10.25 |  5:11.38 |     23275    |    46637
        3  | 10:21.63 |  4:06.25 |     46638    |    65112
        4  | 14:28.13 |  5:55.50 |     65113    |    91787
        5  | 20:23.63 |  4:51.12 |     91788    |   113624
        6  | 25:15.00 |  1:15.05 |    113625    |   119254
        7  | 26:30.05 |  3:51.70 |    119255    |   136649
        8  | 30:22.00 |  4:23.05 |    136650    |   156379
        9  | 34:45.05 |  5:01.58 |    156380    |   179012
       10  | 39:46.63 |  4:30.37 |    179013    |   199299
       11  | 44:17.25 |  4:57.68 |    199300    |   221642
       12  | 49:15.18 |  4:55.20 |    221643    |   243787
       13  | 54:10.38 |  3:25.00 |    243788    |   259162
Range status and errors
Selected range
     Filename K:\flacmusic.ru\Gorky Park - Gorky Park II (1993)\Gorky Park - Moscow Calling.wav
     Peak level 100.0 %
     Range quality 100.0 %
     Test CRC 04885604
     Copy CRC 04885604
     Copy OK
No errors occurred
AccurateRip summary
Track  1  accurately ripped (confidence 3)  [319066FF]
Track  2  accurately ripped (confidence 2)  [6AEB964B]
Track  3  accurately ripped (confidence 2)  [CA4E5DC4]
Track  4  accurately ripped (confidence 2)  [7FCB864B]
Track  5  accurately ripped (confidence 2)  [826932B0]
Track  6  accurately ripped (confidence 2)  [49447203]
Track  7  accurately ripped (confidence 2)  [665C0F25]
Track  8  accurately ripped (confidence 2)  [CA4C57EF]
Track  9  accurately ripped (confidence 2)  [E8541B63]
Track 10  accurately ripped (confidence 2)  [DB178F42]
Track 11  accurately ripped (confidence 2)  [FB59B353]
Track 12  accurately ripped (confidence 2)  [24C1188F]
Track 13  accurately ripped (confidence 2)  [3A7F33D3]
All tracks accurately ripped
End of status report

содержание индексной карты *cue

REM GENRE "Hard Rock"
REM DATE 1993
REM DISCID B90D7F0D
REM COMMENT "ExactAudioCopy v0.99pb5"
PERFORMER "Gorky Park"
TITLE "Moscow Calling"
FILE "Gorky Park - Moscow Calling.flac" WAVE
  TRACK 01 AUDIO
    TITLE "Moscow Calling"
    PERFORMER "Gorky Park"
    INDEX 00 00:00:00
    INDEX 01 00:00:38
  TRACK 02 AUDIO
    TITLE "All Roads"
    PERFORMER "Gorky Park"
    INDEX 00 05:09:38
    INDEX 01 05:10:25
  TRACK 03 AUDIO
    TITLE "Politics Of Love"
    PERFORMER "Gorky Park"
    INDEX 00 10:20:38
    INDEX 01 10:21:63
  TRACK 04 AUDIO
    TITLE "Tomorrow"
    PERFORMER "Gorky Park"
    INDEX 00 14:26:53
    INDEX 01 14:28:13
  TRACK 05 AUDIO
    TITLE "Stranger"
    PERFORMER "Gorky Park"
    INDEX 00 20:23:58
    INDEX 01 20:23:63
  TRACK 06 AUDIO
    TITLE "Volga Boatman"
    PERFORMER "Gorky Park"
    INDEX 00 25:13:25
    INDEX 01 25:15:00
  TRACK 07 AUDIO
    TITLE "Strike"
    PERFORMER "Gorky Park"
    INDEX 01 26:30:05
  TRACK 08 AUDIO
    TITLE "Welcome To The Gorky Park"
    PERFORMER "Gorky Park"
    INDEX 00 30:20:38
    INDEX 01 30:22:00
  TRACK 09 AUDIO
    TITLE "Two Candles"
    PERFORMER "Gorky Park"
    INDEX 00 34:43:63
    INDEX 01 34:45:05
  TRACK 10 AUDIO
    TITLE "I'm Going Down"
    PERFORMER "Gorky Park"
    INDEX 00 39:46:38
    INDEX 01 39:46:63
  TRACK 11 AUDIO
    TITLE "City Of Pain"
    PERFORMER "Gorky Park"
    INDEX 00 44:17:13
    INDEX 01 44:17:25
  TRACK 12 AUDIO
    TITLE "Don't Pull The Trigger"
    PERFORMER "Gorky Park"
    INDEX 00 49:15:13
    INDEX 01 49:15:18
  TRACK 13 AUDIO
    TITLE "Tell Me Why"
    PERFORMER "Gorky Park"
    INDEX 00 54:10:25
    INDEX 01 54:10:38

Folder.auCDtect

-----------------------
DON'T MODIFY THIS FILE
-----------------------
PERFORMER: auCDtect Task Manager, ver. 1.6.0 RC1 build 1.6.0.1
Copyright (c) 2008-2010 y-soft. All rights reserved
http://y-soft.org
ANALYZER: auCDtect: CD records authenticity detector, version 0.8.2
Copyright (c) 2004 Oleg Berngardt. All rights reserved.
Copyright (c) 2004 Alexander Djourik. All rights reserved.
FILE: Gorky Park - Moscow Calling.flac
  Size: 427474731 Hash: A150FDD7B12A2D164EA0A163CEE275F3 Accuracy: -m0
  Conclusion: CDDA 100%
  Signature: B22686E9E107D1B6D789A2317239325E55338495
-Не забываем говорить
[Профиль] [ЛС]
Показать сообщения:    

Текущее время: Сегодня 01:22

Часовой пояс: GMT



Вы не можете начинать темы
Вы не можете отвечать на сообщения
Вы не можете редактировать свои сообщения
Вы не можете удалять свои сообщения
Вы не можете голосовать в опросах
Вы не можете прикреплять файлы к сообщениям
Вы не можете скачивать файлы