(Hard Rock / Blues-Rock)Gary Moore - Run For Cover (1985) Remaster /2002, Virgin/ [FLAC(image+cue), Lossless]

 
Автор Сообщение

sergej644 ®

Пол:

Стаж: 4 года 11 месяцев

Сообщений: 6043

Откуда: Soviet Union



Награды: Нет

Торрент-статистика

Создавать темы 13-Окт-2014 08:10

[Цитировать]

-Gary Moore - Run For Cover (1985) + 3 bonus track-Год: 1985/ 2002
Жанр: Hard Rock / Blues-Rock
Label & Catalog#: Virgin MOORECD4 7243 5 83577 2 1
Продолжительность: 01:01:25
Кодек: FLAC
Битрейт: Lossless
Треклист:
01. Run For Cover [04:13]
02. Reach For The Sky [04:45]
03. Military Man [05:40]
04. Empty Rooms [04:18]
05. Out Of My System [04:07]
06. Out In The Fields [04:17]
07. Nothing To Lose [04:41]
08. Once In A Lifetime [04:18]
09. All Messed Up [04:52]
10. Listen To Your Heartbeat [04:38]
11. Still In Love With You [05:59]
12. Stop Messin' Around (Live) [04:08]
13. Murder In The Skies (Live) [05:23]

cue:

REM GENRE "Hard Rock"
REM DATE 1985
REM DISCID BF0E650D
REM COMMENT "ExactAudioCopy v0.99pb5"
PERFORMER "GARY MOORE"
TITLE "Run for Cover"
FILE "GARY MOORE - Run for Cover.flac" WAVE
  TRACK 01 AUDIO
    TITLE "Run For Cover"
    PERFORMER "GARY MOORE"
    INDEX 01 00:00:00
  TRACK 02 AUDIO
    TITLE "Reach For The Sky"
    PERFORMER "GARY MOORE"
    INDEX 01 04:13:10
  TRACK 03 AUDIO
    TITLE "Military Man"
    PERFORMER "GARY MOORE"
    INDEX 00 08:56:42
    INDEX 01 08:58:42
  TRACK 04 AUDIO
    TITLE "Empty Rooms"
    PERFORMER "GARY MOORE"
    INDEX 00 14:38:15
    INDEX 01 14:38:70
  TRACK 05 AUDIO
    TITLE "Out Of My System"
    PERFORMER "GARY MOORE"
    INDEX 00 18:55:70
    INDEX 01 18:57:62
  TRACK 06 AUDIO
    TITLE "Out In The Fields"
    PERFORMER "GARY MOORE"
    INDEX 00 23:04:12
    INDEX 01 23:05:52
  TRACK 07 AUDIO
    TITLE "Nothing To Lose"
    PERFORMER "GARY MOORE"
    INDEX 01 27:23:42
  TRACK 08 AUDIO
    TITLE "Once In A Lifetime"
    PERFORMER "GARY MOORE"
    INDEX 00 32:05:02
    INDEX 01 32:05:17
  TRACK 09 AUDIO
    TITLE "All Messed Up"
    PERFORMER "GARY MOORE"
    INDEX 01 36:24:05
  TRACK 10 AUDIO
    TITLE "Listen To Your Heartbeat"
    PERFORMER "GARY MOORE"
    INDEX 01 41:16:22
  TRACK 11 AUDIO
    TITLE "Still In Love With You"
    PERFORMER "GARY MOORE"
    INDEX 00 45:48:67
    INDEX 01 45:54:52
  TRACK 12 AUDIO
    TITLE "Stop Messin' Around (Live) "
    PERFORMER "GARY MOORE"
    INDEX 00 51:52:47
    INDEX 01 51:53:67
  TRACK 13 AUDIO
    TITLE "Murder In The Skies (Live)"
    PERFORMER "GARY MOORE"
    INDEX 00 56:01:30
    INDEX 01 56:02:55

Отчёт ЕАС:

Exact Audio Copy V0.99 prebeta 5 from 4. May 2009
Archivo Log de extracciones desde 24. Marzo 2013, 9:54
GARY MOORE / Run for Cover
Usar unidad  : HL-DT-STDVDRAM GH22NS70   Adapter: 0  ID: 0
Modo de Lectura           : Seguro
Utilizar Corriente Exacta : Sн
Descartar Audio cachй     : Sн
Utilizar los punteros C2  : No
Correcciуn de Desplazamiento de Lectura         : 667
Sobreleer tanto en Lead-In como en Lead-Out     : No
Rellenar las muestras faltantes con silencios   : Sн
Eliminar silencios inicial y final              : No
Se han usado muestras nulas en los cбlculos CRC : Sн
Interfaz usada                                  : Interfaz propio de Win32 para Windowns NT y 2000
Formato de Salida utilizado               : Compresor definido por el usuario
Bitrate seleccionado                      : 32 kBit/s
Calidad                                   : Alta
Aсadir Etiqueta ID3                       : No
Compresor de linea de comandos            : C:\Program Files (x86)\Exact Audio Copy\Flac\flac.exe
Opciones adicionales en lнnea de comandos : -6 -V %s
TOC del CD extraido
     Pista |  Inicio  | Duraciуn | Sector inicial | Sector final
    -------------------------------------------------------------
        1  |  0:00.00 |  4:13.10 |          0     |     18984
        2  |  4:13.10 |  4:45.32 |      18985     |     40391
        3  |  8:58.42 |  5:40.28 |      40392     |     65919
        4  | 14:38.70 |  4:18.67 |      65920     |     85336
        5  | 18:57.62 |  4:07.65 |      85337     |    103926
        6  | 23:05.52 |  4:17.65 |     103927     |    123266
        7  | 27:23.42 |  4:41.50 |     123267     |    144391
        8  | 32:05.17 |  4:18.63 |     144392     |    163804
        9  | 36:24.05 |  4:52.17 |     163805     |    185721
       10  | 41:16.22 |  4:38.30 |     185722     |    206601
       11  | 45:54.52 |  5:59.15 |     206602     |    233541
       12  | 51:53.67 |  4:08.63 |     233542     |    252204
       13  | 56:02.55 |  5:23.10 |     252205     |    276439
Gama de estados y errores
Seleccionar gama
     Nombre de Archivo E:\Mъsica\EAC\Gary Moore\Run For Cover\GARY MOORE - Run for Cover.wav
     Nivel Pico 99.1 %
     Gama de Calidad 100.0 %
     Test CRC 7FED3C8A
     Copiar CRC 7FED3C8A
     Copia OK
Sin Errores
Resumen AccurateRip
Pista  1  extraido de modo preciso (nivel de confianza 12)  [A1240649]
Pista  2  extraido de modo preciso (nivel de confianza 13)  [EC7C62D6]
Pista  3  extraido de modo preciso (nivel de confianza 12)  [81A1C71D]
Pista  4  extraido de modo preciso (nivel de confianza 12)  [4E97934B]
Pista  5  extraido de modo preciso (nivel de confianza 12)  [92E98DF1]
Pista  6  extraido de modo preciso (nivel de confianza 13)  [2B105276]
Pista  7  extraido de modo preciso (nivel de confianza 12)  [F49B9259]
Pista  8  extraido de modo preciso (nivel de confianza 12)  [B8304276]
Pista  9  extraido de modo preciso (nivel de confianza 12)  [DE6973A3]
Pista 10  extraido de modo preciso (nivel de confianza 13)  [7252539E]
Pista 11  extraido de modo preciso (nivel de confianza 12)  [9F1765DB]
Pista 12  extraido de modo preciso (nivel de confianza 12)  [89F1F7D3]
Pista 13  extraido de modo preciso (nivel de confianza 12)  [3C6876DD]
Todas las pistas extraidas de modo preciso
Final del Informe

Отчёт auCDtect Task manager:

DON'T MODIFY THIS FILE
-----------------------
PERFORMER: auCDtect Task Manager, ver. 1.6.0 RC1 build 1.6.0.1
Copyright (c) 2008-2010 y-soft. All rights reserved
http://y-soft.org
ANALYZER: auCDtect: CD records authenticity detector, version 0.8.2
Copyright (c) 2004 Oleg Berngardt. All rights reserved.
Copyright (c) 2004 Alexander Djourik. All rights reserved.
FILE: GARY MOORE - Run for Cover.flac
  Size: 430005430 Hash: F9C03F9FA7D26C03A81273E3191598D3 Accuracy: -m0
  Conclusion: CDDA 100%
  Signature: E34239A125B99546827BFA48501F0D81100F7FDC

Спектрограмма:

Время раздачи: 19.00 - 23.00-
[Профиль] [ЛС]
Показать сообщения:    

Текущее время: Сегодня 18:39

Часовой пояс: GMT



Вы не можете начинать темы
Вы не можете отвечать на сообщения
Вы не можете редактировать свои сообщения
Вы не можете удалять свои сообщения
Вы не можете голосовать в опросах
Вы не можете прикреплять файлы к сообщениям
Вы не можете скачивать файлы