HФутбол. Чемпионат Испании 2015-16. 31-й тур. Барселона - Реал [02.04] (2016) DTVRip

 
Автор Сообщение

Russian Mafia ®

Пол:

Стаж: 1 год 8 месяцев

Сообщений: 4246



Награды: 10 (Подробнее)

Mega Seeder 4 (Количество: 1) Mega Seeder 2 (Количество: 1) Mega Seeder 5 (Количество: 1)
Торрент-статистика

Создавать темы 03-Апр-2016 14:54

[Цитировать]

Название: Барселона - Реал
Вид спорта: Футбол
Комментарий: Профессиональный двухголосый
Комментаторы: Константин Генич, Роман Гутцайт
Язык комментаториев: Русский
Год: 2016 (02.04.16)

В 31 туре Чемпионата Испании по футболу 2015—2016 сошлись два фаворита испанской Примеры — Барселона — Реал Мадрид. Матч состоялся 2 апреля 2016 года в Барселоне на стадионе Стадион «Камп Ноу», где хозяева...
31-й тур Испанской Ла Лиги, Стадион: Камп Ноу (Барселона, Испания) , вместимость: 99354
Главный судья: Алехандро Хосе Эрнандес Эрнандес (Санта-Крус-де-Тенерифе, Испания) ; Ассистент: Теодоро Собрино Маган (Испания) ; Ассистент: Хосе Энрике Наранхо Перес (Испания)
Составы команд:
Барселона: Браво - Альба, Маскерано, Пике, Алвес - Иньеста, Бускетс, Ракитич (Туран, 73) - Неймар, Суарес, Месси
Реал: Навас - Марсело, Рамос, Пепе, Карвахаль - Кроос, Каземиро, Модрич - Роналду, Бензема (Хесе, 77), Бэйл (Васкес, 90)
Информация:
Продолжительность: 01:45:00
Перевод: Не требуется
Контейнер: AVI
Кодек: Xvid
Качество: HDTVRip
Видео: 704x400 (16:9), 25 fps, ~1800 kbps
Звук: 48 kHz, MPEG Layer 3, 2 ch, ~128.00 kbps
Субтитры: Отсутствуют-

Mediainfo:

Общее
Полное имя : Барселона - Реал 02.04.2016 HDTVRipБарселона — Реал Мадрид hDTVRip.avi
Формат : AVI
Формат/Информация : Audio Video Interleave
Профиль формата : OpenDML
Размер файла : 1,41 Гбайт
Продолжительность : 1 ч. 42 м.
Общий поток : 1965 Кбит/сек
Видео
Идентификатор : 0
Формат : MPEG-4 Visual
Профиль формата : Advanced Simple@L5
Параметр BVOP формата : 1
Параметр QPel формата : Нет
Параметр GMC формата : Без точки перехода
Параметр матрицы формата : Default (H.263)
Идентификатор кодека : XVID
Идентификатор кодека/Подсказка : XviD
Продолжительность : 1 ч. 42 м.
Битрейт : 1822 Кбит/сек
Ширина : 704 пикселя
Высота : 400 пикселей
Соотношение сторон : 16:9
Частота кадров : 25,000 кадров/сек
Цветовое пространство : YUV
Субдискретизация насыщенности : 4:2:0
Битовая глубина : 8 бит
Тип развёртки : Прогрессивная
Метод сжатия : С потерями
Бит/(Пиксели*Кадры) : 0.259
Размер потока : 1,31 Гбайт (93%)
Библиотека кодирования : XviD 73
Аудио
Идентификатор : 1
Формат : MPEG Audio
Версия формата : Version 1
Профиль формата : Layer 3
Идентификатор кодека : 55
Идентификатор кодека/Подсказка : MP3
Продолжительность : 1 ч. 42 м.
Вид битрейта : Постоянный
Битрейт : 128 Кбит/сек
Каналы : 2 канала
Частота : 48,0 КГц
Метод сжатия : С потерями
Размер потока : 94,3 Мбайт (7%)
Выравнивание : Соединение по промежуткам
Продолжительность промежутка : 24 мс. (0,60 видеокадр)

Результат:

Было забито 3 мяча. Одна комманда выиграла - другая проиграла.
- -
[Профиль] [ЛС]
Кто просматривает тему:

Показать сообщения:    

Текущее время: Сегодня 02:43

Часовой пояс: GMT



Вы не можете начинать темы
Вы не можете отвечать на сообщения
Вы не можете редактировать свои сообщения
Вы не можете удалять свои сообщения
Вы не можете голосовать в опросах
Вы не можете прикреплять файлы к сообщениям
Вы не можете скачивать файлы