Gwar • Fate or Chaos Tour 2013 [2014, Thrash metal, Shok-rock, HDTV 1080i]

 
Автор Сообщение

reversefile ®

Пол:

Стаж: 4 года 5 месяцев

Сообщений: 842

Откуда: ReverseFile.org



Награды: Нет

Торрент-статистика

Создавать темы 11-Авг-2014 18:53

[Цитировать]

Gwar - Fate or Chaos Tour 2013


Жанр: Thrash metal, Shok-rock
Продолжительность: 01:32:48
Год выпуска: 2014
Качество: HDTV 1080i
Контейнер: MKV
Видео кодек: H.264
Аудио кодек: AC3
Видео: MPEG4 Video (H264) 1920x1080 25fps 9 715 Kbps 9715Kbps
Аудио: Dolby AC3 48000Hz 6ch 384kbps

Треклист

Dave Brockie (Oderus Urungus) - lead vocals
Mike Derks (Balsac the Jaws of Death) - rhythm guitar
Brad Roberts (Jizmak Da Gusha) - drums, percussion
Jamison Land (Beefcake the Mighty) - bass guitar
Brent Purgason (Pustulus Maximus) - lead guitar
01. Horror of Yig
02. Womb With a View
0 3. Madness at the Core of Tim
04. Saddam a Go-Go
05. Bring Back the Bomb
0 6. Bloodbath
07. Krosstika
08. Metal Metal Land
09. Immortal Corrupter
10. They Swallowed The Sun
11. Let Us Slay
12. Have You Seen Me?
13. Hail, Genocide!
14. War Is All We Know
15. A Short History of the End of the World
16. Rock 'n' Roll Never Felt So Good
17. Whargoul
18. Carry on Wayward Son (Kansas cover)
19. Sick of You{CVAL_traks}

Отчёт MediaInfo / BDInfo

GeneralUnique ID : 189959085340481485906956673071946177251 (0x8EE8CA00443055CDF2186C3129909AE3)Complete name : L:\Gwar - Fate or Chaos Tour (2013).mkvFormat : MatroskaFormat version : Version 2File size : 6.68 GiBDuration : 1h 32mnOverall bit rate mode : VariableOverall bit rate : 10.3 MbpsWriting application : Lavf55.7.100Writing library : Lavf55.7.100LABEL : Chapter 1TCHAPTER : 197218816Language : eng
VideoID : 1Format : AVCFormat/Info : Advanced Video CodecFormat profile : High@L4.0Format settings, CABAC : NoFormat settings, ReFrames : 1 frameCodec ID : V_MPEG4/ISO/AVCDuration : 1h 32mnBit rate mode : VariableBit rate : 9 715 KbpsMaximum bit rate : 12.5 MbpsWidth : 1 920 pixelsHeight : 1 080 pixelsDisplay aspect ratio : 16:9Frame rate mode : ConstantFrame rate : 25.000 fpsColor space : YUVChroma subsampling : 4:2:0Bit depth : 8 bitsScan type : ProgressiveBits/(Pixel*Frame) : 0.187Stream size : 6.30 GiB (94%)Title : Main videoLanguage : UnspecifiedDefault : NoForced : NoPART_NUMBER : 0
AudioID : 2Format : AC-3Format/Info : Audio Coding 3Mode extension : CM (complete main)Format settings, Endianness : BigCodec ID : A_AC3Duration : 1h 32mnBit rate mode : ConstantBit rate : 384 KbpsChannel(s) : 6 channelsChannel positions : Front: L C R, Side: L R, LFESampling rate : 48.0 KHzBit depth : 16 bitsCompression mode : LossyDelay relative to video : 46msStream size : 255 MiB (4%)Title : EnglishLanguage : EnglishDefault : YesForced : NoPART_NUMBER : 1
[Профиль] [ЛС]
Кто просматривает тему:

Показать сообщения:    

Текущее время: Сегодня 20:25

Часовой пояс: GMT



Вы не можете начинать темы
Вы не можете отвечать на сообщения
Вы не можете редактировать свои сообщения
Вы не можете удалять свои сообщения
Вы не можете голосовать в опросах
Вы не можете прикреплять файлы к сообщениям
Вы не можете скачивать файлы