Grant Miller - The Maxi-Singles Collection (2007) [APE|Lossless]<Italo-Disco>

 
Автор Сообщение

sergej644 ®

Пол:

Стаж: 4 года 11 месяцев

Сообщений: 6042

Откуда: Soviet Union



Награды: Нет

Торрент-статистика

Создавать темы 24-Дек-2014 22:28

[Цитировать]

-Grant Miller - The Maxi-Singles Collection (2007)- Год: 2007
Лейбл: ESonCD
Каталог #: 200708-2
Жанр: Italo-Disco
Продолжительность: 01:19:27
Кодек: APE
Битрейт: Lossless
Тип битрейта: image +.cue
Треклист:
01. Colder Than Ice 5:35
02. Red For Love 5:28
03. Doctor For My Heart 5:16
04. I'm Alive Tonight 3:59
05. Wings Of Love 5:15
06. California Train 4:54
07. (Find My) Tracks In The Snow 5:06
08. Break Away 5:52
09. Stranger In My Life 4:29
10. In The Rain Again 4:57
11. Sail Away 3:50
12. Lost In Paradise 4:59
13. Doch Ich Habe Dich Geliebt (M.S.T. Mix) 5:05
14. Nothing Really Matters But You 3:07
15. Stay One More Day 3:44
16. Stranger In My Life (Remix) 3:35
17. Missing You 4:10

Отчёт ЕАС&#58;

Exact Audio Copy V0.99 prebeta 5 from 4. May 2009
Отчёт EAC об извлечении, выполненном 4. сентября 2009, 21:49
Grant Miller / The Maxi-Singles Collection
Дисковод: Optiarc DVD RW AD-5200A Adapter: 0 ID: 0
Режим чтения : Достоверность
Использование точного потока : Да
Отключение кэша аудио : Да
Использование указателей C2 : Нет
Коррекция смещения при чтении : 48
Способность читать области Lead-in и Lead-out : Нет
Заполнение пропущенных сэмплов тишиной : Да
Удаление блоков с тишиной в начале и конце : Нет
При вычислениях CRC использовались нулевые сэмплы : Да
Интерфейс : Установленный внешний ASPI-интерфейс
Выходной формат : Внутренние WAV-операции
Формат сэмплов : 44.100 Гц; 16 бит; стерео
TOC извлечённого CD
Трек | Старт | Длительность | Начальный сектор | Конечный сектор
---------------------------------------------------------------------
1 | 0:00.00 | 5:35.14 | 0 | 25138
2 | 5:35.14 | 5:28.05 | 25139 | 49743
3 | 11:03.19 | 5:16.56 | 49744 | 73499
4 | 16:20.00 | 3:59.22 | 73500 | 91446
5 | 20:19.22 | 5:15.20 | 91447 | 115091
6 | 25:34.42 | 4:54.47 | 115092 | 137188
7 | 30:29.14 | 5:06.09 | 137189 | 160147
8 | 35:35.23 | 5:52.07 | 160148 | 186554
9 | 41:27.30 | 4:29.62 | 186555 | 206791
10 | 45:57.17 | 4:57.35 | 206792 | 229101
11 | 50:54.52 | 3:50.64 | 229102 | 246415
12 | 54:45.41 | 4:59.57 | 246416 | 268897
13 | 59:45.23 | 5:05.23 | 268898 | 291795
14 | 64:50.46 | 3:07.37 | 291796 | 305857
15 | 67:58.08 | 3:44.37 | 305858 | 322694
16 | 71:42.45 | 3:35.16 | 322695 | 338835
17 | 75:17.61 | 4:10.18 | 338836 | 357603
Характеристики диапазона извлечения и сообщения об ошибках
Выбранный диапазон
Имя файла E:\Grant Miller - The Maxi-Singles Collection\Grant Miller - The Maxi-Singles Collection.wav
Пиковый уровень 98.6 %
Качество диапазона 100.0 %
CRC теста CF109B94
CRC копии CF109B94
Копирование... OK
Ошибок не произошло
AccurateRip: сводка
Трек 1 точность не определена (достоверность 1) [DB3A28E7], AccurateRip вернул [12209088]
Трек 2 точность не определена (достоверность 1) [EFC6FBBC], AccurateRip вернул [C513B7DA]
Трек 3 точность не определена (достоверность 1) [0BA1626B], AccurateRip вернул [F42C0F83]
Трек 4 точность не определена (достоверность 1) [60AC7A52], AccurateRip вернул [9B9F2A8A]
Трек 5 точность не определена (достоверность 1) [E2CF22A6], AccurateRip вернул [1AD489A8]
Трек 6 точность не определена (достоверность 1) [0F69A750], AccurateRip вернул [7A4E088C]
Трек 7 точность не определена (достоверность 1) [A6FD0A32], AccurateRip вернул [9AC44CEE]
Трек 8 точность не определена (достоверность 1) [74B4A268], AccurateRip вернул [2DA1F6EA]
Трек 9 точность не определена (достоверность 1) [36C32EC9], AccurateRip вернул [F03F2E21]
Трек 10 точность не определена (достоверность 1) [2D4179FC], AccurateRip вернул [B31EAE16]
Трек 11 точность не определена (достоверность 1) [0199AD14], AccurateRip вернул [1DDA6EF6]
Трек 12 точность не определена (достоверность 1) [D8B498F2], AccurateRip вернул [2759D910]
Трек 13 точность не определена (достоверность 1) [28D70186], AccurateRip вернул [5FD857D2]
Трек 14 точность не определена (достоверность 1) [6AE6BE4D], AccurateRip вернул [E10703E3]
Трек 15 точность не определена (достоверность 1) [2B4DF2FE], AccurateRip вернул [8A5E5148]
Трек 16 точность не определена (достоверность 1) [F5A95950], AccurateRip вернул [3A317A46]
Трек 17 точность не определена (достоверность 1) [B2F0E128], AccurateRip вернул [826091E6]
Ни один трек не прошёл проверки на точность
В вашей базе может быть иной вариант штамповки диска
Конец отчёта

Отчёт auCDtect Task manager&#58;

-----------------------
DON'T MODIFY THIS FILE
-----------------------
PERFORMER: auCDtect Task Manager, ver. 1.5.1RC4 build 1.5.1.5
Copyright (c) 2008-2010 y-soft. All rights reserved
http://y-soft.org
ANALYZER: auCDtect: CD records authenticity detector, version 0.8.2
Copyright (c) 2004 Oleg Berngardt. All rights reserved.
Copyright (c) 2004 Alexander Djourik. All rights reserved.
FILE: Grant Miller - The Maxi-Singles Collection.ape
  Size: 588028644 Hash: 73F359E5FB19BA1C2F78EBDAA1024A26 Accuracy: -m0
  Conclusion: CDDA 100%
  Signature: 2CF705F7CA80972D35627D3F1C00BB6E6A9099DE

Содержание индексной карты (.CUE&#41;&#58;

REM GENRE Italo-Disco
REM DATE 2007
REM DISCID 0A12A011
REM COMMENT "ExactAudioCopy v0.99pb5"
PERFORMER "Grant Miller"
TITLE "The Maxi-Singles Collection"
FILE "Grant Miller - The Maxi-Singles Collection.ape" WAVE
  TRACK 01 AUDIO
    TITLE "Colder Than Ice"
    PERFORMER "Grant Miller"
    FLAGS DCP
    INDEX 01 00:00:00
  TRACK 02 AUDIO
    TITLE "Red For Love"
    PERFORMER "Grant Miller"
    FLAGS DCP
    INDEX 00 05:34:14
    INDEX 01 05:35:14
    INDEX 02 05:37:44
    INDEX 03 06:37:56
    INDEX 04 07:26:29
    INDEX 05 07:26:31
    INDEX 06 07:56:28
    INDEX 07 08:59:00
    INDEX 08 08:59:10
    INDEX 09 08:59:11
    INDEX 10 08:59:13
    INDEX 11 08:59:14
    INDEX 12 09:18:56
    INDEX 13 09:24:32
    INDEX 14 09:24:33
    INDEX 15 09:24:35
    INDEX 16 09:51:23
  TRACK 03 AUDIO
    TITLE "Doctor For My Heart"
    PERFORMER "Grant Miller"
    FLAGS DCP
    INDEX 00 11:02:19
    INDEX 01 11:03:19
    INDEX 02 11:53:33
    INDEX 03 11:53:35
    INDEX 04 12:29:72
    INDEX 05 14:17:10
  TRACK 04 AUDIO
    TITLE "I'm Alive Tonight"
    PERFORMER "Grant Miller"
    FLAGS DCP
    INDEX 00 16:19:00
    INDEX 01 16:20:00
    INDEX 02 16:51:66
    INDEX 03 17:05:39
    INDEX 04 17:51:27
    INDEX 05 18:33:66
  TRACK 05 AUDIO
    TITLE "Wings Of Love"
    PERFORMER "Grant Miller"
    FLAGS DCP
    INDEX 00 20:18:22
    INDEX 01 20:19:22
    INDEX 02 20:42:57
    INDEX 03 20:42:62
    INDEX 04 20:42:63
    INDEX 05 21:03:19
    INDEX 06 22:33:52
    INDEX 07 22:33:53
    INDEX 08 22:48:52
    INDEX 09 22:48:53
    INDEX 10 22:48:55
    INDEX 11 22:48:56
    INDEX 12 22:48:57
    INDEX 13 23:07:20
    INDEX 14 23:29:59
    INDEX 15 24:01:46
    INDEX 16 24:01:47
    INDEX 17 24:24:71
    INDEX 18 24:26:00
    INDEX 19 24:32:28
    INDEX 20 24:46:33
    INDEX 21 24:55:21
  TRACK 06 AUDIO
    TITLE "California Train"
    PERFORMER "Grant Miller"
    FLAGS DCP
    INDEX 00 25:33:42
    INDEX 01 25:34:42
    INDEX 02 26:13:03
    INDEX 03 26:21:00
    INDEX 04 26:22:46
    INDEX 05 27:01:00
    INDEX 06 27:07:26
    INDEX 07 27:39:72
    INDEX 08 28:32:29
    INDEX 09 28:49:05
    INDEX 10 28:57:09
    INDEX 11 28:57:47
    INDEX 12 29:00:19
    INDEX 13 29:01:15
    INDEX 14 29:01:60
    INDEX 15 29:03:05
    INDEX 16 30:13:62
  TRACK 07 AUDIO
    TITLE "(Find My) Tracks In The Snow"
    PERFORMER "Grant Miller"
    FLAGS DCP
    INDEX 00 30:28:14
    INDEX 01 30:29:14
    INDEX 02 30:30:66
    INDEX 03 30:30:71
    INDEX 04 31:24:45
    INDEX 05 32:16:02
    INDEX 06 33:21:07
  TRACK 08 AUDIO
    TITLE "Break Away"
    PERFORMER "Grant Miller"
    FLAGS DCP
    INDEX 00 35:34:23
    INDEX 01 35:35:23
    INDEX 02 36:54:70
    INDEX 03 36:55:27
    INDEX 04 36:58:01
    INDEX 05 36:58:72
  TRACK 09 AUDIO
    TITLE "Stranger In My Life"
    PERFORMER "Grant Miller"
    FLAGS DCP
    INDEX 00 41:26:30
    INDEX 01 41:27:30
    INDEX 02 41:36:34
    INDEX 03 44:52:62
    INDEX 04 45:26:24
  TRACK 10 AUDIO
    TITLE "In The Rain Again"
    PERFORMER "Grant Miller"
    FLAGS DCP
    INDEX 00 45:56:17
    INDEX 01 45:57:17
    INDEX 02 50:47:62
  TRACK 11 AUDIO
    TITLE "Sail Away"
    PERFORMER "Grant Miller"
    FLAGS DCP
    INDEX 00 50:53:52
    INDEX 01 50:54:52
    INDEX 02 51:23:38
    INDEX 03 51:23:39
    INDEX 04 51:29:42
    INDEX 05 51:57:62
    INDEX 06 51:58:38
    INDEX 07 52:13:41
    INDEX 08 52:21:69
    INDEX 09 53:23:27
    INDEX 10 53:56:00
    INDEX 11 53:56:64
    INDEX 12 53:57:39
    INDEX 13 53:57:68
    INDEX 14 54:01:45
    INDEX 15 54:03:47
  TRACK 12 AUDIO
    TITLE "Lost In Paradise"
    PERFORMER "Grant Miller"
    FLAGS DCP
    INDEX 00 54:44:41
    INDEX 01 54:45:41
  TRACK 13 AUDIO
    TITLE "Doch Ich Habe Dich Geliebt (M.S.T. Mix)"
    PERFORMER "Grant Miller"
    FLAGS DCP
    INDEX 00 59:44:23
    INDEX 01 59:45:23
  TRACK 14 AUDIO
    TITLE "Nothing Really Matters But You"
    PERFORMER "Grant Miller"
    FLAGS DCP
    INDEX 00 64:49:46
    INDEX 01 64:50:46
    INDEX 02 65:00:16
    INDEX 03 65:00:37
    INDEX 04 65:00:41
    INDEX 05 65:00:51
    INDEX 06 65:05:11
    INDEX 07 65:05:23
    INDEX 08 65:19:60
    INDEX 09 65:55:53
    INDEX 10 65:55:60
    INDEX 11 66:09:35
    INDEX 12 66:10:03
    INDEX 13 67:42:34
  TRACK 15 AUDIO
    TITLE "Stay One More Day"
    PERFORMER "Grant Miller"
    FLAGS DCP
    INDEX 00 67:57:08
    INDEX 01 67:58:08
    INDEX 02 69:26:23
    INDEX 03 69:27:73
    INDEX 04 69:34:69
    INDEX 05 69:37:01
    INDEX 06 70:37:56
    INDEX 07 70:53:13
    INDEX 08 70:53:39
    INDEX 09 70:53:58
    INDEX 10 70:54:08
    INDEX 11 71:01:59
    INDEX 12 71:03:64
    INDEX 13 71:03:65
  TRACK 16 AUDIO
    TITLE "Stranger In My Life (Remix)"
    PERFORMER "Grant Miller"
    FLAGS DCP
    INDEX 00 71:41:45
    INDEX 01 71:42:45
  TRACK 17 AUDIO
    TITLE "Missing You"
    PERFORMER "Grant Miller"
    FLAGS DCP
    INDEX 00 75:16:61
    INDEX 01 75:17:61
    INDEX 02 75:17:73
    INDEX 03 75:18:33
    INDEX 04 75:19:33
    INDEX 05 75:20:02
    INDEX 06 75:21:13
    INDEX 07 75:21:73
    INDEX 08 75:23:10
    INDEX 09 75:26:19
    INDEX 10 75:43:43
    INDEX 11 75:44:24
    INDEX 12 75:44:73
    INDEX 13 75:45:09
    INDEX 14 75:45:34
    INDEX 15 77:41:69
[Профиль] [ЛС]

Создавать темы 13-Авг-2015 10:44 (спустя 7 месяцев 20 дней)

Топик был перенесен из форума Зарубежная в форум Technopop, Eurodance, Disco
sergej644
 
Кто просматривает тему:

Показать сообщения:    

Текущее время: Сегодня 16:16

Часовой пояс: GMT



Вы не можете начинать темы
Вы не можете отвечать на сообщения
Вы не можете редактировать свои сообщения
Вы не можете удалять свои сообщения
Вы не можете голосовать в опросах
Вы не можете прикреплять файлы к сообщениям
Вы не можете скачивать файлы