(Hard Rock)Grand Funk Railroad - More Of The Best (1991) [FLAC, (image+cue), Lossless]

 
Автор Сообщение

sergej644 ®

Пол:

Стаж: 4 года 11 месяцев

Сообщений: 6038

Откуда: Soviet Union



Награды: Нет

Торрент-статистика

Создавать темы 13-Окт-2014 06:48

[Цитировать]

-Grand Funk Railroad - More Of The Best (1991)-Год: 1991
Жанр: Hard Rock
Продолжительность: 01:10:29
Лейбл: Rhino Records
Каталог: R2 70530
Кодек: FLAC (image+.cue + log)
Битрейт: Lossless

Треклист:
01. Are You Ready (3:31)
02. Into the Sun (6:31)
03. Anybody's Answer (5:20)
04. Got This on the Move (4:40)
05. Paranoid (7:53)
06. Upsetter (4:29)
07. Loneliness (8:40)
08. To Get Back in (3:57)
09. Sally (3:17)
10. Take Me (5:09)
11. Just Couldn't Wait (3:32)
12. Can You Do It (3:21)
13. Y. O. U. (2:54)
14. Stuck in the Middle (3:11)
15. Still Waiting (4:04)
-

Отчёт ЕАС:

Exact Audio Copy V1.0 beta 3 from 29. August 2011
Отчёт EAC об извлечении, выполненном 21. апреля 2013, 13:22
Grand Funk Railroad / More of the Best
Дисковод: PLEXTOR CD-R   PREMIUM2   Adapter: 3  ID: 0
Режим чтения                 : Достоверность
Использование точного потока : Да
Отключение кэша аудио        : Да
Использование указателей C2  : Нет
Коррекция смещения при чтении                     : 30
Способность читать области Lead-in и Lead-out     : Да
Заполнение пропущенных сэмплов тишиной            : Да
Удаление блоков с тишиной в начале и конце        : Нет
При вычислениях CRC использовались нулевые сэмплы : Да
Интерфейс                                         : Встроенный Win32-интерфейс для Win NT/2000
Выходной формат : Внутренние WAV-операции
Формат сэмплов  : 44.100 Гц; 16 бит; стерео
TOC извлечённого CD
     Трек |   Старт  | Длительность | Начальный сектор | Конечный сектор
    ---------------------------------------------------------------------
       1  |  0:00.37 |    3:30.38   |          37      |      15824
       2  |  3:31.00 |    6:31.27   |       15825      |      45176
       3  | 10:02.27 |    5:19.45   |       45177      |      69146
       4  | 15:21.72 |    4:40.33   |       69147      |      90179
       5  | 20:02.30 |    7:53.00   |       90180      |     125654
       6  | 27:55.30 |    4:28.42   |      125655      |     145796
       7  | 32:23.72 |    8:40.25   |      145797      |     184821
       8  | 41:04.22 |    3:57.00   |      184822      |     202596
       9  | 45:01.22 |    3:16.38   |      202597      |     217334
      10  | 48:17.60 |    5:09.00   |      217335      |     240509
      11  | 53:26.60 |    3:32.32   |      240510      |     256441
      12  | 56:59.17 |    3:21.13   |      256442      |     271529
      13  | 60:20.30 |    2:53.45   |      271530      |     284549
      14  | 63:14.00 |    3:11.22   |      284550      |     298896
      15  | 66:25.22 |    4:03.73   |      298897      |     317194
Характеристики диапазона извлечения и сообщения об ошибках
Выбранный диапазон
     Имя файла F:\For  .org\Grand Funk Railroad - More Of The Best - 1991\Grand Funk Railroad - More of the Best.wav
     Пиковый уровень 100.0 %
     Скорость извлечения 6.4 X
     Качество диапазона 100.0 %
     CRC теста A3CD04E7
     CRC копии A3CD04E7
     Копирование... OK
Ошибок не произошло
AccurateRip: сводка
Трек  1  : извлечено точно (доверие 11)  [EADC5C04]  (AR v1)
Трек  2  : извлечено точно (доверие 11)  [334240AC]  (AR v1)
Трек  3  : извлечено точно (доверие 10)  [4A71F96C]  (AR v1)
Трек  4  : извлечено точно (доверие 12)  [48F00B4D]  (AR v1)
Трек  5  : извлечено точно (доверие 11)  [F945FECA]  (AR v1)
Трек  6  : извлечено точно (доверие 11)  [E38A9A8C]  (AR v1)
Трек  7  : извлечено точно (доверие 11)  [FE496A68]  (AR v1)
Трек  8  : извлечено точно (доверие 12)  [1570AF42]  (AR v1)
Трек  9  : извлечено точно (доверие 11)  [BB44A957]  (AR v1)
Трек 10  : извлечено точно (доверие 11)  [173317F8]  (AR v1)
Трек 11  : извлечено точно (доверие 11)  [3EA71FC8]  (AR v1)
Трек 12  : извлечено точно (доверие 11)  [9D39C87F]  (AR v1)
Трек 13  : извлечено точно (доверие 12)  [2F012AD4]  (AR v1)
Трек 14  : извлечено точно (доверие 12)  [3C8BC330]  (AR v1)
Трек 15  : извлечено точно (доверие 11)  [BC9921C0]  (AR v1)
Все треки извлечены точно
Конец отчёта
---- CUETools DB Plugin V2.1.4
[CTDB TOCID: kzeKImtzmIKwPs75BPW8WPGPQ1s-] disk not present in database
Submit result: kzeKImtzmIKwPs75BPW8WPGPQ1s- has been uploaded
==== Контрольная сумма отчёта 45185C52EC45568EDD01CEB6468442C98082A4C6CA6DBB712308579A0F3B1DCE ====

Отчёт auCDtect Task manager:

-----------------------
DON'T MODIFY THIS FILE
-----------------------
PERFORMER: auCDtect Task Manager, ver. 1.5.1RC6 build 1.5.1.7
Copyright (c) 2008-2010 y-soft. All rights reserved
http://y-soft.org
ANALYZER: auCDtect: CD records authenticity detector, version 0.8.2
Copyright (c) 2004 Oleg Berngardt. All rights reserved.
Copyright (c) 2004 Alexander Djourik. All rights reserved.
FILE: Grand Funk Railroad - More of the Best.flac
  Size: 483751559 Hash: 4AA2B0AFD1EDE38E7D7DCD459CD83ED5 Accuracy: -m8
  Conclusion: CDDA 100%
  Signature: 634F5AC35BDDF32CC5CBD85FF9624D21FE46D0A5
Время раздачи: с 09:00 до 24:00-
[Профиль] [ЛС]
Показать сообщения:    

Текущее время: Сегодня 02:13

Часовой пояс: GMT



Вы не можете начинать темы
Вы не можете отвечать на сообщения
Вы не можете редактировать свои сообщения
Вы не можете удалять свои сообщения
Вы не можете голосовать в опросах
Вы не можете прикреплять файлы к сообщениям
Вы не можете скачивать файлы