Gossip in Concert 2012 [2014, Indie rock/Dance-rock/Garage rock, HDTV 1080i]

 
Автор Сообщение

reversefile ®

Пол:

Стаж: 4 года 5 месяцев

Сообщений: 842

Откуда: ReverseFile.org



Награды: Нет

Торрент-статистика

Создавать темы 11-Авг-2014 19:05

[Цитировать]

Gossip in Concert 2012
Жанр: Indie rock/Dance-rock/Garage rock
Продолжительность: 01:01:10
Год выпуска: 2014
Описание: Выступление американского инди-рок бэнда Gossip на музыкальном фестивале Les Vieilles Charrues во французском Carhaix 2012 jul22
Доп. информация: Собственная запись со спутникового канала ARTE 2014 apr19
Треклист:Love Long Distance
Listen Up!
Four Letter Word
Get a Job
Perfect World
Your Mangled Heart
Get Lost
Heavy Cross
What's Love Got To Do With It
Качество: HDTV 1080i
Контейнер: TS
Видео кодек: H.264
Аудио кодек: AC3
Видео: Mpeg4 AVC, 1920x1080, 6740 kbps, 25 fps
Аудио: AC3, 256 kbps, 48 kHz, stereo
Аудио 2: AC3, 256 kbps, 48 kHz, stereo
Аудио 3: AC3, 256 kbps, 48 kHz, stereo

Отчёт MediaInfo / BDInfo

GeneralID : 1 (0x1)Complete name : D:\Downloads\Gossip in Concert 2012.tsFormat : MPEG-TSFile size : 3.46 GiBDuration : 1h 1mnOverall bit rate mode : VariableOverall bit rate : 8 106 Kbps
VideoID : 571 (0x23B)Menu ID : 1 (0x1)Format : AVCFormat/Info : Advanced Video CodecFormat profile : High@L4.0Format settings, CABAC : YesFormat settings, ReFrames : 3 framesCodec ID : 27Duration : 1h 1mnBit rate : 6 736 KbpsWidth : 1 920 pixelsHeight : 1 080 pixelsDisplay aspect ratio : 16:9Frame rate : 25.000 fpsStandard : ComponentColor space : YUVChroma subsampling : 4:2:0Bit depth : 8 bitsScan type : InterlacedScan order : Top Field FirstBits/(Pixel*Frame) : 0.130Stream size : 2.88 GiB (83%)Color primaries : BT.601 PALTransfer characteristics : BT.470 System B, BT.470 System GMatrix coefficients : BT.601
Audio #1ID : 572 (0x23C)Menu ID : 1 (0x1)Format : AC-3Format/Info : Audio Coding 3Mode extension : CM (complete main)Format settings, Endianness : BigCodec ID : 6Duration : 1h 1mnBit rate mode : ConstantBit rate : 256 KbpsChannel(s) : 2 channelsChannel positions : Front: L RSampling rate : 48.0 KHzBit depth : 16 bitsCompression mode : LossyStream size : 112 MiB (3%)Language : French
Audio #2ID : 573 (0x23D)Menu ID : 1 (0x1)Format : AC-3Format/Info : Audio Coding 3Mode extension : CM (complete main)Format settings, Endianness : BigCodec ID : 6Duration : 1h 1mnBit rate mode : ConstantBit rate : 256 KbpsChannel(s) : 2 channelsChannel positions : Front: L RSampling rate : 48.0 KHzBit depth : 16 bitsCompression mode : LossyStream size : 112 MiB (3%)Language : qaa
Audio #3ID : 574 (0x23E)Menu ID : 1 (0x1)Format : AC-3Format/Info : Audio Coding 3Mode extension : CM (complete main)Format settings, Endianness : BigCodec ID : 6Duration : 1h 1mnBit rate mode : ConstantBit rate : 256 KbpsChannel(s) : 2 channelsChannel positions : Front: L RSampling rate : 48.0 KHzBit depth : 16 bitsCompression mode : LossyStream size : 112 MiB (3%)Language : qad
Audio #4ID : 577 (0x241)Menu ID : 1 (0x1)Format : AC-3Format/Info : Audio Coding 3Mode extension : CM (complete main)Format settings, Endianness : BigCodec ID : 6Duration : 1h 1mnBit rate mode : ConstantBit rate : 192 KbpsChannel(s) : 2 channelsChannel positions : Front: L RSampling rate : 48.0 KHzBit depth : 16 bitsCompression mode : LossyStream size : 84.0 MiB (2%)Language : German

Скриншоты

[Профиль] [ЛС]
Кто просматривает тему:

Показать сообщения:    

Текущее время: Сегодня 16:40

Часовой пояс: GMT



Вы не можете начинать темы
Вы не можете отвечать на сообщения
Вы не можете редактировать свои сообщения
Вы не можете удалять свои сообщения
Вы не можете голосовать в опросах
Вы не можете прикреплять файлы к сообщениям
Вы не можете скачивать файлы