Gloria Gaynor - Greatest Hits (1988) [APE|Lossless]<Disco>

 
Автор Сообщение

sergej644 ®

Пол:

Стаж: 4 года 11 месяцев

Сообщений: 6043

Откуда: Soviet Union



Награды: Нет

Торрент-статистика

Создавать темы 24-Дек-2014 23:05

[Цитировать]

-Gloria Gaynor - Greatest Hits (1988)- Лейбл: Polydor
Каталог: 833 433-2
Год: 1988
Жанр: Disco
Продолжительность: 01:06:02
Кодек: APE (image+.cue)
Битрейт: Lossless
Треклист:
01. I Will Survive
02. Honey Bee
03. Never Can Say Goodbye
04. Reach Out, I'll Be There
05. Let Me Know (I Have A Right)
06. Casanova Brown
07. (If You Want It) Do It Yourself
08. All I Need Is Your Good Lovin'
09. Walk On By
10. We Can Start All Over Again
11. Let's Mend What's Been Broken

Отчёт ЕАС&#58;

Exact Audio Copy V0.99 prebeta 5 from 4. May 2009
Отчёт EAC об извлечении, выполненном 19. августа 2009, 21:00
Gloria Gaynor / Greatest Hits
Дисковод: PIONEER DVD-RW  DVR-216D   Adapter: 0  ID: 0
Режим чтения                 : Достоверность
Использование точного потока : Да
Отключение кэша аудио        : Да
Использование указателей C2  : Нет
Коррекция смещения при чтении                     : 96
Способность читать области Lead-in и Lead-out     : Нет
Заполнение пропущенных сэмплов тишиной            : Да
Удаление блоков с тишиной в начале и конце        : Нет
При вычислениях CRC использовались нулевые сэмплы : Да
Интерфейс                                         : Установленный внешний ASPI-интерфейс
Выходной формат : Внутренние WAV-операции
Формат сэмплов  : 44.100 Гц; 16 бит; стерео
TOC извлечённого CD
     Трек |   Старт  | Длительность | Начальный сектор | Конечный сектор
    ---------------------------------------------------------------------
       1  |  0:00.00 |    7:57.73   |           0      |      35847
       2  |  7:57.73 |    6:00.37   |       35848      |      62884
       3  | 13:58.35 |    6:19.13   |       62885      |      91322
       4  | 20:17.48 |    6:14.57   |       91323      |     119429
       5  | 26:32.30 |    8:22.63   |      119430      |     157142
       6  | 34:55.18 |    6:22.47   |      157143      |     185839
       7  | 41:17.65 |    5:59.00   |      185840      |     212764
       8  | 47:16.65 |    2:46.33   |      212765      |     225247
       9  | 50:03.23 |    5:43.47   |      225248      |     251019
      10  | 55:46.70 |    5:10.23   |      251020      |     274292
      11  | 60:57.18 |    5:05.22   |      274293      |     297189
Характеристики диапазона извлечения и сообщения об ошибках
Выбранный диапазон
     Имя файла D:\DVD\Раздачи торрентов\GLORIA GAYNOR\Gloria Gaynor - Greatest Hits.wav
     Пиковый уровень 100.0 %
     Качество диапазона 99.9 %
     CRC копии EDDE842E
     Копирование... OK
Ошибок не произошло
Конец отчёта

Отчёт auCDtect Task manager&#58;

-----------------------
DON'T MODIFY THIS FILE
-----------------------
PERFORMER: auCDtect Task Manager, ver. 1.5.1RC4 build 1.5.1.5
Copyright (c) 2008-2010 y-soft. All rights reserved
http://y-soft.org
ANALYZER: auCDtect: CD records authenticity detector, version 0.8.2
Copyright (c) 2004 Oleg Berngardt. All rights reserved.
Copyright (c) 2004 Alexander Djourik. All rights reserved.
FILE: Gloria Gaynor - Greatest Hits.ape
  Size: 440480272 Hash: 5046D89E2A346EB62FF1CDCCC8EACEC7 Accuracy: -m0
  Conclusion: CDDA 100%
  Signature: D2F6223BF6E70405FFD4DB3FAF340BA9591EEADB

Содержимое индексной карты&#58;

REM GENRE Disco
REM DATE 1988
REM DISCID B00F7A0B
REM COMMENT "ExactAudioCopy v0.99pb5"
PERFORMER "Gloria Gaynor"
TITLE "Greatest Hits"
FILE "Gloria Gaynor - Greatest Hits.ape" WAVE
  TRACK 01 AUDIO
    TITLE "I Will Survive"
    PERFORMER "Gloria Gaynor"
    INDEX 01 00:00:00
  TRACK 02 AUDIO
    TITLE "Honey Bee"
    PERFORMER "Gloria Gaynor"
    INDEX 01 07:57:73
  TRACK 03 AUDIO
    TITLE "Never Can Say Goodbye"
    PERFORMER "Gloria Gaynor"
    INDEX 01 13:58:35
  TRACK 04 AUDIO
    TITLE "Reach Out, I'll Be There"
    PERFORMER "Gloria Gaynor"
    INDEX 01 20:17:48
  TRACK 05 AUDIO
    TITLE "Let Me Know (I Have A Right)"
    PERFORMER "Gloria Gaynor"
    INDEX 01 26:32:30
  TRACK 06 AUDIO
    TITLE "Casanova Brown"
    PERFORMER "Gloria Gaynor"
    INDEX 01 34:55:18
  TRACK 07 AUDIO
    TITLE "(If You Want It) Do It Yourself"
    PERFORMER "Gloria Gaynor"
    INDEX 01 41:17:65
  TRACK 08 AUDIO
    TITLE "All I Need Is Your Good Lovin'"
    PERFORMER "Gloria Gaynor"
    INDEX 01 47:16:65
  TRACK 09 AUDIO
    TITLE "Walk On By"
    PERFORMER "Gloria Gaynor"
    INDEX 01 50:03:23
  TRACK 10 AUDIO
    TITLE "We Can Start All Over Again"
    PERFORMER "Gloria Gaynor"
    INDEX 01 55:46:70
  TRACK 11 AUDIO
    TITLE "Let's Mend What's Been Broken"
    PERFORMER "Gloria Gaynor"
    INDEX 01 60:57:18
Время раздачи: С 12:30 до 18:00 и с 20:00 до 08:00 Мск., до 5-ти сидирующих
[Профиль] [ЛС]

Создавать темы 13-Авг-2015 10:41 (спустя 7 месяцев 19 дней)

Топик был перенесен из форума Зарубежная в форум Technopop, Eurodance, Disco
sergej644
 
Кто просматривает тему:

Форум Тема Автор Размер
Technopop, Eurodance, Disco (Disco, Funk, Soul)Gloria Gaynor - Gloria Gaynor Greatest Hits (2015) FLAC sergej644 656 MB
Показать сообщения:    

Текущее время: Сегодня 12:44

Часовой пояс: GMT



Вы не можете начинать темы
Вы не можете отвечать на сообщения
Вы не можете редактировать свои сообщения
Вы не можете удалять свои сообщения
Вы не можете голосовать в опросах
Вы не можете прикреплять файлы к сообщениям
Вы не можете скачивать файлы