(Hard Rock) Glenn Hughes-Geoff Downes - The Work Tapes - 1999 [FLAC, image+.cue, lossless]

 
Автор Сообщение

sergej644 ®

Пол:

Стаж: 4 года 11 месяцев

Сообщений: 6041

Откуда: Soviet Union



Награды: Нет

Торрент-статистика

Создавать темы 03-Июл-2015 11:25

[Цитировать]

-Glenn Hughes-Geoff Downes / The Work Tapes--
Год издания: 1999
Страна: UK
Жанр: Hard Rock
Продолжительность: 00:44:32- Лейбл издания: RockHead Records
Страна-выпуска диска: EU
Номер по каталогу: RHRCD - 9821-4
Формат: FLAC
Битрейт аудио: lossless
Тип рипа: image+.cue
Наличие сканов в содержимом раздачи: да
-

Трэклист

01. Glenn Hughes-Geoff Downes - Bed Of Roses (03:59)
02. Glenn Hughes-Geoff Downes - Don't Walk Away (04:24)
03. Glenn Hughes-Geoff Downes - Love For Sale (03:56)
04. Glenn Hughes-Geoff Downes - Push (04:26)
05. Glenn Hughes-Geoff Downes - Funk Music (05:10)
06. Glenn Hughes-Geoff Downes - Double Life (04:57)
07. Glenn Hughes-Geoff Downes - How Was I To Know? (04:04)
08. Glenn Hughes-Geoff Downes - Walking On A Thin Line (04:37)
09. Glenn Hughes-Geoff Downes - Dance With Me (05:01)
10. Glenn Hughes-Geoff Downes - Feel The Magic (04:04)

Лог создания рипа

Exact Audio Copy V0.99 prebeta 5 from 4. May 2009
Отчёт EAC об извлечении, выполненном 20. февраля 2010, 17:45
Glenn Hughes-Geoff Downes / The Work Tapes
Дисковод: PIONEER DVD-RW  DVR-109   Adapter: 3  ID: 1
Режим чтения                 : Достоверность
Использование точного потока : Да
Отключение кэша аудио        : Да
Использование указателей C2  : Нет
Коррекция смещения при чтении                     : 48
Способность читать области Lead-in и Lead-out     : Нет
Заполнение пропущенных сэмплов тишиной            : Да
Удаление блоков с тишиной в начале и конце        : Нет
При вычислениях CRC использовались нулевые сэмплы : Да
Интерфейс                                         : Установленный внешний ASPI-интерфейс
Выходной формат          : Пользовательский кодировщик
Выбранный битрейт        : 768 kBit/s
Качество                 : Высокий
Добавление ID3-тэга      : Нет
Утилита сжатия           : C:\Program Files\Exact Audio Copy\FLAC\FLAC.EXE
Дополнительные параметры : -8 -V %s
TOC извлечённого CD
     Трек |   Старт  | Длительность | Начальный сектор | Конечный сектор
    ---------------------------------------------------------------------
       1  |  0:00.00 |    3:58.09   |           0      |      17858
       2  |  3:58.09 |    4:23.08   |       17859      |      37591
       3  |  8:21.17 |    3:55.05   |       37592      |      55221
       4  | 12:16.22 |    4:25.23   |       55222      |      75119
       5  | 16:41.45 |    5:09.33   |       75120      |      98327
       6  | 21:51.03 |    4:56.44   |       98328      |     120571
       7  | 26:47.47 |    4:03.10   |      120572      |     138806
       8  | 30:50.57 |    4:36.56   |      138807      |     159562
       9  | 35:27.38 |    5:00.50   |      159563      |     182112
      10  | 40:28.13 |    4:03.32   |      182113      |     200369
Характеристики диапазона извлечения и сообщения об ошибках
Выбранный диапазон
     Имя файла C:\Documents and Settings\Admin\Мои документы\Моя музыка\Glenn Hughes-Geoff Downes - The Work Tapes.wav
     Пиковый уровень 96.9 %
     Качество диапазона 100.0 %
     CRC теста 95E29E7C
     CRC копии 95E29E7C
     Копирование... OK
Ошибок не произошло
AccurateRip: сводка
Трек  1  точность не определена (достоверность 3)  [638DE029], AccurateRip вернул [A5E33549]
Трек  2  точность не определена (достоверность 3)  [3C80715C], AccurateRip вернул [0A4E84E4]
Трек  3  точность не определена (достоверность 3)  [C33D615B], AccurateRip вернул [B7490691]
Трек  4  точность не определена (достоверность 3)  [B69C19E5], AccurateRip вернул [A44085A4]
Трек  5  точность не определена (достоверность 3)  [C83942BF], AccurateRip вернул [C228F88B]
Трек  6  точность не определена (достоверность 3)  [F2FA9D38], AccurateRip вернул [350B8CBF]
Трек  7  точность не определена (достоверность 3)  [A5024D29], AccurateRip вернул [061A8A91]
Трек  8  точность не определена (достоверность 3)  [6018395E], AccurateRip вернул [086AB0FF]
Трек  9  точность не определена (достоверность 3)  [5B29A1CE], AccurateRip вернул [A2C1F112]
Трек 10  точность не определена (достоверность 3)  [FD5164DE], AccurateRip вернул [CD80BC3A]
Ни один трек не прошёл проверки на точность
В вашей базе может быть иной вариант штамповки диска
Конец отчёта

Индексная карта (non-compilant .cue)

REM GENRE Rock
REM DATE 1998
REM DISCID 650A6F0A
REM COMMENT "ExactAudioCopy v0.99pb5"
PERFORMER "Glenn Hughes-Geoff Downes"
TITLE "The Work Tapes"
FILE "Glenn Hughes-Geoff Downes - The Work Tapes.flac" WAVE
  TRACK 01 AUDIO
    TITLE "Bed Of Roses"
    PERFORMER "Glenn Hughes-Geoff Downes"
    INDEX 01 00:00:00
  TRACK 02 AUDIO
    TITLE "Don't Walk Away"
    PERFORMER "Glenn Hughes-Geoff Downes"
    INDEX 00 03:54:69
    INDEX 01 03:58:09
  TRACK 03 AUDIO
    TITLE "Love For Sale"
    PERFORMER "Glenn Hughes-Geoff Downes"
    INDEX 00 08:17:69
    INDEX 01 08:21:17
  TRACK 04 AUDIO
    TITLE "Push"
    PERFORMER "Glenn Hughes-Geoff Downes"
    INDEX 00 12:13:15
    INDEX 01 12:16:22
  TRACK 05 AUDIO
    TITLE "Funk Music"
    PERFORMER "Glenn Hughes-Geoff Downes"
    INDEX 00 16:38:45
    INDEX 01 16:41:45
  TRACK 06 AUDIO
    TITLE "Double Life"
    PERFORMER "Glenn Hughes-Geoff Downes"
    INDEX 00 21:47:33
    INDEX 01 21:51:03
  TRACK 07 AUDIO
    TITLE "How Was I To Know?"
    PERFORMER "Glenn Hughes-Geoff Downes"
    INDEX 00 26:44:05
    INDEX 01 26:47:47
  TRACK 08 AUDIO
    TITLE "Walking On A Thin Line"
    PERFORMER "Glenn Hughes-Geoff Downes"
    INDEX 00 30:47:06
    INDEX 01 30:50:57
  TRACK 09 AUDIO
    TITLE "Dance With Me"
    PERFORMER "Glenn Hughes-Geoff Downes"
    INDEX 00 35:23:36
    INDEX 01 35:27:38
  TRACK 10 AUDIO
    TITLE "Feel The Magic"
    PERFORMER "Glenn Hughes-Geoff Downes"
    INDEX 00 40:24:31
    INDEX 01 40:28:13

Скриншот спектра частот

-Не забываем говорить
[Профиль] [ЛС]
Показать сообщения:    

Текущее время: Сегодня 08:32

Часовой пояс: GMT



Вы не можете начинать темы
Вы не можете отвечать на сообщения
Вы не можете редактировать свои сообщения
Вы не можете удалять свои сообщения
Вы не можете голосовать в опросах
Вы не можете прикреплять файлы к сообщениям
Вы не можете скачивать файлы