(Hard Rock)GILLAN - Gillan At The BBC (1997) 2 CD Live, Nippon Crown Co. Japan/ 1997, [FLAC (image+cue),Lossless]

 
Автор Сообщение

sergej644 ®

Пол:

Стаж: 4 года 11 месяцев

Сообщений: 6042

Откуда: Soviet Union



Награды: Нет

Торрент-статистика

Создавать темы 13-Окт-2014 07:02

[Цитировать]

-GILLAN - Gillan At The BBC (1997) 2 CD Live-Год: 1997
Издание: Nippon Crown Co. Japan
Каталог№: CRCL-4030~1
Жанр: Hard Rock
Продолжительность: 02:20:16
Кодек: FLAC
Метод сжатия: Lossless
Тип рипа: Image+.cue
Источник(Релизёр) : Bigbeer
Сканы: Есть

Состав:

Ian Gillan - Vocals
Bernie Torme - Guitar
Colin Towns - Keyboards
John McCoy - Bass
Mick Underwood - Drums
-

1979 Dead Of Night

DR8
Продолжительность: 01:11:14-Треклист:-01. Interview With Ian Gillan (4:58)
02. Sleeping On The Job (LIVE) (4:17)
03. Mr. Universe (LIVE) (6:29)
04. Dead Of Night (LIVE) (9:06)
05. Roller (LIVE) (5:50)
06. Vengeance (LIVE) (5:14)
07. Smoke On The Water (LIVE) (7:53)
08. Secret Of The Dance (LIVE) (3:40)
09. Sleeping On The Job (LIVE) (3:57)
10. Mr. Universe (LIVE) (7:19)
11. Dead Of Night (LIVE) (7:43)
12. Vengeance (LIVE) (4:48)

Содержимое индексной карты:

REM GENRE "Hard Rock"
REM DATE 1997
REM DISCID B610B10C
REM COMMENT "ExactAudioCopy v1.0b3"
PERFORMER "GILLAN"
TITLE "Gillan At The BBC (DISC 1- Dead Of Night)"
FILE "GILLAN - Gillan At The BBC (DISC 1- Dead Of Night).flac" WAVE
  TRACK 01 AUDIO
    TITLE "Interview With Ian Gillan"
    PERFORMER "GILLAN"
    INDEX 01 00:00:00
  TRACK 02 AUDIO
    TITLE "Sleeping On The Job (LIVE)"
    PERFORMER "GILLAN"
    INDEX 01 04:58:10
  TRACK 03 AUDIO
    TITLE "Mr. Universe (LIVE)"
    PERFORMER "GILLAN"
    INDEX 01 09:15:20
  TRACK 04 AUDIO
    TITLE "Dead Of Night (LIVE)"
    PERFORMER "GILLAN"
    INDEX 01 15:44:17
  TRACK 05 AUDIO
    TITLE "Roller (LIVE)"
    PERFORMER "GILLAN"
    INDEX 01 24:50:42
  TRACK 06 AUDIO
    TITLE "Vengeance (LIVE)"
    PERFORMER "GILLAN"
    INDEX 01 30:40:07
  TRACK 07 AUDIO
    TITLE "Smoke On The Water (LIVE)"
    PERFORMER "GILLAN"
    INDEX 01 35:53:62
  TRACK 08 AUDIO
    TITLE "Secret Of The Dance (LIVE)"
    PERFORMER "GILLAN"
    INDEX 01 43:46:55
  TRACK 09 AUDIO
    TITLE "Sleeping On The Job (LIVE)"
    PERFORMER "GILLAN"
    INDEX 01 47:26:47
  TRACK 10 AUDIO
    TITLE "Mr. Universe (LIVE)"
    PERFORMER "GILLAN"
    INDEX 01 51:23:20
  TRACK 11 AUDIO
    TITLE "Dead Of Night (LIVE)"
    PERFORMER "GILLAN"
    INDEX 01 58:42:27
  TRACK 12 AUDIO
    TITLE "Vengeance (LIVE)"
    PERFORMER "GILLAN"
    INDEX 01 66:25:52

Отчёт ЕАС:

Exact Audio Copy V1.0 beta 3 from 29. August 2011
EAC extraction logfile from 14. June 2014, 18:19
GILLAN / Gillan At The BBC (DISC 1- Dead Of Night)
Used drive  : Optiarc DVD RW AD-7243S   Adapter: 2  ID: 0
Read mode               : Secure
Utilize accurate stream : Yes
Defeat audio cache      : Yes
Make use of C2 pointers : No
Read offset correction                      : 48
Overread into Lead-In and Lead-Out          : No
Fill up missing offset samples with silence : Yes
Delete leading and trailing silent blocks   : No
Null samples used in CRC calculations       : Yes
Used interface                              : Native Win32 interface for Win NT & 2000
Used output format              : User Defined Encoder
Selected bitrate                : 1024 kBit/s
Quality                         : High
Add ID3 tag                     : No
Command line compressor         : C:\Program Files (x86)\Exact Audio Copy\Flac\flac.exe
Additional command line options : -8 -V -T "ARTIST=%artist%" -T "TITLE=%title%" -T "ALBUM=%albumtitle%" -T "DATE=%year%" -T "TRACKNUMBER=%tracknr1%" -T "GENRE=%genre%" -T "PERFORMER=%albuminterpret%" -T "COMPOSER=%composer%" %haslyrics%--tag-from-file=LYRICS="%lyricsfile%"%haslyrics% -T "ALBUMARTIST=%albumartist%" -T "DISCNUMBER=%cdnumber%" -T "TOTALDISCS=%totalcds%" -T "TOTALTRACKS=%numtracks%" -T "COMMENT=%comment%" %source% -o %dest%
TOC of the extracted CD
     Track |   Start  |  Length  | Start sector | End sector
    ---------------------------------------------------------
        1  |  0:00.00 |  4:58.10 |         0    |    22359
        2  |  4:58.10 |  4:17.10 |     22360    |    41644
        3  |  9:15.20 |  6:28.72 |     41645    |    70816
        4  | 15:44.17 |  9:06.25 |     70817    |   111791
        5  | 24:50.42 |  5:49.40 |    111792    |   138006
        6  | 30:40.07 |  5:13.55 |    138007    |   161536
        7  | 35:53.62 |  7:52.68 |    161537    |   197004
        8  | 43:46.55 |  3:39.67 |    197005    |   213496
        9  | 47:26.47 |  3:56.48 |    213497    |   231244
       10  | 51:23.20 |  7:19.07 |    231245    |   264176
       11  | 58:42.27 |  7:43.25 |    264177    |   298926
       12  | 66:25.52 |  4:47.68 |    298927    |   320519
Range status and errors
Selected range
     Filename D:\CD-Rip\Ian Gillan - Gillan At BBC (1980) 2CD Japan 1997\CD 1 1979 Dead Of Night\GILLAN - Gillan At The BBC (DISC 1- Dead Of Night).wav
         Peak level 93.7 %
     Extraction speed 4.5 X
     Range quality 98.4 %
     Test CRC 4D2BD9A4
     Copy CRC 4D2BD9A4
     Copy OK
No errors occurred
AccurateRip summary
Track  1  accurately ripped (confidence 1)  [F04BF0EF]  (AR v2)
Track  2  accurately ripped (confidence 1)  [F0DDBEA9]  (AR v2)
Track  3  accurately ripped (confidence 1)  [EDED691B]  (AR v2)
Track  4  accurately ripped (confidence 1)  [1692CC8F]  (AR v2)
Track  5  accurately ripped (confidence 1)  [28BD2A1C]  (AR v2)
Track  6  accurately ripped (confidence 1)  [F5B4001E]  (AR v2)
Track  7  accurately ripped (confidence 1)  [2596392E]  (AR v2)
Track  8  accurately ripped (confidence 1)  [5919796B]  (AR v2)
Track  9  accurately ripped (confidence 1)  [7776FC90]  (AR v2)
Track 10  accurately ripped (confidence 1)  [32CB86D1]  (AR v2)
Track 11  cannot be verified as accurate (confidence 1)  [557ACFD3], AccurateRip returned [08DB97A3]  (AR v2)
Track 12  cannot be verified as accurate (confidence 1)  [7646C7E5], AccurateRip returned [158E1A32]  (AR v2)
10 трек(и) скопированы точно
2 трек(и) не удалось проверить на точность
Some tracks could not be verified as accurate
End of status report
---- CUETools DB Plugin V2.1.3
[CTDB TOCID: jZlyzik1UYwKjCszxcoBGVayxfY-] found, Submit result: already submitted
[caa4439d] (1/1) No match
==== Log checksum C3BF5966FE8D4BC7A44993EA401BA971B1E925787B36C3BD4B2CA73A92EDD9A2 ====

Отчет auCDtect Task manager:

-----------------------
DON'T MODIFY THIS FILE
-----------------------
PERFORMER: auCDtect Task Manager, ver. 1.6.0 RC1 build 1.6.0.1
Copyright (c) 2008-2010 y-soft. All rights reserved
http://y-soft.org
ANALYZER: auCDtect: CD records authenticity detector, version 0.8.2
Copyright (c) 2004 Oleg Berngardt. All rights reserved.
Copyright (c) 2004 Alexander Djourik. All rights reserved.
FILE: GILLAN - Gillan At The BBC (DISC 1- Dead Of Night).flac
  Size: 545171541 Hash: 71611637FB94731DFA7636D81A1026D6 Accuracy: -m0
  Conclusion: CDDA 100%
  Signature: 730E4AE1F2DBD09CD2DED11EAA180D68C2B42AB2
-

1980 Unchain Your Brain

DR8 DR8
Продолжительность: 01:09:03-Треклист:-01. Unchain Your Brain (LIVE) (4:09)
02. Are You Sure ? (LIVE) (4:42)
03. Mr. Universe (LIVE) (6:44)
04. No Easy Way (LIVE) (9:06)
05. Trouble (LIVE) (3:25)
06. If You Believe Me (LIVE) (8:20)
07. On The Rocks (LIVE) (5:59)
08. Nervous (LIVE) (4:07)
09. Running White Face Citty Boy (LIVE) (3:38)
10. Vengeance (LIVE) (4:19)
11. Lucille (LIVE) (3:14)
12. Interview With Ian Gillan (LIVE) (2:26)
13. If You Believe Me (LIVE) (8:54)

Содержимое индексной карты:

REM GENRE "Hard Rock"
REM DATE 1997
REM DISCID B0102E0D
REM COMMENT "ExactAudioCopy v1.0b3"
PERFORMER "GILLAN"
TITLE "Gillan At The BBC (DISC 2- Unchain Your Brain)"
FILE "GILLAN - Gillan At The BBC (DISC 2- Unchain Your Brain).flac" WAVE
  TRACK 01 AUDIO
    TITLE "Unchain Your Brain (LIVE)"
    PERFORMER "GILLAN"
    INDEX 01 00:00:00
  TRACK 02 AUDIO
    TITLE "Are You Sure ? (LIVE)"
    PERFORMER "GILLAN"
    INDEX 01 04:08:52
  TRACK 03 AUDIO
    TITLE "Mr. Universe (LIVE)"
    PERFORMER "GILLAN"
    INDEX 01 08:50:40
  TRACK 04 AUDIO
    TITLE "No Easy Way (LIVE)"
    PERFORMER "GILLAN"
    INDEX 01 15:34:42
  TRACK 05 AUDIO
    TITLE "Trouble (LIVE)"
    PERFORMER "GILLAN"
    INDEX 01 24:40:25
  TRACK 06 AUDIO
    TITLE "If You Believe Me (LIVE)"
    PERFORMER "GILLAN"
    INDEX 01 28:05:15
  TRACK 07 AUDIO
    TITLE "On The Rocks (LIVE)"
    PERFORMER "GILLAN"
    INDEX 01 36:25:37
  TRACK 08 AUDIO
    TITLE "Nervous (LIVE)"
    PERFORMER "GILLAN"
    INDEX 01 42:24:65
  TRACK 09 AUDIO
    TITLE "Running White Face Citty Boy (LIVE)"
    PERFORMER "GILLAN"
    INDEX 01 46:32:02
  TRACK 10 AUDIO
    TITLE "Vengeance (LIVE)"
    PERFORMER "GILLAN"
    INDEX 01 50:10:20
  TRACK 11 AUDIO
    TITLE "Lucille (LIVE)"
    PERFORMER "GILLAN"
    INDEX 01 54:28:65
  TRACK 12 AUDIO
    TITLE "Interview With Ian Gillan (LIVE)"
    PERFORMER "GILLAN"
    INDEX 01 57:42:37
  TRACK 13 AUDIO
    TITLE "If You Believe Me (LIVE)"
    PERFORMER "GILLAN"
    INDEX 01 60:08:12

Отчёт ЕАС:

Exact Audio Copy V1.0 beta 3 from 29. August 2011
EAC extraction logfile from 14. June 2014, 18:58
GILLAN / Gillan At The BBC (DISC 2- Unchain Your Brain)
Used drive  : Optiarc DVD RW AD-7243S   Adapter: 2  ID: 0
Read mode               : Secure
Utilize accurate stream : Yes
Defeat audio cache      : Yes
Make use of C2 pointers : No
Read offset correction                      : 48
Overread into Lead-In and Lead-Out          : No
Fill up missing offset samples with silence : Yes
Delete leading and trailing silent blocks   : No
Null samples used in CRC calculations       : Yes
Used interface                              : Native Win32 interface for Win NT & 2000
Used output format              : User Defined Encoder
Selected bitrate                : 1024 kBit/s
Quality                         : High
Add ID3 tag                     : No
Command line compressor         : C:\Program Files (x86)\Exact Audio Copy\Flac\flac.exe
Additional command line options : -8 -V -T "ARTIST=%artist%" -T "TITLE=%title%" -T "ALBUM=%albumtitle%" -T "DATE=%year%" -T "TRACKNUMBER=%tracknr1%" -T "GENRE=%genre%" -T "PERFORMER=%albuminterpret%" -T "COMPOSER=%composer%" %haslyrics%--tag-from-file=LYRICS="%lyricsfile%"%haslyrics% -T "ALBUMARTIST=%albumartist%" -T "DISCNUMBER=%cdnumber%" -T "TOTALDISCS=%totalcds%" -T "TOTALTRACKS=%numtracks%" -T "COMMENT=%comment%" %source% -o %dest%
TOC of the extracted CD
     Track |   Start  |  Length  | Start sector | End sector
    ---------------------------------------------------------
        1  |  0:00.00 |  4:08.52 |         0    |    18651
        2  |  4:08.52 |  4:41.63 |     18652    |    39789
        3  |  8:50.40 |  6:44.02 |     39790    |    70091
        4  | 15:34.42 |  9:05.58 |     70092    |   111024
        5  | 24:40.25 |  3:24.65 |    111025    |   126389
        6  | 28:05.15 |  8:20.22 |    126390    |   163911
        7  | 36:25.37 |  5:59.28 |    163912    |   190864
        8  | 42:24.65 |  4:07.12 |    190865    |   209401
        9  | 46:32.02 |  3:38.18 |    209402    |   225769
       10  | 50:10.20 |  4:18.45 |    225770    |   245164
       11  | 54:28.65 |  3:13.47 |    245165    |   259686
       12  | 57:42.37 |  2:25.50 |    259687    |   270611
       13  | 60:08.12 |  8:54.30 |    270612    |   310691
Range status and errors
Selected range
     Filename D:\CD-Rip\Ian Gillan - Gillan At BBC (1980) 2CD Japan 1997\CD 2 1980 Unchain Your Brain\GILLAN - Gillan At The BBC (DISC 2- Unchain Your Brain).wav
     Peak level 93.7 %
     Extraction speed 4.5 X
     Range quality 100.0 %
     Test CRC FC7C96FF
     Copy CRC FC7C96FF
     Copy OK
No errors occurred
AccurateRip summary
Track  1  accurately ripped (confidence 1)  [D1453833]  (AR v2)
Track  2  accurately ripped (confidence 1)  [42949A08]  (AR v2)
Track  3  accurately ripped (confidence 1)  [1E87336D]  (AR v2)
Track  4  accurately ripped (confidence 1)  [FBB6F11F]  (AR v2)
Track  5  accurately ripped (confidence 1)  [5C829C17]  (AR v2)
Track  6  accurately ripped (confidence 1)  [F3C864C6]  (AR v2)
Track  7  accurately ripped (confidence 1)  [C2890F94]  (AR v2)
Track  8  accurately ripped (confidence 1)  [135669D0]  (AR v2)
Track  9  accurately ripped (confidence 1)  [A4C8AFBF]  (AR v2)
Track 10  accurately ripped (confidence 1)  [86E416C5]  (AR v2)
Track 11  accurately ripped (confidence 1)  [95924BEF]  (AR v2)
Track 12  accurately ripped (confidence 1)  [B4D7F2DF]  (AR v2)
Track 13  accurately ripped (confidence 1)  [AC1A5A65]  (AR v2)
All tracks accurately ripped
End of status report
---- CUETools DB Plugin V2.1.3
[CTDB TOCID: yvwB36NU6Eezw095wHFTVXDL07g-] found, Submit result: already submitted
[d859de6d] (2/2) Accurately ripped
==== Log checksum 3E7F1F2864ECBAA013CEEA75FC6349CFC5D9231D738AF042026C0E94A53CC2C6 ====

Отчет auCDtect Task manager:

-----------------------
DON'T MODIFY THIS FILE
-----------------------
PERFORMER: auCDtect Task Manager, ver. 1.6.0 RC1 build 1.6.0.1
Copyright (c) 2008-2010 y-soft. All rights reserved
http://y-soft.org
ANALYZER: auCDtect: CD records authenticity detector, version 0.8.2
Copyright (c) 2004 Oleg Berngardt. All rights reserved.
Copyright (c) 2004 Alexander Djourik. All rights reserved.
FILE: GILLAN - Gillan At The BBC (DISC 2- Unchain Your Brain).flac
  Size: 486343757 Hash: 8232C3E7B9911B445C72D2E57161CA55 Accuracy: -m0
  Conclusion: CDDA 100%
  Signature: 9BBBB43E79AC823442F2D31BCE981061370307A8
[Профиль] [ЛС]
Показать сообщения:    

Текущее время: Сегодня 14:29

Часовой пояс: GMT



Вы не можете начинать темы
Вы не можете отвечать на сообщения
Вы не можете редактировать свои сообщения
Вы не можете удалять свои сообщения
Вы не можете голосовать в опросах
Вы не можете прикреплять файлы к сообщениям
Вы не можете скачивать файлы