Gilla - I Like Some Cool Rock 'N' Roll (2010) [FLAC|Lossless]<Disco>

 
Автор Сообщение

sergej644 ®

Пол:

Стаж: 4 года 11 месяцев

Сообщений: 6038

Откуда: Soviet Union



Награды: Нет

Торрент-статистика

Создавать темы 24-Дек-2014 22:29

[Цитировать]

-Gilla - I Like Some Cool Rock 'N' Roll (2010)- Год: 2010
Лейбл: Hansa
Каталог #: 201 406 - 2
Жанр: Disco
Продолжительность: 00:56:50
Кодек: FLAC
Битрейт: Lossless
Тип битрейта: image+.cue
Треклист:
01. Go Down Mainstreet 4:07
02. Discothek 3:48
03. The Heat Is On 3:44
04. We Gotta Get Out Of This Place 4:41
05. Queen Of The Night 3:21
06. Cool Rock 'N' Roll 3:41
07. Take Your Time 3:41
08. Heartbreaker 3:41
09. Tom Cat 3:58
10. The Summerwind 3:51
11. Go Down Mainstreet (Long Version) 6:29
12. Discothek (Long Version) 6:23
13. We Gotta Get Out Of This Place (Long Version) 5:24

Отчёт ЕАС&#58;

Exact Audio Copy V0.99 prebeta 5 from 4. May 2009
Отчёт EAC об извлечении, выполненном 27. июня 2010, 12:23
Gilla / I Like Some Cool Rock 'N' Roll
Дисковод: Optiarc DVD RW AD-5200A Adapter: 0 ID: 0
Режим чтения : Достоверность
Использование точного потока : Да
Отключение кэша аудио : Да
Использование указателей C2 : Нет
Коррекция смещения при чтении : 48
Способность читать области Lead-in и Lead-out : Нет
Заполнение пропущенных сэмплов тишиной : Да
Удаление блоков с тишиной в начале и конце : Нет
При вычислениях CRC использовались нулевые сэмплы : Да
Интерфейс : Встроенный Win32-интерфейс для Win NT/2000
Выходной формат : Внутренние WAV-операции
Формат сэмплов : 44.100 Гц; 16 бит; стерео
TOC извлечённого CD
Трек | Старт | Длительность | Начальный сектор | Конечный сектор
---------------------------------------------------------------------
1 | 0:00.00 | 4:06.40 | 0 | 18489
2 | 4:06.40 | 3:48.26 | 18490 | 35615
3 | 7:54.66 | 3:44.30 | 35616 | 52445
4 | 11:39.21 | 4:40.51 | 52446 | 73496
5 | 16:19.72 | 3:20.39 | 73497 | 88535
6 | 19:40.36 | 3:41.33 | 88536 | 105143
7 | 23:21.69 | 3:40.56 | 105144 | 121699
8 | 27:02.50 | 3:41.33 | 121700 | 138307
9 | 30:44.08 | 3:57.67 | 138308 | 156149
10 | 34:42.00 | 3:51.34 | 156150 | 173508
11 | 38:33.34 | 6:29.23 | 173509 | 202706
12 | 45:02.57 | 6:23.23 | 202707 | 231454
13 | 51:26.05 | 5:24.08 | 231455 | 255762
Характеристики диапазона извлечения и сообщения об ошибках
Выбранный диапазон
Имя файла D:\All\Music\Gilla - I Like Some Cool Rock 'N' Roll\Gilla - I Like Some Cool Rock 'N' Roll.wav
Пиковый уровень 96.6 %
Качество диапазона 100.0 %
CRC теста 0AEBDE92
CRC копии 0AEBDE92
Копирование... OK
Ошибок не произошло
AccurateRip: сводка
Трек 1 точность не определена (достоверность 3) [C978DD2E], AccurateRip вернул [3D7E768E]
Трек 2 точность не определена (достоверность 3) [99612ED9], AccurateRip вернул [1B3C835B]
Трек 3 точность не определена (достоверность 3) [8E0D69C6], AccurateRip вернул [92559612]
Трек 4 точность не определена (достоверность 3) [50C442AE], AccurateRip вернул [6F1C333E]
Трек 5 точность не определена (достоверность 3) [80B42747], AccurateRip вернул [43444891]
Трек 6 точность не определена (достоверность 3) [8FCEE39B], AccurateRip вернул [D5127387]
Трек 7 точность не определена (достоверность 3) [1085A92A], AccurateRip вернул [DEBFDC2E]
Трек 8 точность не определена (достоверность 3) [48867794], AccurateRip вернул [0568A0C6]
Трек 9 точность не определена (достоверность 3) [617B063B], AccurateRip вернул [17756761]
Трек 10 точность не определена (достоверность 3) [64AF5D0A], AccurateRip вернул [545F6B58]
Трек 11 точность не определена (достоверность 3) [2798CE71], AccurateRip вернул [5617BE43]
Трек 12 точность не определена (достоверность 3) [4D7B0A41], AccurateRip вернул [55921AE9]
Трек 13 точность не определена (достоверность 3) [02F18F1A], AccurateRip вернул [16E1CC70]
Ни один трек не прошёл проверки на точность
В вашей базе может быть иной вариант штамповки диска
Конец отчёта

Отчёт auCDtect Task manager&#58;

-----------------------
DON'T MODIFY THIS FILE
-----------------------
PERFORMER: auCDtect Task Manager, ver. 1.5.1RC4 build 1.5.1.5
Copyright (c) 2008-2010 y-soft. All rights reserved
http://y-soft.org
ANALYZER: auCDtect: CD records authenticity detector, version 0.8.2
Copyright (c) 2004 Oleg Berngardt. All rights reserved.
Copyright (c) 2004 Alexander Djourik. All rights reserved.
FILE: Gilla - I Like Some Cool Rock 'N' Roll.flac
  Size: 407185823 Hash: 7DFC13A9AB14F7D1A90C25C33F41CA58 Accuracy: -m0
  Conclusion: CDDA 99%
  Signature: F4BD7D541BB12C5F7C3ABC742E820BE6861681C8

Содержание индексной карты (.CUE&#41;&#58;

REM GENRE Disco
REM DATE 2010
REM DISCID A80D520D
REM COMMENT "ExactAudioCopy v0.99pb5"
PERFORMER "Gilla"
TITLE "I Like Some Cool Rock 'N' Roll"
FILE "Gilla - I Like Some Cool Rock 'N' Roll.flac" WAVE
  TRACK 01 AUDIO
    TITLE "Go Down Mainstreet"
    PERFORMER "Gilla"
    FLAGS DCP
    INDEX 01 00:00:00
  TRACK 02 AUDIO
    TITLE "Discothek"
    PERFORMER "Gilla"
    FLAGS DCP
    INDEX 00 04:04:40
    INDEX 01 04:06:40
  TRACK 03 AUDIO
    TITLE "The Heat Is On"
    PERFORMER "Gilla"
    FLAGS DCP
    INDEX 00 07:52:66
    INDEX 01 07:54:66
  TRACK 04 AUDIO
    TITLE "We Gotta Get Out Of This Place"
    PERFORMER "Gilla"
    FLAGS DCP
    INDEX 00 11:37:21
    INDEX 01 11:39:21
  TRACK 05 AUDIO
    TITLE "Queen Of The Night"
    PERFORMER "Gilla"
    FLAGS DCP
    INDEX 00 16:17:72
    INDEX 01 16:19:72
  TRACK 06 AUDIO
    TITLE "Cool Rock 'N' Roll"
    PERFORMER "Gilla"
    FLAGS DCP
    INDEX 00 19:38:36
    INDEX 01 19:40:36
  TRACK 07 AUDIO
    TITLE "Take Your Time"
    PERFORMER "Gilla"
    FLAGS DCP
    INDEX 00 23:19:69
    INDEX 01 23:21:69
  TRACK 08 AUDIO
    TITLE "Heartbreaker"
    PERFORMER "Gilla"
    FLAGS DCP
    INDEX 00 27:00:50
    INDEX 01 27:02:50
  TRACK 09 AUDIO
    TITLE "Tom Cat"
    PERFORMER "Gilla"
    FLAGS DCP
    INDEX 00 30:42:08
    INDEX 01 30:44:08
  TRACK 10 AUDIO
    TITLE "The Summerwind"
    PERFORMER "Gilla"
    FLAGS DCP
    INDEX 00 34:40:00
    INDEX 01 34:42:00
  TRACK 11 AUDIO
    TITLE "Go Down Mainstreet (Long Version)"
    PERFORMER "Gilla"
    FLAGS DCP
    INDEX 00 38:31:34
    INDEX 01 38:33:34
  TRACK 12 AUDIO
    TITLE "Discothek (Long Version)"
    PERFORMER "Gilla"
    FLAGS DCP
    INDEX 00 45:00:57
    INDEX 01 45:02:57
  TRACK 13 AUDIO
    TITLE "We Gotta Get Out Of This Place (Long Version)"
    PERFORMER "Gilla"
    FLAGS DCP
    INDEX 00 51:24:05
    INDEX 01 51:26:05
[Профиль] [ЛС]

Создавать темы 13-Авг-2015 10:44 (спустя 7 месяцев 20 дней)

Топик был перенесен из форума Зарубежная в форум Technopop, Eurodance, Disco
sergej644
 
Кто просматривает тему:

Показать сообщения:    

Текущее время: Сегодня 20:04

Часовой пояс: GMT



Вы не можете начинать темы
Вы не можете отвечать на сообщения
Вы не можете редактировать свои сообщения
Вы не можете удалять свои сообщения
Вы не можете голосовать в опросах
Вы не можете прикреплять файлы к сообщениям
Вы не можете скачивать файлы